Subcategories

Opus - Up And Down (1984)

Posted By: popsakov
Opus - Up And Down (1984)

Opus - Up And Down (1984)
EAC Rip | FLAC, Img+Cue, Log+Checker ~ 286 Mb | MP3 CBR320 ~ 102 Mb
Scans Included (JPG, 300 dpi) | FileSonic, FileServe, Uploaded | 3% Recovery
Pop Rock | Label: Polydor | Catalog#: 825 183-2

Opus is a pop-rock group from Graz, Austria. Formed in 1973, the group remains active today. The band is especially well known for its 1985 single release, "Live Is Life". "Up and Down" is a fourth studio album of group.
Opus from Wiki
Opus - Up And Down (1984)

Track List:

01. Up and Down [03:51]
02. Vivian [03:52]
03. There is need for [04:11]
04. She Loves You [02:02]
05. The End of the Show [04:15]
06. Positive [04:08]
07. Way to Play [03:36]
08. Dark Side of the Mirror [03:45]
09. Waiting for a Call From You [05:20]
10. Small is Beautiful [02:43]

Exact Audio Copy V0.99 prebeta 1 from 25. May 2007

Отчёт EAC об извлечении, выполненном 31. января 2009, 16:17

Opus / Up and Down

Дисковод: HL-DT-STDVDRAM GSA-H12N Adapter: 0 ID: 1

Режим чтения : Достоверность
Использование точного потока : Да
Отключение кэша аудио : Да
Использование указателей C2 : Нет

Коррекция смещения при чтении : 667
Способность читать области Lead-in и Lead-out : Нет
Заполнение пропущенных сэмплов тишиной : Да
Удаление блоков с тишиной в начале и конце : Нет
Интерфейс : Установленный внешний ASPI-интерфейс

Выходной формат : Внутренние WAV-операции
Формат сэмплов : 44.100 Гц; 16 бит; стерео


TOC извлечённого CD

Трек | Старт | Длительность | Начальный сектор | Конечный сектор
––––––––––––––––––––––––––––––––––-
1 | 0:00.32 | 3:51.73 | 32 | 17429
2 | 3:52.30 | 3:54.37 | 17430 | 35016
3 | 7:46.67 | 4:12.00 | 35017 | 53916
4 | 11:58.67 | 2:03.38 | 53917 | 63179
5 | 14:02.30 | 4:18.10 | 63180 | 82539
6 | 18:20.40 | 4:09.40 | 82540 | 101254
7 | 22:30.05 | 3:38.40 | 101255 | 117644
8 | 26:08.45 | 3:45.37 | 117645 | 134556
9 | 29:54.07 | 5:20.73 | 134557 | 158629
10 | 35:15.05 | 2:43.67 | 158630 | 170921


Характеристики диапазона извлечения и сообщения об ошибках

Выбранный диапазон

Имя файла D:\Torrent\Opus - Up and Down\Opus - Up and Down.wav

Пиковый уровень 81.2 %
CRC копии B070E45B
Копирование… OK


AccurateRip: сводка

Трек 1 нет в базе данных
Трек 2 нет в базе данных
Трек 3 нет в базе данных
Трек 4 нет в базе данных
Трек 5 нет в базе данных
Трек 6 нет в базе данных
Трек 7 нет в базе данных
Трек 8 нет в базе данных
Трек 9 нет в базе данных
Трек 10 нет в базе данных

Ошибок не произошло

Конец отчёта

AUDIOCHECKER v2.0 beta (build 457) - by Dester - opdester@freemail.hu
~~~~~~~~~~~~~~~~~~~~~~~~~~~~~~~~~~
-=== НЕ РЕДАКТИРУЙТЕ ЭТОТ ФАЙЛ! ===-

Путь: …\Opus - Up and Down 1984

1 -=- Opus - Up and Down.flac -=- CDDA (100%)

108250420

[Verification date: 30.07.2011 14:54:30]
[Disc ID: 000e44d5-00725a07-7408e60a]
Pregap length 00:00:32.
Track [ CRC ] Status
01 [0949bd55] (01/01) Accurately ripped as in pressing(s) #1
02 [4a21d83e] (01/01) Accurately ripped as in pressing(s) #1
03 [91da5b04] (01/01) Accurately ripped as in pressing(s) #1
04 [029b5182] (01/01) Accurately ripped as in pressing(s) #1
05 [06f6c3a7] (01/01) Accurately ripped as in pressing(s) #1
06 [2da68f18] (01/01) Accurately ripped as in pressing(s) #1
07 [7a827846] (01/01) Accurately ripped as in pressing(s) #1
08 [0d86b5e0] (01/01) Accurately ripped as in pressing(s) #1
09 [ee58483c] (01/01) Accurately ripped as in pressing(s) #1
10 [aa1bf13d] (01/01) Accurately ripped as in pressing(s) #1

Track [ CRC32 ] [W/O NULL] [ LOG ]
– [B070E45B] [E129F0C2] CRC32
01 [25D0202C] [08A27F82]
02 [F9DA5B86] [B02AAAAA]
03 [1A407295] [576164B3]
04 [291D72DE] [B9EE4B17]
05 [E48DAFED] [DE130D8C]
06 [79D5174A] [CE250F89]
07 [6540C4A6] [09CCC699]
08 [58695F0F] [413582A6]
09 [1A31E6AC] [6AFB8F88]
10 [FF8273DE] [9865B76E]

Opus - Up And Down (1984)

Download:

FileSonic: FLAC | mp3
FileServe: FLAC | mp3
Uploaded: FLAC | mp3

pass: avaxhome.ws

In case you encounter some dead links, please leave the comment here or send me a private message!

Visit my blog!

All thanks go to Geshuk