Tags
Language
Tags

Orchestral Manoeuvres In The Dark - The Pacific Age (1986)

Posted By: gribovar
Orchestral Manoeuvres In The Dark - The Pacific Age (1986)

Orchestral Manoeuvres In The Dark - The Pacific Age (1986)
EAC Rip | FLAC (image+.cue+log) - 258 MB | MP3 CBR 320 kbps (LAME 3.93) - 95 MB | Covers - 19 MB
Genre: Synth-pop, New Wave | RAR 3% Rec. | Label: Virgin (0777 7 86705 2 0, CDV 2398)

The Pacific Age is the last OMD album to feature founding member Paul Humphreys (although The Best of OMD does collect a pair of subsequent singles). With producer Stephen Hague returning and guests Graham and Neil Weir elevated to full-time members, OMD aggressively targets the American pop market cultivated with Crush and the Top Ten single "If You Leave." With the Weirs' horns and a trio of female backing vocalists, the music on The Pacific Age sounds larger than life (the opening "Stay" in particular), a trait common to popular music in the mid-'80s. The added production value and better material represent an improvement over Crush, despite the opinion of some that The Pacific Age is a bland sellout. It's true that tracks like "(Forever) Live and Die," "Shame," and "Goddess of Love" are more style than substance, but it's a style that plays to OMD's mastery of melody and mood. The album follows the familiar trend of alternating tracks sung by Andy McCluskey and Humphreys, which effectively shifts the mood from energetic to understated often enough that the material feels fresher than it might otherwise. On the quieter tracks ("Dead Girls" and "The Pacific Age") the ghost of their earlier work reappears. The band also continues to string snippets of sound together to create interesting patterns; nothing on here is as jarring as the experimental Dazzle Ships, and tapping into Martin Luther King's legacy on "Southern" might be overreaching the limited range of pop, but the band does bring their technical skill to bear on a few cuts. If their last album was a halfhearted attempt to court commercial tastes, The Pacific Age benefits from its wholehearted pursuit of the same.
Tracklist:
01. Stay (The Black Rose and the Universal Wheel)
02. (Forever) Live And Die
03. The Pacific Age
04. The Dead Girls
05. Shame
06. Southern
07. Flame Of Hope
08. Goddess Of Love
09. We Love You
10. Watch Us Fall

Total time: 40:23

Exact Audio Copy V0.99 prebeta 3 from 28. July 2007

Отчёт EAC об извлечении, выполненном 14. августа 2013, 1:00

Orchestral Manoeuvres In The Dark / The Pacific Age

Дисковод: PLEXTOR DVDR PX-755A Adapter: 3 ID: 0

Режим чтения : Достоверность
Использование точного потока : Да
Отключение кэша аудио : Да
Использование указателей C2 : Нет

Коррекция смещения при чтении : 30
Способность читать области Lead-in и Lead-out : Да
Заполнение пропущенных сэмплов тишиной : Да
Удаление блоков с тишиной в начале и конце : Нет
При вычислениях CRC использовались нулевые сэмплы : Да
Интерфейс : Встроенный Win32-интерфейс для Win NT/2000

Выходной формат : Пользовательский кодировщик
Выбранный битрейт : 768 kBit/s
Качество : Высокий
Добавление ID3-тэга : Нет
Утилита сжатия : C:\Program Files (x86)\Exact Audio Copy\FLAC\FLAC.EXE
Дополнительные параметры : -8 -V -T "ARTIST=%a" -T "TITLE=%t" -T "ALBUM=%g" -T "DATE=%y" -T "TRACKNUMBER=%n" -T "GENRE=%m" -T "COMMENT=EAC FLAC -8" %s


TOC извлечённого CD

Трек | Старт | Длительность | Начальный сектор | Конечный сектор
––––––––––––––––––––––––––––––––––-
1 | 0:00.40 | 4:23.15 | 40 | 19779
2 | 4:23.55 | 3:38.10 | 19780 | 36139
3 | 8:01.65 | 3:59.22 | 36140 | 54086
4 | 12:01.12 | 4:48.40 | 54087 | 75726
5 | 16:49.52 | 4:16.25 | 75727 | 94951
6 | 21:06.02 | 3:41.70 | 94952 | 111596
7 | 24:47.72 | 2:40.20 | 111597 | 123616
8 | 27:28.17 | 4:30.70 | 123617 | 143936
9 | 31:59.12 | 4:10.20 | 143937 | 162706
10 | 36:09.32 | 4:13.73 | 162707 | 181754


Характеристики диапазона извлечения и сообщения об ошибках

Выбранный диапазон

Имя файла H:\OLD\Orchestral Manoeuvres In The Dark - The Pacific Age.wav

Пиковый уровень 100.0 %
Качество диапазона 99.9 %
CRC теста 4B5FA428
CRC копии 4B5FA428
Копирование… OK

Ошибок не произошло


AccurateRip: сводка

Трек 1 точность не определена (достоверность 9) [309973E8], AccurateRip вернул [B9AEDB4A]
Трек 2 точность не определена (достоверность 9) [D5EB8B40], AccurateRip вернул [71827A71]
Трек 3 точность не определена (достоверность 9) [8FE917FF], AccurateRip вернул [C578AC7B]
Трек 4 точность не определена (достоверность 9) [B2B1E512], AccurateRip вернул [FB5AD352]
Трек 5 точность не определена (достоверность 9) [1495859C], AccurateRip вернул [B75B0A73]
Трек 6 точность не определена (достоверность 9) [205B1E46], AccurateRip вернул [743BB2F1]
Трек 7 точность не определена (достоверность 9) [4AA8140C], AccurateRip вернул [39E130DC]
Трек 8 точность не определена (достоверность 9) [DF52128B], AccurateRip вернул [B8FC4C2F]
Трек 9 точность не определена (достоверность 9) [64C17A13], AccurateRip вернул [F98E23E5]
Трек 10 точность не определена (достоверность 9) [844861B9], AccurateRip вернул [A08D2F12]

Ни один трек не прошёл проверки на точность
В вашей базе может быть иной вариант штамповки диска

Конец отчёта

[CUETools log; Date: 26.11.2021 13:56:09; Version: 2.1.4]
Pregap length 00:00:40.
[CTDB TOCID: JsTrrxoRQFKTMiBaMwVGkH3Giog-] found.
Track | CTDB Status
1 | (293/304) Accurately ripped
2 | (296/304) Accurately ripped
3 | (296/304) Accurately ripped
4 | (292/304) Accurately ripped
5 | (296/304) Accurately ripped
6 | (297/304) Accurately ripped
7 | (297/304) Accurately ripped
8 | (295/304) Accurately ripped
9 | (296/304) Accurately ripped
10 | (288/304) Accurately ripped
[AccurateRip ID: 000f5333-007a241e-7809770a] found.
Track [ CRC | V2 ] Status
01 [309973e8|91081808] (00+29/66) Accurately ripped
02 [d5eb8b40|be38ca15] (00+29/66) Accurately ripped
03 [8fe917ff|37c4a9d6] (00+29/66) Accurately ripped
04 [b2b1e512|b25767e8] (00+28/65) Accurately ripped
05 [1495859c|16bd1c13] (00+28/65) Accurately ripped
06 [205b1e46|91724c28] (00+28/65) Accurately ripped
07 [4aa8140c|e727dc0b] (00+29/66) Accurately ripped
08 [df52128b|e9f9e67e] (00+29/66) Accurately ripped
09 [64c17a13|028ac5c1] (00+28/65) Accurately ripped
10 [844861b9|13de898c] (00+29/66) Accurately ripped
Offsetted by 36:
01 [b9aedb4a] (08/66) Accurately ripped
02 [71827a71] (08/66) Accurately ripped
03 [c578ac7b] (08/66) Accurately ripped
04 [fb5ad352] (08/65) Accurately ripped
05 [b75b0a73] (08/65) Accurately ripped
06 [743bb2f1] (08/65) Accurately ripped
07 [39e130dc] (08/66) Accurately ripped
08 [b8fc4c2f] (08/66) Accurately ripped
09 [f98e23e5] (08/65) Accurately ripped
10 [a08d2f12] (08/66) Accurately ripped
Offsetted by -6:
01 [cf857268] (00/66) No match (V2 was not tested)
02 [91110e6e] (00/66) No match (V2 was not tested)
03 [bff4e40b] (00/66) No match (V2 was not tested)
04 [9e991764] (00/65) No match (V2 was not tested)
05 [c971b1f6] (00/65) No match (V2 was not tested)
06 [b3b468c4] (00/65) No match (V2 was not tested)
07 [f56d0056] (00/66) No match (V2 was not tested)
08 [5281d849] (00/66) No match (V2 was not tested)
09 [e1497eea] (00/65) No match (V2 was not tested)
10 [abef16ec] (00/66) No match (V2 was not tested)

Track Peak [ CRC32 ] [W/O NULL] [ LOG ]
– 100,0 [4B5FA428] [88B5A0D0] CRC32
01 100,0 [03FB3A8C] [0891ED17]
02 84,4 [16AD992F] [F482D792]
03 100,0 [CEF14BC8] [E56DF9EF]
04 98,6 [470FE2D7] [2928E137]
05 97,6 [4EE2F40A] [61EB1086]
06 95,6 [B956FE77] [58809DA6]
07 86,2 [2AA07B05] [C3E17D44]
08 100,0 [CCD0ECAA] [75761A50]
09 100,0 [21FB5588] [47B1F846]
10 97,0 [DC85C09C] [08F69FAF]

Thanks to nik010765

See also: