Subcategories

Orff - Carmina Burana / Stravinsky - Fireworks, Circus Polka (2001) (R. Fruhbeck de Burgos)

Posted By: uff
Orff - Carmina Burana / Stravinsky - Fireworks, Circus Polka (2001) (R. Fruhbeck de Burgos)

Orff - Carmina Burana / Stravinsky - Fireworks, Circus Polka (2001) (R. Fruhbeck de Burgos)
Classical | 1cd | EAC Rip | Wv + Cue + Log | covers
EMI/Gala Records, 5099 9 501320 2 7 | rec: 1966 & 1968 | 390Mb

EMI Has rereleased this classic recording of Carmina Burana, and thank Heaven! No other performance – and there are so many excellent ones – quite captures the spirit of this magnificent work so truly. Fruehbeck de Burgos keeps magisterial control over the enormous forces, the choir of boys is excellent, and the soloists are second to none. The baritone in Omnia Sol Temperat is exquisite – in Estuans Interius, riveting – the opening, ominous O Fortuna is perfect, and Lucia Popp's In Trutina Mentis Dubia is delectable, sensuous, thrilling – her intaken breath, after the words "fluctuant contraria", just adds a further sensuousness and rapture to her delicious rendition; and the penultimate "Blanziflor et Helena", a hymn to the Goddess in her bright aspect, is jubilant, triumphant– just as the shattering reprise of "O Fortuna", ending the piece, is one to her in her dark aspect. A true desert island recording! And the reissue, coupled with Stravinsky, is excellent. A Must-Have version of this Must-Have piece! ~Allmusic

Track listing
01. Carmina Burana: Fortuna Imperatrix Mundi: O Fortuna (2:50)
02. Carmina Burana: Fortuna Imperatrix Mundi: Fortune Plango Vulnera (2:50)
03. Carmina Burana: I Primo Vere: Veris Leta Facies (3:51)
04. Carmina Burana: I Primo Vere: Omnia Sol Temperat (1:43)
05. Carmina Burana: I Primo Vere: Ecce Gratum (2:52)
06. Carmina Burana: Uf Dem Anger: Tanz (1:59)
07. Carmina Burana: Uf Dem Anger: Floret Silva Nobilis (3:29)
08. Carmina Burana: Uf Dem Anger: Chramer, Gip Die Varwe Mir (3:35)
09. Carmina Burana: Uf Dem Anger: Reie… (5:12)
10. Carmina Burana: Uf Dem Anger: Were Diu Werlt Alle Min (1:01)
11. Carmina Burana: Ii In Taberna: Estuaris Interius (2:25)
12. Carmina Burana: Ii In Taberna: Olim Lacus Colueram (3:23)
13. Carmina Burana: Ii In Taberna: Ego Sum Abbas (1:16)
14. Carmina Burana: Ii In Taberna: In Taberna Quando Sumus (3:24)
15. Carmina Burana: Iii Cours D'amour: Amor Volat Undique (3:15)
16. Carmina Burana: Iii Cours D'amour: Dies, Nox Et Omnia (2:07)
17. Carmina Burana: Iii Cours D'amour: Stetit Puella (2:00)
18. Carmina Burana: Iii Cours D'amour: Circa Mea Pectora (2:11)
19. Carmina Burana: Iii Cours D'amour: Si Puer Cum Puellula (0:57)
20. Carmina Burana: Iii Cours D'amour: Veni, Veni, Venias (0:55)
21. Carmina Burana: Iii Cours D'amour: In Trutina (2:07)
22. Carmina Burana: Iii Cours D'amour: Tempus Est Iocondum (2:24)
23. Carmina Burana: Iii Cours D'amour: Dulcissime (0:32)
24. Carmina Burana: Blanziflor Et Helena: Ave Formosissima (1:43)
25. Carmina Burana: Fortuna Imperatrix Mundi: O Fortuna (2:53)
26. Stravinsky - Fireworks, Op 4 (3:35)
27. Stravinsky - Circus Polka (3:24)


Exact Audio Copy V1.0 beta 6 from 9. April 2015

EAC extraction logfile from 10. January 2016, 14:01

New Philharmonia Orchestra and Chorus / Orff, Carmina Burana and Stravinsky, Fireworks and Circus Polka

Used drive : TSSTcorpCDDVDW SH-224DB Adapter: 1 ID: 0

Read mode : Secure
Utilize accurate stream : Yes
Defeat audio cache : Yes
Make use of C2 pointers : No

Read offset correction : 6
Overread into Lead-In and Lead-Out : No
Fill up missing offset samples with silence : Yes
Delete leading and trailing silent blocks : No
Null samples used in CRC calculations : Yes
Used interface : Native Win32 interface for Win NT & 2000

Used output format : User Defined Encoder
Selected bitrate : 1024 kBit/s
Quality : High
Add ID3 tag : No
Command line compressor : C:\Program Files (x86)\Exact Audio Copy\wavpack.exe
Additional command line options : -hm %source% %dest%


TOC of the extracted CD

Track | Start | Length | Start sector | End sector
––––––––––––––––––––––––––––-
1 | 0:00.00 | 2:50.72 | 0 | 12821
2 | 2:50.72 | 2:50.33 | 12822 | 25604
3 | 5:41.30 | 3:51.72 | 25605 | 43001
4 | 9:33.27 | 1:43.38 | 43002 | 50764
5 | 11:16.65 | 2:52.52 | 50765 | 63716
6 | 14:09.42 | 1:59.08 | 63717 | 72649
7 | 16:08.50 | 3:29.32 | 72650 | 88356
8 | 19:38.07 | 3:35.40 | 88357 | 104521
9 | 23:13.47 | 5:12.48 | 104522 | 127969
10 | 28:26.20 | 1:01.02 | 127970 | 132546
11 | 29:27.22 | 2:25.05 | 132547 | 143426
12 | 31:52.27 | 3:23.08 | 143427 | 158659
13 | 35:15.35 | 1:16.15 | 158660 | 164374
14 | 36:31.50 | 3:24.02 | 164375 | 179676
15 | 39:55.52 | 3:15.53 | 179677 | 194354
16 | 43:11.30 | 2:07.05 | 194355 | 203884
17 | 45:18.35 | 2:00.40 | 203885 | 212924
18 | 47:19.00 | 2:11.60 | 212925 | 222809
19 | 49:30.60 | 0:57.50 | 222810 | 227134
20 | 50:28.35 | 0:55.15 | 227135 | 231274
21 | 51:23.50 | 2:07.22 | 231275 | 240821
22 | 53:30.72 | 2:24.65 | 240822 | 251686
23 | 55:55.62 | 0:32.18 | 251687 | 254104
24 | 56:28.05 | 1:43.62 | 254105 | 261891
25 | 58:11.67 | 3:03.53 | 261892 | 275669
26 | 61:15.45 | 3:39.30 | 275670 | 292124
27 | 64:55.00 | 3:24.10 | 292125 | 307434


Range status and errors

Selected range

Filename G:\iso\New Philharmonia Orchestra and Chorus - Orff, Carmina Burana and Stravinsky, Fireworks and Circus Polka\New Philharmonia Orchestra and Chorus - Orff, Carmina Burana and Stravinsky, Fireworks and Circus Polka.wav

Peak level 99.6 %
Extraction speed 2.1 X
Range quality 100.0 %
Test CRC 4C8981D8
Copy CRC 4C8981D8
Copy OK

No errors occurred


AccurateRip summary

Track 1 cannot be verified as accurate (confidence 9) [370E23EC], AccurateRip returned [78169961] (AR v2)
Track 2 cannot be verified as accurate (confidence 9) [404DD825], AccurateRip returned [8043FEC6] (AR v2)
Track 3 cannot be verified as accurate (confidence 9) [EA4E41D6], AccurateRip returned [3BB8BB3E] (AR v2)
Track 4 cannot be verified as accurate (confidence 9) [F16B5D11], AccurateRip returned [F62F06D7] (AR v2)
Track 5 cannot be verified as accurate (confidence 9) [B39D5DAA], AccurateRip returned [6068FB60] (AR v2)
Track 6 cannot be verified as accurate (confidence 9) [858E9240], AccurateRip returned [B0895803] (AR v2)
Track 7 cannot be verified as accurate (confidence 9) [3EF7C098], AccurateRip returned [5CD7C89C] (AR v2)
Track 8 cannot be verified as accurate (confidence 9) [C0E69598], AccurateRip returned [B40B545C] (AR v2)
Track 9 cannot be verified as accurate (confidence 9) [D7D8F823], AccurateRip returned [CEE46292] (AR v2)
Track 10 cannot be verified as accurate (confidence 9) [C723CA3F], AccurateRip returned [3F942749] (AR v2)
Track 11 cannot be verified as accurate (confidence 9) [1204C0BB], AccurateRip returned [451BD5C1] (AR v2)
Track 12 cannot be verified as accurate (confidence 9) [36CE1310], AccurateRip returned [0E7B9B28] (AR v2)
Track 13 cannot be verified as accurate (confidence 9) [D4061C3B], AccurateRip returned [E62E2466] (AR v2)
Track 14 cannot be verified as accurate (confidence 9) [31F857F4], AccurateRip returned [07D5C7A5] (AR v2)
Track 15 cannot be verified as accurate (confidence 9) [0F18B0EC], AccurateRip returned [69F258CB] (AR v2)
Track 16 cannot be verified as accurate (confidence 9) [31F1EA04], AccurateRip returned [46E82941] (AR v2)
Track 17 cannot be verified as accurate (confidence 9) [4620A69B], AccurateRip returned [C45888A6] (AR v2)
Track 18 cannot be verified as accurate (confidence 9) [EA0A8F3B], AccurateRip returned [B846B331] (AR v2)
Track 19 cannot be verified as accurate (confidence 9) [B5E3EC08], AccurateRip returned [A4564643] (AR v2)
Track 20 cannot be verified as accurate (confidence 9) [D3BB1D4F], AccurateRip returned [074B2EB6] (AR v2)
Track 21 cannot be verified as accurate (confidence 9) [C0DD300B], AccurateRip returned [B4E32D2A] (AR v2)
Track 22 cannot be verified as accurate (confidence 9) [2518AEDE], AccurateRip returned [9564BD29] (AR v2)
Track 23 cannot be verified as accurate (confidence 9) [88918062], AccurateRip returned [C89FBFBB] (AR v2)
Track 24 cannot be verified as accurate (confidence 9) [31CB86E0], AccurateRip returned [30B0D31D] (AR v2)
Track 25 cannot be verified as accurate (confidence 9) [904ABD61], AccurateRip returned [57242AB8] (AR v2)
Track 26 cannot be verified as accurate (confidence 9) [0286A3BF], AccurateRip returned [2674F1E3] (AR v2)
Track 27 cannot be verified as accurate (confidence 8) [6450EBBC], AccurateRip returned [465307D4] (AR v2)

No tracks could be verified as accurate
You may have a different pressing from the one(s) in the database

End of status report

–– CUETools DB Plugin V2.1.6

[CTDB TOCID: X0EmS6Y1WyyQBWqYOD8E6nm4GdM-] found
Submit result: X0EmS6Y1WyyQBWqYOD8E6nm4GdM- has been confirmed
Track | CTDB Status
1 | (15/15) Accurately ripped
2 | (15/15) Accurately ripped
3 | (15/15) Accurately ripped
4 | (15/15) Accurately ripped
5 | (15/15) Accurately ripped
6 | (15/15) Accurately ripped
7 | (15/15) Accurately ripped
8 | (15/15) Accurately ripped
9 | (15/15) Accurately ripped
10 | (15/15) Accurately ripped
11 | (15/15) Accurately ripped
12 | (15/15) Accurately ripped
13 | (15/15) Accurately ripped
14 | (15/15) Accurately ripped
15 | (15/15) Accurately ripped
16 | (15/15) Accurately ripped
17 | (15/15) Accurately ripped
18 | (15/15) Accurately ripped
19 | (15/15) Accurately ripped
20 | (15/15) Accurately ripped
21 | (15/15) Accurately ripped
22 | (15/15) Accurately ripped
23 | (15/15) Accurately ripped
24 | (15/15) Accurately ripped
25 | (15/15) Accurately ripped
26 | (15/15) Accurately ripped
27 | (15/15) Accurately ripped


==== Log checksum 5F7029AC0E5B15639DDF346A63ED1B1FA5173AB1469F468F8466BC12DF67F7C4 ====



[CUETools log; Date: 2017. 01. 12. 14:57:47; Version: 2.1.6]
[CTDB TOCID: X0EmS6Y1WyyQBWqYOD8E6nm4GdM-] found.
Track | CTDB Status
1 | (20/20) Accurately ripped
2 | (20/20) Accurately ripped
3 | (20/20) Accurately ripped
4 | (20/20) Accurately ripped
5 | (20/20) Accurately ripped
6 | (20/20) Accurately ripped
7 | (20/20) Accurately ripped
8 | (20/20) Accurately ripped
9 | (20/20) Accurately ripped
10 | (20/20) Accurately ripped
11 | (20/20) Accurately ripped
12 | (20/20) Accurately ripped
13 | (20/20) Accurately ripped
14 | (20/20) Accurately ripped
15 | (20/20) Accurately ripped
16 | (20/20) Accurately ripped
17 | (20/20) Accurately ripped
18 | (20/20) Accurately ripped
19 | (20/20) Accurately ripped
20 | (20/20) Accurately ripped
21 | (20/20) Accurately ripped
22 | (20/20) Accurately ripped
23 | (20/20) Accurately ripped
24 | (20/20) Accurately ripped
25 | (20/20) Accurately ripped
26 | (20/20) Accurately ripped
27 | (20/20) Accurately ripped
[AccurateRip ID: 004556d9-05209545-a110031b] found.
Track [ CRC | V2 ] Status
01 [6a29a777|370e23ec] (00+00/18) No match
02 [451fceef|404dd825] (00+00/18) No match
03 [2b399cee|ea4e41d6] (00+00/18) No match
04 [20ce98d4|f16b5d11] (00+00/18) No match
05 [902c8241|b39d5daa] (00+00/18) No match
06 [b1e1cf08|858e9240] (00+00/18) No match
07 [bf76c326|3ef7c098] (00+00/18) No match
08 [0d4d1cb7|c0e69598] (00+00/18) No match
09 [34544a97|d7d8f823] (00+00/18) No match
10 [c16cf625|c723ca3f] (00+00/18) No match
11 [75048c53|1204c0bb] (00+00/18) No match
12 [43259ce0|36ce1310] (00+00/18) No match
13 [f1f5abdc|d4061c3b] (00+00/18) No match
14 [3a114411|31f857f4] (00+00/18) No match
15 [290264b8|0f18b0ec] (00+00/18) No match
16 [6e6d9506|31f1ea04] (00+00/18) No match
17 [3cadfa97|4620a69b] (00+00/18) No match
18 [ea82aaf1|ea0a8f3b] (00+00/18) No match
19 [247ccb5c|b5e3ec08] (00+00/18) No match
20 [5a4b786a|d3bb1d4f] (00+00/18) No match
21 [b8bd6e88|c0dd300b] (00+00/18) No match
22 [c49acc2d|2518aede] (00+00/18) No match
23 [bd7c9a92|88918062] (00+00/18) No match
24 [9635cfa1|31cb86e0] (00+00/18) No match
25 [7108f9ed|904abd61] (00+00/18) No match
26 [5acad711|0286a3bf] (00+00/18) No match
27 [98ce51d4|6450ebbc] (00+00/17) No match
Offsetted by 664:
01 [a5863a09] (08/18) Accurately ripped
02 [73899b6a] (08/18) Accurately ripped
03 [1d5ab7f8] (08/18) Accurately ripped
04 [f456b984] (08/18) Accurately ripped
05 [4ec09226] (08/18) Accurately ripped
06 [d6c0604f] (08/18) Accurately ripped
07 [4109ad3d] (08/18) Accurately ripped
08 [a348eea2] (08/18) Accurately ripped
09 [ce9fa4c9] (08/18) Accurately ripped
10 [338078aa] (08/18) Accurately ripped
11 [fcbbd66d] (08/18) Accurately ripped
12 [5bbba69d] (08/18) Accurately ripped
13 [e4fc3e0a] (08/18) Accurately ripped
14 [125fe898] (08/18) Accurately ripped
15 [1cd648f9] (08/18) Accurately ripped
16 [86cb3cc8] (08/18) Accurately ripped
17 [f0f13e77] (08/18) Accurately ripped
18 [b459d804] (08/18) Accurately ripped
19 [1bf29eb8] (08/18) Accurately ripped
20 [9bc0e02a] (08/18) Accurately ripped
21 [c12d8022] (08/18) Accurately ripped
22 [3d5675b3] (08/18) Accurately ripped
23 [f2947dd4] (08/18) Accurately ripped
24 [98d4827c] (08/18) Accurately ripped
25 [ce7502be] (08/18) Accurately ripped
26 [39d1d431] (08/18) Accurately ripped
27 [465307d4] (08/17) Accurately ripped

Track Peak [ CRC32 ] [W/O NULL] [ LOG ]
– 99,6 [4C8981D8] [DA5BB7ED] CRC32
01 99,6 [843A25ED] [CB26D33E]
02 99,4 [7813EAE2] [5D19F820]
03 62,1 [57F11125] [B6C353C6]
04 23,1 [E458A3D8] [D2604707]
05 93,4 [5AD3EC3F] [FE4481C7]
06 98,4 [E8BC9F16] [3180369F]
07 90,6 [A9BF38DD] [38A83977]
08 36,7 [1BF8A31A] [AFA03FC3]
09 92,5 [3CC01E24] [ED80D94D]
10 99,0 [BF80FBF3] [7C607F8A]
11 87,7 [72CCCAA1] [C9FB7833]
12 88,3 [6B049AE5] [3C3587EB]
13 98,3 [776F33BD] [3DDDD8CB]
14 98,7 [AD1E06B5] [7EFE07AA]
15 38,9 [64FB1E55] [59B47D8C]
16 34,6 [D7413D8D] [8B8F06B0]
17 34,9 [7F761639] [D3CD49F9]
18 83,9 [45B17F02] [C2FB16ED]
19 63,2 [90597F24] [4A9E0D07]
20 86,7 [EBC1514C] [9FB77C09]
21 32,1 [91870344] [8682BB1D]
22 97,2 [38FE5A66] [390647C4]
23 59,5 [389DDE59] [F59A4895]
24 89,6 [8C95F5C0] [0972906E]
25 99,1 [7E1E06FB] [09CE1384]
26 98,6 [59D1B521] [8ED2231F]
27 95,4 [4B0E516F] [179C74B8]


original uploader unknown