Subcategories

Original Album Series: The Everly Brothers (2010)

Posted By: hill0
Original Album Series: The Everly Brothers (2010)

Original Album Series: The Everly Brothers (2010)
EAC Rip | FLAC (tracks & cue & log) | 910 MB | MP3 CBR 320 kbps | 340 MB | Artwork (PNG 600 dpi) | 176 MB | 2:28:29
Genre: Rock & Roll / Pop Rock / Country Rock | Country: USA | Label: Rhino Records | 8122 79801 8

EVERLY BROTHERS Original Album Series 2010 UK issue 5-CD album set comprised of the best selling and critically acclaimed album releases 'A Date With The Everly Bros', 'It's Everly Time', 'Rock 'N' Soul', 'Roots' and 'Two Yanks In England'; eachalbum is housed in a mini LP-style card picture sleeve with the complete set presented in a sealed card slipcase.
Original Album Series: The Everly Brothers (2010)

The Everly Brothers was an American (Muhlenberg County, Kentucky, USA) duo of singing brothers: Don and Phil, (Don Everly, born Isaac Donald Everly February 1, 1937, Brownie, Kentucky; Phil Everly, born Phillip Everly, January 19, 1939, Chicago, Illinois, died January 3, 2014, in Burbank, California). The pair of male siblings became top-selling country-influenced rock and roll performers, best known for their steel-string guitar playing and close harmony singing. Their greatest period of chart success came between 1957 and 1961. Overall, they had 35 US Billboard Top 100 singles, 26 in the top 40. They hold the record for the most US Top 100 singles by any duo. They were elected to the Rock and Roll Hall of Fame in 1986.


Original Album Series: The Everly Brothers (2010)

It's Everly Time (1960)
EAC Rip | FLAC (tracks & cue & log) | 164 MB | MP3 CBR 320 kbps | 62 MB | 27:11

While the Everlys' sound was diluted by more elaborate production in the '60s, that's not at all true on this LP, which is one of their very best. Not a stiff among the 12 tracks, most of which are barely known outside of serious Everly fans. Includes six stellar contributions by Boudleaux and Felice Bryant, one of Don Everly's best compositions ("So Sad"), and incredible harmony singing throughout.
~ Richie Unterberger
Original Album Series: The Everly Brothers (2010)


Tracklist

1. So Sad (To Watch Good Love Go Bad)
2. Just In Case
3. Memories Are Made Of This
4. That's What You Do To Me
5. Sleepless Nights
6. What Kind Of Girl Are You
7. Oh True Love
8. Carol Jane
9. Some Sweet Day
10. Nashville Blues
11. You Thrill Me (Through And Through)
12. I Want You To Know

Exact Audio Copy V0.99 prebeta 4 from 23. January 2008

EAC extraction logfile from 27. October 2010, 13:05

The Everly Brothers / It's Everly Time

Used drive : TSSTcorpCD/DVDW TS-H652M Adapter: 1 ID: 0

Read mode : Secure
Utilize accurate stream : Yes
Defeat audio cache : Yes
Make use of C2 pointers : No

Read offset correction : 6
Overread into Lead-In and Lead-Out : No
Fill up missing offset samples with silence : Yes
Delete leading and trailing silent blocks : No
Null samples used in CRC calculations : Yes
Used interface : Native Win32 interface for Win NT & 2000
Gap handling : Appended to previous track

Used output format : User Defined Encoder
Selected bitrate : 320 kBit/s
Quality : High
Add ID3 tag : No
Command line compressor : C:\Program Files\Exact Audio Copy\Flac\flac.exe
Additional command line options : -8 -V -T "ARTIST=%a" -T "TITLE=%t" -T "ALBUM=%g" -T "DATE=%y" -T "TRACKNUMBER=%n" -T "TOTALTRACKS=%x" -T "GENRE=%m" -T "ALBUM ARTIST=%v" -T "ALBUMARTIST=%v" -T "COMMENT=EAC V0.99 prebeta 4, Secure Mode, Test & Copy, Accura


TOC of the extracted CD

Track | Start | Length | Start sector | End sector
––––––––––––––––––––––––––––-
1 | 0:00.00 | 2:37.12 | 0 | 11786
2 | 2:37.12 | 2:13.10 | 11787 | 21771
3 | 4:50.22 | 2:35.20 | 21772 | 33416
4 | 7:25.42 | 2:03.70 | 33417 | 42711
5 | 9:29.37 | 2:24.53 | 42712 | 53564
6 | 11:54.15 | 1:57.12 | 53565 | 62351
7 | 13:51.27 | 2:14.00 | 62352 | 72401
8 | 16:05.27 | 1:51.73 | 72402 | 80799
9 | 17:57.25 | 2:25.30 | 80800 | 91704
10 | 20:22.55 | 2:39.50 | 91705 | 103679
11 | 23:02.30 | 2:05.45 | 103680 | 113099
12 | 25:08.00 | 2:02.02 | 113100 | 122251


Track 1

Filename C:\CDs\The Everly Brothers - Original Album Series (1960-1968) [FLAC] {2010 Rhino 5-CDs}\1 - It's Everly Time (1960)\01 - So Sad (To Watch Good Love Go Bad).wav

Pre-gap length 0:00:02.00

Peak level 84.8 %
Track quality 100.0 %
Test CRC EC0B4C8F
Copy CRC EC0B4C8F
Track not present in AccurateRip database
Copy OK

Track 2

Filename C:\CDs\The Everly Brothers - Original Album Series (1960-1968) [FLAC] {2010 Rhino 5-CDs}\1 - It's Everly Time (1960)\02 - Just In Case.wav

Pre-gap length 0:00:02.76

Peak level 97.0 %
Track quality 99.9 %
Test CRC 3158EEF1
Copy CRC 3158EEF1
Track not present in AccurateRip database
Copy OK

Track 3

Filename C:\CDs\The Everly Brothers - Original Album Series (1960-1968) [FLAC] {2010 Rhino 5-CDs}\1 - It's Everly Time (1960)\03 - Memories Are Made Of This.wav

Pre-gap length 0:00:01.13

Peak level 97.3 %
Track quality 100.0 %
Test CRC F3D6FD2C
Copy CRC F3D6FD2C
Track not present in AccurateRip database
Copy OK

Track 4

Filename C:\CDs\The Everly Brothers - Original Album Series (1960-1968) [FLAC] {2010 Rhino 5-CDs}\1 - It's Everly Time (1960)\04 - That's What You Do To Me.wav

Pre-gap length 0:00:02.60

Peak level 97.8 %
Track quality 100.0 %
Test CRC AE3736CB
Copy CRC AE3736CB
Track not present in AccurateRip database
Copy OK

Track 5

Filename C:\CDs\The Everly Brothers - Original Album Series (1960-1968) [FLAC] {2010 Rhino 5-CDs}\1 - It's Everly Time (1960)\05 - Sleepless Nights.wav

Pre-gap length 0:00:01.65

Peak level 74.4 %
Track quality 100.0 %
Test CRC A68D65BF
Copy CRC A68D65BF
Track not present in AccurateRip database
Copy OK

Track 6

Filename C:\CDs\The Everly Brothers - Original Album Series (1960-1968) [FLAC] {2010 Rhino 5-CDs}\1 - It's Everly Time (1960)\06 - What Kind Of Girl Are You.wav

Peak level 97.0 %
Track quality 100.0 %
Test CRC F6C76F7E
Copy CRC F6C76F7E
Track not present in AccurateRip database
Copy OK

Track 7

Filename C:\CDs\The Everly Brothers - Original Album Series (1960-1968) [FLAC] {2010 Rhino 5-CDs}\1 - It's Everly Time (1960)\07 - Oh, True Love.wav

Pre-gap length 0:00:02.69

Peak level 86.4 %
Track quality 100.0 %
Test CRC 324A3F85
Copy CRC 324A3F85
Track not present in AccurateRip database
Copy OK

Track 8

Filename C:\CDs\The Everly Brothers - Original Album Series (1960-1968) [FLAC] {2010 Rhino 5-CDs}\1 - It's Everly Time (1960)\08 - Carol Jane.wav

Pre-gap length 0:00:03.16

Peak level 88.1 %
Track quality 100.0 %
Test CRC 0D0F80FC
Copy CRC 0D0F80FC
Track not present in AccurateRip database
Copy OK

Track 9

Filename C:\CDs\The Everly Brothers - Original Album Series (1960-1968) [FLAC] {2010 Rhino 5-CDs}\1 - It's Everly Time (1960)\09 - Some Sweet Day.wav

Pre-gap length 0:00:02.04

Peak level 78.9 %
Track quality 100.0 %
Test CRC DF98587D
Copy CRC DF98587D
Track not present in AccurateRip database
Copy OK

Track 10

Filename C:\CDs\The Everly Brothers - Original Album Series (1960-1968) [FLAC] {2010 Rhino 5-CDs}\1 - It's Everly Time (1960)\10 - Nashville Blues.wav

Pre-gap length 0:00:01.30

Peak level 82.8 %
Track quality 100.0 %
Test CRC 0B857006
Copy CRC 0B857006
Track not present in AccurateRip database
Copy OK

Track 11

Filename C:\CDs\The Everly Brothers - Original Album Series (1960-1968) [FLAC] {2010 Rhino 5-CDs}\1 - It's Everly Time (1960)\11 - You Thrill Me (Through And Through).wav

Pre-gap length 0:00:01.84

Peak level 82.6 %
Track quality 100.0 %
Test CRC B8907F18
Copy CRC B8907F18
Track not present in AccurateRip database
Copy OK

Track 12

Filename C:\CDs\The Everly Brothers - Original Album Series (1960-1968) [FLAC] {2010 Rhino 5-CDs}\1 - It's Everly Time (1960)\12 - I Want You To Know.wav

Pre-gap length 0:00:02.00

Peak level 85.6 %
Track quality 100.0 %
Test CRC 2F1A9A28
Copy CRC 2F1A9A28
Track not present in AccurateRip database
Copy OK


None of the tracks are present in the AccurateRip database

No errors occurred

End of status report

[CUETools log; Date: 20.09.2016 14:52:41; Version: 2.1.5]
[CTDB TOCID: IQvRjzcHjzyjSWplsZPcQp8XywE-] found.
Track | CTDB Status
1 | (15/15) Accurately ripped
2 | (15/15) Accurately ripped
3 | (15/15) Accurately ripped
4 | (15/15) Accurately ripped
5 | (15/15) Accurately ripped
6 | (15/15) Accurately ripped
7 | (15/15) Accurately ripped
8 | (15/15) Accurately ripped
9 | (15/15) Accurately ripped
10 | (15/15) Accurately ripped
11 | (15/15) Accurately ripped
12 | (15/15) Accurately ripped
[AccurateRip ID: 000c5a48-0072820b-9d065e0c] database access error: GatewayTimeout.

Track Peak [ CRC32 ] [W/O NULL] [ LOG ]
– 97,8 [677B2E42] [B3AAF4A9]
01 84,8 [EC0B4C8F] [3373F02D] CRC32
02 97,0 [3158EEF1] [A1F486A5] CRC32
03 97,3 [F3D6FD2C] [ED8D8D34] CRC32
04 97,8 [AE3736CB] [429BE678] CRC32
05 74,4 [A68D65BF] [C7FFF852] CRC32
06 97,0 [F6C76F7E] [AAE6CF5B] CRC32
07 86,4 [324A3F85] [6E914284] CRC32
08 88,1 [0D0F80FC] [DED561FE] CRC32
09 78,9 [DF98587D] [D08E297F] CRC32
10 82,8 [0B857006] [9E8D5928] CRC32
11 82,6 [B8907F18] [7DD4E8BB] CRC32
12 85,6 [2F1A9A28] [D09F2186] CRC32

Original Album Series: The Everly Brothers (2010)

A Date With The Everly Brothers (1961)
EAC Rip | FLAC (tracks & cue & log) | 174 MB | MP3 CBR 320 kbps | 64 MB | 27:56

Although the material is not on the killer level of It's Everly Time, there are some very fine songs on their second Warner LP. Includes "Cathy's Clown," their raucous cover of Little Richard's "Lucille," "Love Hurts" (which preceded Roy Orbison's hit version), and "So How Come" (covered by the Beatles in 1963 on the BBC).
~Richie Unterberger
Original Album Series: The Everly Brothers (2010)


Tracklist

1. Made To Love
2. That's Just Too Much
3. Stick With Me Baby
4. Baby What You Want Me To Do
5. Sigh Cry Almost Die
6. Always It's You
7. Love Hurts
8. Lucille
9. So How Come (No One Loves Me)
10. Donna Donna
11. Change Of Heart
12. Cathy's Clown

Exact Audio Copy V0.99 prebeta 4 from 23. January 2008

EAC extraction logfile from 27. October 2010, 14:34

The Everly Brothers / A Date With The Everly Brothers

Used drive : TSSTcorpCD/DVDW TS-H652M Adapter: 1 ID: 0

Read mode : Secure
Utilize accurate stream : Yes
Defeat audio cache : Yes
Make use of C2 pointers : No

Read offset correction : 6
Overread into Lead-In and Lead-Out : No
Fill up missing offset samples with silence : Yes
Delete leading and trailing silent blocks : No
Null samples used in CRC calculations : Yes
Used interface : Native Win32 interface for Win NT & 2000
Gap handling : Appended to previous track

Used output format : User Defined Encoder
Selected bitrate : 320 kBit/s
Quality : High
Add ID3 tag : No
Command line compressor : C:\Program Files\Exact Audio Copy\Flac\flac.exe
Additional command line options : -8 -V -T "ARTIST=%a" -T "TITLE=%t" -T "ALBUM=%g" -T "DATE=%y" -T "TRACKNUMBER=%n" -T "TOTALTRACKS=%x" -T "GENRE=%m" -T "ALBUM ARTIST=%v" -T "ALBUMARTIST=%v" -T "COMMENT=EAC V0.99 prebeta 4, Secure Mode, Test & Copy, Accura


TOC of the extracted CD

Track | Start | Length | Start sector | End sector
––––––––––––––––––––––––––––-
1 | 0:00.01 | 2:05.32 | 1 | 9407
2 | 2:05.33 | 2:41.04 | 9408 | 21486
3 | 4:46.37 | 1:57.09 | 21487 | 30270
4 | 6:43.46 | 2:20.73 | 30271 | 40843
5 | 9:04.44 | 2:18.07 | 40844 | 51200
6 | 11:22.51 | 2:30.33 | 51201 | 62483
7 | 13:53.09 | 2:23.32 | 62484 | 73240
8 | 16:16.41 | 2:32.41 | 73241 | 84681
9 | 18:49.07 | 2:18.02 | 84682 | 95033
10 | 21:07.09 | 2:14.21 | 95034 | 105104
11 | 23:21.30 | 2:08.25 | 105105 | 114729
12 | 25:29.55 | 2:25.69 | 114730 | 125673


Track 1

Filename C:\CDs\The Everly Brothers - Original Album Series (1960-1968) [FLAC] {2010 Rhino 5-CDs}\2 - A Date With The Everly Brothers (1961)\01 - Made To Love.wav

Pre-gap length 0:00:02.01

Peak level 89.5 %
Track quality 100.0 %
Test CRC 771E5E08
Copy CRC 771E5E08
Track not present in AccurateRip database
Copy OK

Track 2

Filename C:\CDs\The Everly Brothers - Original Album Series (1960-1968) [FLAC] {2010 Rhino 5-CDs}\2 - A Date With The Everly Brothers (1961)\02 - That's Just Too Much.wav

Pre-gap length 0:00:01.46

Peak level 92.6 %
Track quality 99.9 %
Test CRC 02808486
Copy CRC 02808486
Track not present in AccurateRip database
Copy OK

Track 3

Filename C:\CDs\The Everly Brothers - Original Album Series (1960-1968) [FLAC] {2010 Rhino 5-CDs}\2 - A Date With The Everly Brothers (1961)\03 - Stick With Me Baby.wav

Peak level 92.7 %
Track quality 100.0 %
Test CRC 7AC2495A
Copy CRC 7AC2495A
Track not present in AccurateRip database
Copy OK

Track 4

Filename C:\CDs\The Everly Brothers - Original Album Series (1960-1968) [FLAC] {2010 Rhino 5-CDs}\2 - A Date With The Everly Brothers (1961)\04 - Baby What You Want Me To Do.wav

Pre-gap length 0:00:01.09

Peak level 97.2 %
Track quality 100.0 %
Test CRC 2F878D56
Copy CRC 2F878D56
Track not present in AccurateRip database
Copy OK

Track 5

Filename C:\CDs\The Everly Brothers - Original Album Series (1960-1968) [FLAC] {2010 Rhino 5-CDs}\2 - A Date With The Everly Brothers (1961)\05 - Sigh, Cry, Almost Die.wav

Peak level 97.0 %
Track quality 100.0 %
Test CRC 6D599F5F
Copy CRC 6D599F5F
Track not present in AccurateRip database
Copy OK

Track 6

Filename C:\CDs\The Everly Brothers - Original Album Series (1960-1968) [FLAC] {2010 Rhino 5-CDs}\2 - A Date With The Everly Brothers (1961)\06 - Always It's You.wav

Pre-gap length 0:00:01.25

Peak level 68.3 %
Track quality 99.9 %
Test CRC 37BAC1A3
Copy CRC 37BAC1A3
Track not present in AccurateRip database
Copy OK

Track 7

Filename C:\CDs\The Everly Brothers - Original Album Series (1960-1968) [FLAC] {2010 Rhino 5-CDs}\2 - A Date With The Everly Brothers (1961)\07 - Love Hurts.wav

Peak level 85.3 %
Track quality 99.9 %
Test CRC E03BCC8B
Copy CRC E03BCC8B
Track not present in AccurateRip database
Copy OK

Track 8

Filename C:\CDs\The Everly Brothers - Original Album Series (1960-1968) [FLAC] {2010 Rhino 5-CDs}\2 - A Date With The Everly Brothers (1961)\08 - Lucille.wav

Pre-gap length 0:00:01.12

Peak level 93.7 %
Track quality 100.0 %
Test CRC 4DF38CE0
Copy CRC 4DF38CE0
Track not present in AccurateRip database
Copy OK

Track 9

Filename C:\CDs\The Everly Brothers - Original Album Series (1960-1968) [FLAC] {2010 Rhino 5-CDs}\2 - A Date With The Everly Brothers (1961)\09 - So How Come (No One Loves Me).wav

Peak level 97.0 %
Track quality 100.0 %
Test CRC FB21EF4E
Copy CRC FB21EF4E
Track not present in AccurateRip database
Copy OK

Track 10

Filename C:\CDs\The Everly Brothers - Original Album Series (1960-1968) [FLAC] {2010 Rhino 5-CDs}\2 - A Date With The Everly Brothers (1961)\10 - Donna, Donna.wav

Peak level 97.9 %
Track quality 100.0 %
Test CRC E105F2BC
Copy CRC E105F2BC
Track not present in AccurateRip database
Copy OK

Track 11

Filename C:\CDs\The Everly Brothers - Original Album Series (1960-1968) [FLAC] {2010 Rhino 5-CDs}\2 - A Date With The Everly Brothers (1961)\11 - A Change Of Heart.wav

Peak level 69.6 %
Track quality 100.0 %
Test CRC F1326882
Copy CRC F1326882
Track not present in AccurateRip database
Copy OK

Track 12

Filename C:\CDs\The Everly Brothers - Original Album Series (1960-1968) [FLAC] {2010 Rhino 5-CDs}\2 - A Date With The Everly Brothers (1961)\12 - Cathy's Clown.wav

Peak level 84.4 %
Track quality 100.0 %
Test CRC 8239E42B
Copy CRC 8239E42B
Track not present in AccurateRip database
Copy OK


None of the tracks are present in the AccurateRip database

No errors occurred

End of status report

[CUETools log; Date: 20.09.2016 15:02:47; Version: 2.1.5]
Pregap length 00:00:01.
[CTDB TOCID: 1T4a0J.UTaGGz0D7RoOtVSgZYDU-] found.
Track | CTDB Status
1 | (9/9) Accurately ripped
2 | (9/9) Accurately ripped
3 | (9/9) Accurately ripped
4 | (9/9) Accurately ripped
5 | (9/9) Accurately ripped
6 | (9/9) Accurately ripped
7 | (9/9) Accurately ripped
8 | (9/9) Accurately ripped
9 | (9/9) Accurately ripped
10 | (9/9) Accurately ripped
11 | (9/9) Accurately ripped
12 | (9/9) Accurately ripped
[AccurateRip ID: 000c6c52-00743ed3-9a068b0c] database access error: GatewayTimeout.

Track Peak [ CRC32 ] [W/O NULL] [ LOG ]
– 97,9 [91C672E5] [8FB8B3C8]
01 89,5 [771E5E08] [BA6C7D6B] CRC32
02 92,6 [02808486] [3FFA1311] CRC32
03 92,7 [7AC2495A] [A747DD2D] CRC32
04 97,2 [2F878D56] [831740EC] CRC32
05 97,0 [6D599F5F] [AC5B67B7] CRC32
06 68,3 [37BAC1A3] [0858CD09] CRC32
07 85,3 [E03BCC8B] [D8D9170E] CRC32
08 93,7 [4DF38CE0] [7B5D581C] CRC32
09 97,0 [FB21EF4E] [80D044D7] CRC32
10 97,9 [E105F2BC] [0191B0EF] CRC32
11 69,6 [F1326882] [5B35C65A] CRC32
12 84,4 [8239E42B] [31B1F25E] CRC32

Original Album Series: The Everly Brothers (2010)

Rock 'N Soul (1965)
EAC Rip | FLAC (tracks & cue & log) | 160 MB | MP3 CBR 320 kbps | 60 MB | 26:14

Rock n' Soul features a whole LP of oldies covers with guitar-heavy '60s arrangements, including such standards as "That'll Be the Day," "Kansas City," "Hound Dog," "Lonely Weekends," "I Got a Woman," and the then-recent "Dancin' in the Streets." It's decently played and sung, but not among the Everlys' most creative work, or even among their most interesting material of the mid-'60s. It's also not quite as good as the similar album they would release later in 1965, Beat & Soul. The version of "Love Hurts," incidentally, is a different, more rock-oriented version than the ballad arrangement they had recorded a few years previously.
~Richie Unterberger
Original Album Series: The Everly Brothers (2010)


Tracklist

1. That'll Be The Day
2. So Fine
3. Maybellene
4. Dancing In The Street
5. Kansas City
6. I Got A Woman
7. Love Hurts
8. Slippin' And Slidin'
9. Susie Q
10. Hound Dog
11. I'm Gonna Move To The Outskirts Of Town
12. Lonely Weekends

Exact Audio Copy V0.99 prebeta 4 from 23. January 2008

EAC extraction logfile from 27. October 2010, 15:28

The Everly Brothers / Rock 'N Soul

Used drive : TSSTcorpCD/DVDW TS-H652M Adapter: 1 ID: 0

Read mode : Secure
Utilize accurate stream : Yes
Defeat audio cache : Yes
Make use of C2 pointers : No

Read offset correction : 6
Overread into Lead-In and Lead-Out : No
Fill up missing offset samples with silence : Yes
Delete leading and trailing silent blocks : No
Null samples used in CRC calculations : Yes
Used interface : Native Win32 interface for Win NT & 2000
Gap handling : Appended to previous track

Used output format : User Defined Encoder
Selected bitrate : 320 kBit/s
Quality : High
Add ID3 tag : No
Command line compressor : C:\Program Files\Exact Audio Copy\Flac\flac.exe
Additional command line options : -8 -V -T "ARTIST=%a" -T "TITLE=%t" -T "ALBUM=%g" -T "DATE=%y" -T "TRACKNUMBER=%n" -T "TOTALTRACKS=%x" -T "GENRE=%m" -T "ALBUM ARTIST=%v" -T "ALBUMARTIST=%v" -T "COMMENT=EAC V0.99 prebeta 4, Secure Mode, Test & Copy, Accura


TOC of the extracted CD

Track | Start | Length | Start sector | End sector
––––––––––––––––––––––––––––-
1 | 0:00.00 | 2:22.12 | 0 | 10661
2 | 2:22.12 | 1:59.11 | 10662 | 19597
3 | 4:21.23 | 1:52.09 | 19598 | 28006
4 | 6:13.32 | 2:37.39 | 28007 | 39820
5 | 8:50.71 | 2:25.53 | 39821 | 50748
6 | 11:16.49 | 2:10.27 | 50749 | 60525
7 | 13:27.01 | 1:59.71 | 60526 | 69521
8 | 15:26.72 | 1:57.32 | 69522 | 78328
9 | 17:24.29 | 1:58.03 | 78329 | 87181
10 | 19:22.32 | 1:57.57 | 87182 | 96013
11 | 21:20.14 | 2:54.44 | 96014 | 109107
12 | 24:14.58 | 1:59.03 | 109108 | 118035


Track 1

Filename C:\CDs\The Everly Brothers - Original Album Series (1960-1968) [FLAC] {2010 Rhino 5-CDs}\3 - Rock 'N Soul (1965)\01 - That'll Be The Day.wav

Pre-gap length 0:00:02.00

Peak level 95.8 %
Track quality 100.0 %
Test CRC 3AC4CB81
Copy CRC 3AC4CB81
Track not present in AccurateRip database
Copy OK

Track 2

Filename C:\CDs\The Everly Brothers - Original Album Series (1960-1968) [FLAC] {2010 Rhino 5-CDs}\3 - Rock 'N Soul (1965)\02 - So Fine.wav

Pre-gap length 0:00:02.49

Peak level 96.1 %
Track quality 100.0 %
Test CRC 29A53D04
Copy CRC 29A53D04
Track not present in AccurateRip database
Copy OK

Track 3

Filename C:\CDs\The Everly Brothers - Original Album Series (1960-1968) [FLAC] {2010 Rhino 5-CDs}\3 - Rock 'N Soul (1965)\03 - Maybelline.wav

Pre-gap length 0:00:01.53

Peak level 79.2 %
Track quality 100.0 %
Test CRC F6FB263B
Copy CRC F6FB263B
Track not present in AccurateRip database
Copy OK

Track 4

Filename C:\CDs\The Everly Brothers - Original Album Series (1960-1968) [FLAC] {2010 Rhino 5-CDs}\3 - Rock 'N Soul (1965)\04 - Dancing In The Streets.wav

Pre-gap length 0:00:01.94

Peak level 91.8 %
Track quality 100.0 %
Test CRC CC336774
Copy CRC CC336774
Track not present in AccurateRip database
Copy OK

Track 5

Filename C:\CDs\The Everly Brothers - Original Album Series (1960-1968) [FLAC] {2010 Rhino 5-CDs}\3 - Rock 'N Soul (1965)\05 - Kansas City.wav

Pre-gap length 0:00:02.16

Peak level 86.4 %
Track quality 100.0 %
Test CRC D9F2206A
Copy CRC D9F2206A
Track not present in AccurateRip database
Copy OK

Track 6

Filename C:\CDs\The Everly Brothers - Original Album Series (1960-1968) [FLAC] {2010 Rhino 5-CDs}\3 - Rock 'N Soul (1965)\06 - I Got A Woman.wav

Pre-gap length 0:00:01.41

Peak level 93.0 %
Track quality 100.0 %
Test CRC 6593655F
Copy CRC 6593655F
Track not present in AccurateRip database
Copy OK

Track 7

Filename C:\CDs\The Everly Brothers - Original Album Series (1960-1968) [FLAC] {2010 Rhino 5-CDs}\3 - Rock 'N Soul (1965)\07 - Love Hurts.wav

Pre-gap length 0:00:02.74

Peak level 80.1 %
Track quality 100.0 %
Test CRC C885E6B6
Copy CRC C885E6B6
Track not present in AccurateRip database
Copy OK

Track 8

Filename C:\CDs\The Everly Brothers - Original Album Series (1960-1968) [FLAC] {2010 Rhino 5-CDs}\3 - Rock 'N Soul (1965)\08 - Slippin' And Slidin'.wav

Pre-gap length 0:00:01.60

Peak level 91.4 %
Track quality 100.0 %
Test CRC B0293EC5
Copy CRC B0293EC5
Track not present in AccurateRip database
Copy OK

Track 9

Filename C:\CDs\The Everly Brothers - Original Album Series (1960-1968) [FLAC] {2010 Rhino 5-CDs}\3 - Rock 'N Soul (1965)\09 - Susie Q.wav

Pre-gap length 0:00:01.10

Peak level 83.6 %
Track quality 100.0 %
Test CRC 26C17C82
Copy CRC 26C17C82
Track not present in AccurateRip database
Copy OK

Track 10

Filename C:\CDs\The Everly Brothers - Original Album Series (1960-1968) [FLAC] {2010 Rhino 5-CDs}\3 - Rock 'N Soul (1965)\10 - Houng Dog.wav

Pre-gap length 0:00:01.98

Peak level 77.9 %
Track quality 100.0 %
Test CRC 5DAEBBDD
Copy CRC 5DAEBBDD
Track not present in AccurateRip database
Copy OK

Track 11

Filename C:\CDs\The Everly Brothers - Original Album Series (1960-1968) [FLAC] {2010 Rhino 5-CDs}\3 - Rock 'N Soul (1965)\11 - I'm Gonna Move To The Outskirts Of Town.wav

Pre-gap length 0:00:01.60

Peak level 93.3 %
Track quality 100.0 %
Test CRC B1B26CFA
Copy CRC B1B26CFA
Track not present in AccurateRip database
Copy OK

Track 12

Filename C:\CDs\The Everly Brothers - Original Album Series (1960-1968) [FLAC] {2010 Rhino 5-CDs}\3 - Rock 'N Soul (1965)\12 - Lonely Weekends.wav

Pre-gap length 0:00:01.61

Peak level 81.1 %
Track quality 100.0 %
Test CRC 14C79C3A
Copy CRC 14C79C3A
Track not present in AccurateRip database
Copy OK


None of the tracks are present in the AccurateRip database

No errors occurred

End of status report

[CUETools log; Date: 20.09.2016 15:09:57; Version: 2.1.5]
[CTDB TOCID: NPAsdVGCRY8_9NsdKM1f.8qxuE8-] found.
Track | CTDB Status
1 | (15/16) Accurately ripped
2 | (16/16) Accurately ripped
3 | (16/16) Accurately ripped
4 | (16/16) Accurately ripped
5 | (16/16) Accurately ripped
6 | (16/16) Accurately ripped
7 | (16/16) Accurately ripped
8 | (16/16) Accurately ripped
9 | (16/16) Accurately ripped
10 | (16/16) Accurately ripped
11 | (16/16) Accurately ripped
12 | (16/16) Accurately ripped
[AccurateRip ID: 000bb642-006d22af-9c06250c] database access error: GatewayTimeout.

Track Peak [ CRC32 ] [W/O NULL] [ LOG ]
– 96,1 [37546CD2] [C94D7EC1]
01 95,8 [3AC4CB81] [FA25A0A3] CRC32
02 96,1 [29A53D04] [C64732B5] CRC32
03 79,2 [F6FB263B] [76B3E3B2] CRC32
04 91,8 [CC336774] [B5483B08] CRC32
05 86,4 [D9F2206A] [39F6AE85] CRC32
06 93,0 [6593655F] [A18AD27F] CRC32
07 80,1 [C885E6B6] [BC1B15AB] CRC32
08 91,4 [B0293EC5] [50588178] CRC32
09 83,6 [26C17C82] [06CF9B34] CRC32
10 77,9 [5DAEBBDD] [6A3FEBE5] CRC32
11 93,3 [B1B26CFA] [1B716367] CRC32
12 81,1 [14C79C3A] [454555B8] CRC32

Original Album Series: The Everly Brothers (2010)

Two Yanks In England (1966)
EAC Rip | FLAC (tracks & cue & log) | 198 MB | MP3 CBR 320 kbps | 71 MB | 31:12

At first glance, this seems like a cash-in on the British Invasion. Recorded in London in 1966, no less than eight of the 12 songs were written by the Hollies (who released their own versions of many of the tunes). There are also covers of hits by the Spencer Davis Group and Manfred Mann. With a harder rock guitar sound (though not overdone or inappropriate) than previous Everlys discs, the duo's interpretations are actually worth hearing in their own right. The harmonies are fabulous, and indeed, the Everlys improve a few of the Hollies' songs substantially. "So Lonely" and "Hard Hard Year," in particular, have a lot more force, transforming the tunes from decent Hollies album tracks to excellence. Because so much of the material is non-original, this couldn't be placed in the top rank of Everly Brothers recordings. But it is a good effort that shows them, almost ten years after "Bye Bye Love," still at the top of their game and still heavily committed to a rock & roll sound. This was a bold contrast to other '50s white rock & rollers with roots in country, most of who had retreated to tamer country-oriented sounds by the mid-'60s. ~Richie Unterberger
Original Album Series: The Everly Brothers (2010)


Tracklist

1. Somebody Help Me
2. So Lonely
3. Kiss Your Man Goodbye
4. Signs That Will Never Change
5. Like Everytime Before
6. Pretty Flamingo
7. I've Been Wrong Before
8. Have You Ever Loved Somebody
9. Collector
10. Don't Run And Hide
11. Fifi The Flea
12. Hard Hard Year

Exact Audio Copy V0.99 prebeta 4 from 23. January 2008

EAC extraction logfile from 27. October 2010, 16:37

The Everly Brothers / Two Yanks In England

Used drive : TSSTcorpCD/DVDW TS-H652M Adapter: 1 ID: 0

Read mode : Secure
Utilize accurate stream : Yes
Defeat audio cache : Yes
Make use of C2 pointers : No

Read offset correction : 6
Overread into Lead-In and Lead-Out : No
Fill up missing offset samples with silence : Yes
Delete leading and trailing silent blocks : No
Null samples used in CRC calculations : Yes
Used interface : Native Win32 interface for Win NT & 2000
Gap handling : Appended to previous track

Used output format : User Defined Encoder
Selected bitrate : 320 kBit/s
Quality : High
Add ID3 tag : No
Command line compressor : C:\Program Files\Exact Audio Copy\Flac\flac.exe
Additional command line options : -8 -V -T "ARTIST=%a" -T "TITLE=%t" -T "ALBUM=%g" -T "DATE=%y" -T "TRACKNUMBER=%n" -T "TOTALTRACKS=%x" -T "GENRE=%m" -T "ALBUM ARTIST=%v" -T "ALBUMARTIST=%v" -T "COMMENT=EAC V0.99 prebeta 4, Secure Mode, Test & Copy, Accura


TOC of the extracted CD

Track | Start | Length | Start sector | End sector
––––––––––––––––––––––––––––-
1 | 0:00.00 | 2:02.06 | 0 | 9155
2 | 2:02.06 | 2:40.57 | 9156 | 21212
3 | 4:42.63 | 2:35.36 | 21213 | 32873
4 | 7:18.24 | 3:05.51 | 32874 | 46799
5 | 10:24.00 | 1:56.62 | 46800 | 55561
6 | 12:20.62 | 2:36.64 | 55562 | 67325
7 | 14:57.51 | 2:13.39 | 67326 | 77339
8 | 17:11.15 | 2:48.68 | 77340 | 90007
9 | 20:00.08 | 2:55.29 | 90008 | 103161
10 | 22:55.37 | 2:37.43 | 103162 | 114979
11 | 25:33.05 | 2:42.16 | 114980 | 127145
12 | 28:15.21 | 2:56.20 | 127146 | 140365


Track 1

Filename C:\CDs\The Everly Brothers - Original Album Series (1960-1968) [FLAC] {2010 Rhino 5-CDs}\4 - Two Yanks In England (1966)\01 - Somebody Help Me.wav

Pre-gap length 0:00:02.00

Peak level 88.4 %
Track quality 100.0 %
Test CRC 1D552042
Copy CRC 1D552042
Cannot be verified as accurate (confidence 1) [286F361D], AccurateRip returned [7B4557B6]
Copy OK

Track 2

Filename C:\CDs\The Everly Brothers - Original Album Series (1960-1968) [FLAC] {2010 Rhino 5-CDs}\4 - Two Yanks In England (1966)\02 - So Lonely.wav

Peak level 86.4 %
Track quality 100.0 %
Test CRC 4D6BE10D
Copy CRC 4D6BE10D
Cannot be verified as accurate (confidence 1) [1849E418], AccurateRip returned [9A191F74]
Copy OK

Track 3

Filename C:\CDs\The Everly Brothers - Original Album Series (1960-1968) [FLAC] {2010 Rhino 5-CDs}\4 - Two Yanks In England (1966)\03 - Kiss Your Man Goodbye.wav

Peak level 90.3 %
Track quality 100.0 %
Test CRC 1D3CA9C5
Copy CRC 1D3CA9C5
Cannot be verified as accurate (confidence 1) [2A4C892B], AccurateRip returned [9550AEEB]
Copy OK

Track 4

Filename C:\CDs\The Everly Brothers - Original Album Series (1960-1968) [FLAC] {2010 Rhino 5-CDs}\4 - Two Yanks In England (1966)\04 - Signs That Will Never Change.wav

Peak level 84.2 %
Track quality 100.0 %
Test CRC 0413BB66
Copy CRC 0413BB66
Cannot be verified as accurate (confidence 1) [14A33718], AccurateRip returned [C8E30448]
Copy OK

Track 5

Filename C:\CDs\The Everly Brothers - Original Album Series (1960-1968) [FLAC] {2010 Rhino 5-CDs}\4 - Two Yanks In England (1966)\05 - Like Everytime Before.wav

Peak level 89.9 %
Track quality 100.0 %
Test CRC 0DB8EA1A
Copy CRC 0DB8EA1A
Cannot be verified as accurate (confidence 1) [4E2000CE], AccurateRip returned [1B5C89BE]
Copy OK

Track 6

Filename C:\CDs\The Everly Brothers - Original Album Series (1960-1968) [FLAC] {2010 Rhino 5-CDs}\4 - Two Yanks In England (1966)\06 - Pretty Flamingo.wav

Peak level 86.4 %
Track quality 100.0 %
Test CRC 0F6CCF32
Copy CRC 0F6CCF32
Cannot be verified as accurate (confidence 1) [4DA4817B], AccurateRip returned [A62E91CB]
Copy OK

Track 7

Filename C:\CDs\The Everly Brothers - Original Album Series (1960-1968) [FLAC] {2010 Rhino 5-CDs}\4 - Two Yanks In England (1966)\07 - I've Been Wrong Before.wav

Peak level 92.6 %
Track quality 100.0 %
Test CRC 022DA95E
Copy CRC 022DA95E
Cannot be verified as accurate (confidence 1) [0F0F5A6A], AccurateRip returned [AC2C6EDA]
Copy OK

Track 8

Filename C:\CDs\The Everly Brothers - Original Album Series (1960-1968) [FLAC] {2010 Rhino 5-CDs}\4 - Two Yanks In England (1966)\08 - Have You Ever Loved Somebody.wav

Peak level 88.3 %
Track quality 100.0 %
Test CRC 68DBF8AE
Copy CRC 68DBF8AE
Cannot be verified as accurate (confidence 1) [82261603], AccurateRip returned [B9D7E983]
Copy OK

Track 9

Filename C:\CDs\The Everly Brothers - Original Album Series (1960-1968) [FLAC] {2010 Rhino 5-CDs}\4 - Two Yanks In England (1966)\09 - The Collector.wav

Peak level 91.3 %
Track quality 100.0 %
Test CRC 58FA1282
Copy CRC 58FA1282
Cannot be verified as accurate (confidence 1) [FAFB5D04], AccurateRip returned [5CFCD864]
Copy OK

Track 10

Filename C:\CDs\The Everly Brothers - Original Album Series (1960-1968) [FLAC] {2010 Rhino 5-CDs}\4 - Two Yanks In England (1966)\10 - Don't Run And Hide.wav

Peak level 90.3 %
Track quality 100.0 %
Test CRC CAEDE5BF
Copy CRC CAEDE5BF
Cannot be verified as accurate (confidence 1) [31F3E602], AccurateRip returned [A1167582]
Copy OK

Track 11

Filename C:\CDs\The Everly Brothers - Original Album Series (1960-1968) [FLAC] {2010 Rhino 5-CDs}\4 - Two Yanks In England (1966)\11 - Fifi The Flea.wav

Peak level 72.4 %
Track quality 100.0 %
Test CRC 2E868F1F
Copy CRC 2E868F1F
Cannot be verified as accurate (confidence 1) [8D9AFF1F], AccurateRip returned [E8E82E4F]
Copy OK

Track 12

Filename C:\CDs\The Everly Brothers - Original Album Series (1960-1968) [FLAC] {2010 Rhino 5-CDs}\4 - Two Yanks In England (1966)\12 - Hard Hard Year.wav

Peak level 96.5 %
Track quality 100.0 %
Test CRC 281AB130
Copy CRC 281AB130
Cannot be verified as accurate (confidence 1) [926097A0], AccurateRip returned [56865CB0]
Copy OK


No tracks could be verified as accurate
You may have a different pressing from the one(s) in the database

No errors occurred

End of status report

[CUETools log; Date: 20.09.2016 15:12:28; Version: 2.1.5]
[CTDB TOCID: HP_1LMHr4TcruNuGXRm9w8M1OE0-] found.
Track | CTDB Status
1 | (17/17) Accurately ripped
2 | (17/17) Accurately ripped
3 | (17/17) Accurately ripped
4 | (17/17) Accurately ripped
5 | (17/17) Accurately ripped
6 | (17/17) Accurately ripped
7 | (17/17) Accurately ripped
8 | (17/17) Accurately ripped
9 | (17/17) Accurately ripped
10 | (17/17) Accurately ripped
11 | (17/17) Accurately ripped
12 | (17/17) Accurately ripped
[AccurateRip ID: 000d84ad-007f127c-97074f0c] database access error: GatewayTimeout.

Track Peak [ CRC32 ] [W/O NULL] [ LOG ]
– 96,5 [413C9847] [C47CA3C8]
01 88,4 [1D552042] [BFAAEF09] CRC32
02 86,4 [4D6BE10D] [6DD6F43B] CRC32
03 90,3 [1D3CA9C5] [56ACB543] CRC32
04 84,2 [0413BB66] [792A78D4] CRC32
05 89,9 [0DB8EA1A] [AF1CD8AA] CRC32
06 86,4 [0F6CCF32] [EBBCDFD9] CRC32
07 92,6 [022DA95E] [FFCC3C97] CRC32
08 88,3 [68DBF8AE] [A06535BB] CRC32
09 91,3 [58FA1282] [5CBB09D0] CRC32
10 90,3 [CAEDE5BF] [F2C06BFA] CRC32
11 72,4 [2E868F1F] [C69D697A] CRC32
12 96,5 [281AB130] [3DB96300] CRC32

Original Album Series: The Everly Brothers (2010)

Roots (1968)
EAC Rip | FLAC (tracks & cue & log) | 211 MB | MP3 CBR 320 kbps | 82 MB | 35:59

Considered one of the finest early country-rock albums, this showed the Everlys, unlike virtually every other top rock & roll act of the '50s, keeping abreast of contemporary rock and pop trends. In the manner of their 1958 LP Songs Our Daddy Taught Us, the concept was to cover songs by performers and composers who had been influential on the duo (including Jimmie Rodgers and Merle Haggard), traditional standards, and a couple of numbers by Ron Elliott of the Beau Brummels. Although this laid-back, tasteful, acoustic-oriented recording isn't as outstanding as their classic early hits, the vocals are superb, conveying qualities of innocence tempered by experience.
~Richie Unterberger
Original Album Series: The Everly Brothers (2010)

Tracklist

1. Everly Family [Introduction]
2. Mama Tried
3. Less Of Me
4. T For Texas
5. I Wonder If I Care As Much
6. Ventura Boulevard
7. Shady Grove
8. Illinois
9. Living Too Close To The Ground
10. You Done Me Wrong
11. Turn Around
12. Sing Me Back Home
13. Everly Family/Shady Grove/Kentucky

Exact Audio Copy V0.99 prebeta 4 from 23. January 2008

EAC extraction logfile from 27. October 2010, 17:14

The Everly Brothers / Roots

Used drive : TSSTcorpCD/DVDW TS-H652M Adapter: 1 ID: 0

Read mode : Secure
Utilize accurate stream : Yes
Defeat audio cache : Yes
Make use of C2 pointers : No

Read offset correction : 6
Overread into Lead-In and Lead-Out : No
Fill up missing offset samples with silence : Yes
Delete leading and trailing silent blocks : No
Null samples used in CRC calculations : Yes
Used interface : Native Win32 interface for Win NT & 2000
Gap handling : Appended to previous track

Used output format : User Defined Encoder
Selected bitrate : 320 kBit/s
Quality : High
Add ID3 tag : No
Command line compressor : C:\Program Files\Exact Audio Copy\Flac\flac.exe
Additional command line options : -8 -V -T "ARTIST=%a" -T "TITLE=%t" -T "ALBUM=%g" -T "DATE=%y" -T "TRACKNUMBER=%n" -T "TOTALTRACKS=%x" -T "GENRE=%m" -T "ALBUM ARTIST=%v" -T "ALBUMARTIST=%v" -T "COMMENT=EAC V0.99 prebeta 4, Secure Mode, Test & Copy, Accura


TOC of the extracted CD

Track | Start | Length | Start sector | End sector
––––––––––––––––––––––––––––-
1 | 0:00.00 | 1:11.47 | 0 | 5371
2 | 1:11.47 | 2:18.10 | 5372 | 15731
3 | 3:29.57 | 3:03.18 | 15732 | 29474
4 | 6:33.00 | 3:31.47 | 29475 | 45346
5 | 10:04.47 | 2:58.13 | 45347 | 58709
6 | 13:02.60 | 2:49.70 | 58710 | 71454
7 | 15:52.55 | 2:29.45 | 71455 | 82674
8 | 18:22.25 | 2:12.27 | 82675 | 92601
9 | 20:34.52 | 2:16.28 | 92602 | 102829
10 | 22:51.05 | 2:16.40 | 102830 | 113069
11 | 25:07.45 | 2:47.50 | 113070 | 125644
12 | 27:55.20 | 5:18.70 | 125645 | 149564
13 | 33:14.15 | 2:43.40 | 149565 | 161829


Track 1

Filename C:\CDs\The Everly Brothers - Original Album Series (1960-1968) [FLAC] {2010 Rhino 5-CDs}\5 - Roots (1968)\01 - The Everly Family (1952).wav

Pre-gap length 0:00:02.00

Peak level 45.3 %
Track quality 100.0 %
Test CRC AA5883B7
Copy CRC AA5883B7
Cannot be verified as accurate (confidence 4) [E1525DCF], AccurateRip returned [64E5179C]
Copy OK

Track 2

Filename C:\CDs\The Everly Brothers - Original Album Series (1960-1968) [FLAC] {2010 Rhino 5-CDs}\5 - Roots (1968)\02 - Mama Tried.wav

Peak level 93.2 %
Track quality 99.9 %
Test CRC D2380E64
Copy CRC D2380E64
Cannot be verified as accurate (confidence 4) [C5F7FB11], AccurateRip returned [157D4A6D]
Copy OK

Track 3

Filename C:\CDs\The Everly Brothers - Original Album Series (1960-1968) [FLAC] {2010 Rhino 5-CDs}\5 - Roots (1968)\03 - Less Of Me.wav

Peak level 82.4 %
Track quality 100.0 %
Test CRC 59734E5E
Copy CRC 59734E5E
Cannot be verified as accurate (confidence 4) [920434C2], AccurateRip returned [2BCB61B2]
Copy OK

Track 4

Filename C:\CDs\The Everly Brothers - Original Album Series (1960-1968) [FLAC] {2010 Rhino 5-CDs}\5 - Roots (1968)\04 - T For Texas.wav

Pre-gap length 0:00:01.16

Peak level 91.2 %
Track quality 100.0 %
Test CRC 8501D177
Copy CRC 8501D177
Cannot be verified as accurate (confidence 4) [A5ABB498], AccurateRip returned [BD7198CD]
Copy OK

Track 5

Filename C:\CDs\The Everly Brothers - Original Album Series (1960-1968) [FLAC] {2010 Rhino 5-CDs}\5 - Roots (1968)\05 - I Wonder If I Care As Much.wav

Peak level 70.1 %
Track quality 100.0 %
Test CRC B6724706
Copy CRC B6724706
Cannot be verified as accurate (confidence 4) [10719321], AccurateRip returned [BAFC5495]
Copy OK

Track 6

Filename C:\CDs\The Everly Brothers - Original Album Series (1960-1968) [FLAC] {2010 Rhino 5-CDs}\5 - Roots (1968)\06 - Ventura Boulevard.wav

Peak level 58.7 %
Track quality 100.0 %
Test CRC C87B4022
Copy CRC C87B4022
Cannot be verified as accurate (confidence 4) [6D61B01C], AccurateRip returned [24E8C33D]
Copy OK

Track 7

Filename C:\CDs\The Everly Brothers - Original Album Series (1960-1968) [FLAC] {2010 Rhino 5-CDs}\5 - Roots (1968)\07 - Shady Grove.wav

Peak level 95.3 %
Track quality 100.0 %
Test CRC F1992F0A
Copy CRC F1992F0A
Cannot be verified as accurate (confidence 4) [150DCC30], AccurateRip returned [CAA9B6D7]
Copy OK

Track 8

Filename C:\CDs\The Everly Brothers - Original Album Series (1960-1968) [FLAC] {2010 Rhino 5-CDs}\5 - Roots (1968)\08 - Illinois.wav

Peak level 78.6 %
Track quality 100.0 %
Test CRC 4FDB965D
Copy CRC 4FDB965D
Cannot be verified as accurate (confidence 4) [3CCDEF52], AccurateRip returned [35081668]
Copy OK

Track 9

Filename C:\CDs\The Everly Brothers - Original Album Series (1960-1968) [FLAC] {2010 Rhino 5-CDs}\5 - Roots (1968)\09 - Living Too Close To The Ground.wav

Peak level 58.3 %
Track quality 100.0 %
Test CRC 8349BAF2
Copy CRC 8349BAF2
Cannot be verified as accurate (confidence 4) [FC2B4DA8], AccurateRip returned [611A3B41]
Copy OK

Track 10

Filename C:\CDs\The Everly Brothers - Original Album Series (1960-1968) [FLAC] {2010 Rhino 5-CDs}\5 - Roots (1968)\10 - You Done Me Wrong.wav

Peak level 91.4 %
Track quality 100.0 %
Test CRC A58F7B47
Copy CRC A58F7B47
Cannot be verified as accurate (confidence 4) [917CBEBF], AccurateRip returned [ADE7D9F8]
Copy OK

Track 11

Filename C:\CDs\The Everly Brothers - Original Album Series (1960-1968) [FLAC] {2010 Rhino 5-CDs}\5 - Roots (1968)\11 - Turn Around.wav

Peak level 91.0 %
Track quality 100.0 %
Test CRC 2BE1EC19
Copy CRC 2BE1EC19
Cannot be verified as accurate (confidence 4) [5F9D769B], AccurateRip returned [A3FD337D]
Copy OK

Track 12

Filename C:\CDs\The Everly Brothers - Original Album Series (1960-1968) [FLAC] {2010 Rhino 5-CDs}\5 - Roots (1968)\12 - Sing Me Back Home.wav

Peak level 78.3 %
Track quality 100.0 %
Test CRC DB792FDE
Copy CRC DB792FDE
Cannot be verified as accurate (confidence 4) [017434CF], AccurateRip returned [23FBAE21]
Copy OK

Track 13

Filename C:\CDs\The Everly Brothers - Original Album Series (1960-1968) [FLAC] {2010 Rhino 5-CDs}\5 - Roots (1968)\13 - Montage- The Everly Family (1952) ~ Shady Grove ~ Kentucky.wav

Peak level 97.7 %
Track quality 100.0 %
Test CRC BB063CC1
Copy CRC BB063CC1
Cannot be verified as accurate (confidence 4) [29DD3D4F], AccurateRip returned [202C4019]
Copy OK


No tracks could be verified as accurate
You may have a different pressing from the one(s) in the database

No errors occurred

End of status report

[CUETools log; Date: 20.09.2016 15:18:01; Version: 2.1.5]
[CTDB TOCID: BcLP1KNi7TgoW8q1fjO6cttP3SM-] found.
Track | CTDB Status
1 | (21/25) Accurately ripped
2 | (21/25) Accurately ripped
3 | (21/25) Accurately ripped
4 | (21/25) Accurately ripped
5 | (21/25) Accurately ripped
6 | (21/25) Accurately ripped
7 | (21/25) Accurately ripped
8 | (21/25) Accurately ripped
9 | (21/25) Accurately ripped
10 | (21/25) Accurately ripped
11 | (21/25) Accurately ripped
12 | (21/25) Accurately ripped
13 | (21/25) Accurately ripped
[AccurateRip ID: 00101664-00a3df9e-af086d0d] database access error: GatewayTimeout.

Track Peak [ CRC32 ] [W/O NULL] [ LOG ]
– 97,7 [ADDD4A17] [9922BD9B]
01 45,3 [AA5883B7] [43831D51] CRC32
02 93,2 [D2380E64] [3BACDC81] CRC32
03 82,4 [59734E5E] [D668B22F] CRC32
04 91,2 [8501D177] [6F55FF50] CRC32
05 70,1 [B6724706] [6591B400] CRC32
06 58,7 [C87B4022] [CF314CF1] CRC32
07 95,3 [F1992F0A] [C0EAC6F5] CRC32
08 78,6 [4FDB965D] [497E699B] CRC32
09 58,3 [8349BAF2] [D440DCD0] CRC32
10 91,4 [A58F7B47] [C856F04E] CRC32
11 91,0 [2BE1EC19] [665CD843] CRC32
12 78,3 [DB792FDE] [ADA195DD] CRC32
13 97,7 [BB063CC1] [56F3773C] CRC32


Original Album Series: The Everly Brothers (2010)

All thanks goes to the original releaser
=====