Tags
Language
Tags

Orpheus Chamber Orchestra Complete Recordings on Deutsche Grammophon [55CDs] Part 9 (2021)

Posted By: ArlegZ
Orpheus Chamber Orchestra Complete Recordings on Deutsche Grammophon [55CDs] Part 9 (2021)

Orpheus Chamber Orchestra Complete Recordings on Deutsche Grammophon [55CDs] Part 9 (2021)
EAC | FLAC | Image (Cue & Log) ~ 1.50 Gb | Total time: 06:28:03 | Scans included
Classical | Label: Deutsche Grammophon | # 483 9948 | Recorded: 1982-2018

Anticipating the 50th anniversary of Orpheus Chamber Orchestra in 2022, we present their complete recordings on DG. The intriguing sound culture of Orpheus, especially of the string section, is often explained as a result of the cooperative mindset of the orchestra and its artistic process of rehearsing.
Orpheus' rich and varied discography on Deutsche Grammophon includes stunning recordings with Martha Argerich, Gidon Kremer, Mischa Maisky, Jan Lisiecki and Gil Shaham. The new edition also includes a brand new recording of Mendelssohn’s Italian Symphony from 2018. 14 albums from the box set are made available digitally for the first time.

Performer:
Orpheus Chamber Orchestra

Contents:
CD 35 RESPIGHI
CD 36 RODRIGO · VILLA-LOBOS: Guitar Concertos
CD 37 ROSSINI: Overtures
CD 38 SAINT-SAENS: Cello Works
CD 39 SCHOENBERG: Verklärte Nacht · Chamber Symphonies
CD 40 CLASSICAL HITS


CD 35 [69:00]
OTTORINO RESPIGHI (1879-1936)
Gli uccelli
01. 1. Prelude
02. 2. The Dove
03. 3. The Hen
04. 4. The Nightingale
05. 5. The Cuckoo
Ancient Airs and Dances, Suite No.1
06. 1. Balletto detto "Il Conte Orlando"
07. 2. Gagliarda
08. 3. Villanella
09. 4. Passo mezzo e Mascherada
Ancient Airs and Dances, Suite No.3
10. 1. Italiana
11. 2. Arie di corte
12. 3. Siciliana
13. 4. Passacaglia
Trittico Botticelliano
14. 1. La Primavera
15. 2. L'Adorazione dei Magi
16. 3. La Nascata di Venere

CD 36 [64:01]
JOAQUIN RODRIGO (1901-1999)
Concierto de Aranjuez for Guitar and Orchestra
01. I. Allegro con spirito
02. II. Adagio
03. III. Allegro Gentile
Fantasía para un gentilhombre
04. I. Villano y ricercare. Adagietto - Andante moderato
05. II. Españoleta y Fanfare del la caballería de Nápoles. Adagio -
06. Allegretto molto ritmico
07. III. Danza de las hachas. Allegro con brio
08. IV. Canario. Allegro ma non troppo
HEITOR VILLA-LOBOS (1887-1959)
Concerto for Guitar and Orchestra
09. I. Allegro preciso
10. II. Andantino e andante
11. III. Allegretto non troppo

Göran Söllscher, guitar

CD 37 [52:37]
GIOACCHINO ROSSINI (1792-1868)
Overtures
01. Tancredi: Andante marcato - Allegro
02. L'italiana in Algeri: Andante - Allegro
03. L'inganno felice: Andante sostenuto - Allegro vivace
04. La scala di seta: Andantino - Allegro
05. Il barbiere di Siviglia: Andante maestoso - Allegro con brio
06. Il Signor Bruschino: Allegro
07. La cambiale di matrimonio: Andante maestoso - Allegro vivace
08. Il Turco in Italia: Adagio - Allegro

CD 38 [69:51]
CAMILLE SAINT-SAËNS (1835-1921)
Cello Concerto No. 1 in A minor, Op. 33
01. I. Allegro non troppo
02. II. Allegretto con moto
03. III. Tempo I - Un peu moins vite - Più allegro (Tempo I) - Molto allegro
04. Le carnaval des animaux: No. 13 Le Cygne
05. Allegro appassionato in B minor, Op. 43: Allegro - Più lento - Allegro
06. Romance in F major, Op. 36: Moderato
Suite, Op. 16
07. I. Prélude. Moderato assai
08. II. Sérénade. Andantino
09. III. Gavotte. Allegro non troppo
10. IV. Romance. Molto adagio
11. V. Tarantelle. Presto
Cello Sonata No. 1 in C minor, Op. 32
12. I. Allegro
13. II. Andante tranquillo e sostenuto
14. III. Allegro moderato

Mischa Maisky, cello

CD 39 [69:07]
ARNOLD SCHÖNBERG (1874-1951)
Verklärte Nacht, op. 4
01. Grave [bar 1] -
02. Molto rallentando [bar 100] -
03. A tempo [bar 188] -
04. Adagio [bar 229] -
05. Adagio [bar 370] -
Kammersymphonie Nr. 1 für 15 Soloinstrumente, op. 9
06. Langsam - Sehr rasch - Viel langsamer -
07. Sehr rasch [fig. 38] -
08. Viel langsamer, aber doch fließend [fig. 60] -
09. Viel langsamer [fig. 77] -
10. Etwas bewegter [fig. 86]
Kammersymphonie Nr. 2, op. 38
11. 1. Adagio
12. 2. Con fuoco

CD 40: Classical Hits [63:27]
ROMAN HOFFSTETTER (1742-1814) (formerly attr. Joseph Haydn)
String Quartet in F major, Hob.III:17
01. 2. Andante cantabile
CHRISTOPH WILLIBALD GLUCK (1714-1787)
Orphée et Eurydice
02. Dance of the Furies
03. Ronde des esprits bienheureux
MICHAEL HAYDN (1737-1806)
Notturno in F major, P 106
04. 3. Adagio
LUIGI BOCCHERINI (1743-1805)
String Quintet op.11 13, No.5 in E major
05. III. Menuetto
WOLFGANG AMADEUS MOZART (1756-1791)
Serenade in G Major, K. 525 "Eine kleine Nachtmusik"
06. 2. Romance
LUDWIG VAN BEETHOVEN (1770-1827)
Die Geschöpfe des Prometheus, Op. 43
07. No.16 Finale
FELIX MENDELSSOHN (1809-1847)
Ein Sommernachtstraum, Op. 61
08. 5. Intermezzo. Allegro appassionato
09. 7. Notturno. Con moto tranquillo
FRANZ SCHUBERT (1797-1828)
Rosamunde, D.797
10. 5. Entr'acte
11. 6. Hirtenmelodien
12. 9. Ballett II
13. 2. Ballett I



Exact Audio Copy V1.6 from 23. October 2020

EAC extraction logfile from 17. October 2021, 19:36

Orpheus Chamber Orchestra / Respighi - Orchestral Suites

Used drive : PIONEER DVD-RW DVR-218L Adapter: 1 ID: 0

Read mode : Secure
Utilize accurate stream : Yes
Defeat audio cache : Yes
Make use of C2 pointers : No

Read offset correction : 6
Overread into Lead-In and Lead-Out : No
Fill up missing offset samples with silence : Yes
Delete leading and trailing silent blocks : No
Null samples used in CRC calculations : Yes
Used interface : Native Win32 interface for Win NT & 2000

Used output format : User Defined Encoder
Selected bitrate : 128 kBit/s
Quality : High
Add ID3 tag : No
Command line compressor : C:\Program Files\Exact Audio Copy\Flac\flac.exe
Additional command line options : -V -8 -T "Date=%year%" -T "Genre=%genre%" %source%


TOC of the extracted CD

Track | Start | Length | Start sector | End sector
––––––––––––––––––––––––––––-
1 | 0:00.33 | 2:50.00 | 33 | 12782
2 | 2:50.33 | 4:25.00 | 12783 | 32657
3 | 7:15.33 | 2:49.00 | 32658 | 45332
4 | 10:04.33 | 3:53.00 | 45333 | 62807
5 | 13:57.33 | 4:26.00 | 62808 | 82757
6 | 18:23.33 | 2:51.00 | 82758 | 95582
7 | 21:14.33 | 3:36.00 | 95583 | 111782
8 | 24:50.33 | 4:14.00 | 111783 | 130832
9 | 29:04.33 | 3:53.00 | 130833 | 148307
10 | 32:57.33 | 2:39.00 | 148308 | 160232
11 | 35:36.33 | 6:55.00 | 160233 | 191357
12 | 42:31.33 | 3:13.00 | 191358 | 205832
13 | 45:44.33 | 4:01.00 | 205833 | 223907
14 | 49:45.33 | 5:36.00 | 223908 | 249107
15 | 55:21.33 | 8:38.00 | 249108 | 287957
16 | 63:59.33 | 5:29.00 | 287958 | 312632


Range status and errors

Selected range

Filename C:\ArlegZ\Orpheus Chamber Orchestra - Respighi - Orchestral Suites.wav

Peak level 97.7 %
Extraction speed 2.1 X
Range quality 100.0 %
Test CRC 45693960
Copy CRC 45693960
Copy OK

No errors occurred


AccurateRip summary

Track 1 accurately ripped (confidence 9) [D99B2882] (AR v2)
Track 2 accurately ripped (confidence 9) [EBBC26DA] (AR v2)
Track 3 accurately ripped (confidence 9) [4D5DEAD1] (AR v2)
Track 4 accurately ripped (confidence 9) [23C7D6E9] (AR v2)
Track 5 accurately ripped (confidence 9) [FB5EEB28] (AR v2)
Track 6 accurately ripped (confidence 9) [A8F7DFD9] (AR v2)
Track 7 accurately ripped (confidence 9) [5BB3F954] (AR v2)
Track 8 accurately ripped (confidence 9) [AB6F807D] (AR v2)
Track 9 accurately ripped (confidence 9) [DEA19894] (AR v2)
Track 10 accurately ripped (confidence 9) [71E0912E] (AR v2)
Track 11 accurately ripped (confidence 9) [62EFC161] (AR v2)
Track 12 accurately ripped (confidence 9) [75AF8C46] (AR v2)
Track 13 accurately ripped (confidence 9) [5E6533BC] (AR v2)
Track 14 accurately ripped (confidence 9) [99BA5F20] (AR v2)
Track 15 accurately ripped (confidence 9) [59E9E184] (AR v2)
Track 16 accurately ripped (confidence 9) [4032C8A0] (AR v2)

All tracks accurately ripped

End of status report

–– CUETools DB Plugin V2.1.6

[CTDB TOCID: MnLWKAGsmCIgQ14MWGyYCmk7IqM-] found
Submit result: MnLWKAGsmCIgQ14MWGyYCmk7IqM- has been confirmed
Track | CTDB Status
1 | (116/118) Accurately ripped
2 | (116/118) Accurately ripped
3 | (118/118) Accurately ripped
4 | (117/118) Accurately ripped
5 | (116/118) Accurately ripped
6 | (117/118) Accurately ripped
7 | (117/118) Accurately ripped
8 | (117/118) Accurately ripped
9 | (117/118) Accurately ripped
10 | (116/118) Accurately ripped
11 | (117/118) Accurately ripped
12 | (117/118) Accurately ripped
13 | (117/118) Accurately ripped
14 | (117/118) Accurately ripped
15 | (115/118) Accurately ripped
16 | (112/118) Accurately ripped


==== Log checksum 1B1789546B14ECB4AA4159883A70446E37CB6ED582AB107BDFD0BA7D6094FDE6 ====


Exact Audio Copy V1.6 from 23. October 2020

EAC extraction logfile from 17. October 2021, 20:54

Göran Söllscher, Orpheus Chamber Orchestra / Rodrigo - Concierto de Aranjuez

Used drive : PIONEER DVD-RW DVR-218L Adapter: 1 ID: 0

Read mode : Secure
Utilize accurate stream : Yes
Defeat audio cache : Yes
Make use of C2 pointers : No

Read offset correction : 6
Overread into Lead-In and Lead-Out : No
Fill up missing offset samples with silence : Yes
Delete leading and trailing silent blocks : No
Null samples used in CRC calculations : Yes
Used interface : Native Win32 interface for Win NT & 2000

Used output format : User Defined Encoder
Selected bitrate : 128 kBit/s
Quality : High
Add ID3 tag : No
Command line compressor : C:\Program Files\Exact Audio Copy\Flac\flac.exe
Additional command line options : -V -8 -T "Date=%year%" -T "Genre=%genre%" %source%


TOC of the extracted CD

Track | Start | Length | Start sector | End sector
––––––––––––––––––––––––––––-
1 | 0:00.33 | 6:11.47 | 33 | 27904
2 | 6:12.05 | 10:50.35 | 27905 | 76689
3 | 17:02.40 | 5:30.65 | 76690 | 101504
4 | 22:33.30 | 4:55.65 | 101505 | 123694
5 | 27:29.20 | 5:07.25 | 123695 | 146744
6 | 32:36.45 | 5:11.13 | 146745 | 170082
7 | 37:47.58 | 2:03.40 | 170083 | 179347
8 | 39:51.23 | 5:26.07 | 179348 | 203804
9 | 45:17.30 | 5:34.23 | 203805 | 228877
10 | 50:51.53 | 8:42.10 | 228878 | 268037
11 | 59:33.63 | 4:46.32 | 268038 | 289519


Range status and errors

Selected range

Filename C:\ArlegZ\Orpheus Chamber Orchestra - Rodrigo - Concierto de Aranjuez.wav

Peak level 95.8 %
Extraction speed 2.0 X
Range quality 100.0 %
Test CRC F513D797
Copy CRC F513D797
Copy OK

No errors occurred


AccurateRip summary

Track 1 accurately ripped (confidence 10) [C44FCE5D] (AR v2)
Track 2 accurately ripped (confidence 10) [F87950A2] (AR v2)
Track 3 accurately ripped (confidence 8) [81A98B6E] (AR v2)
Track 4 accurately ripped (confidence 10) [0ACE9D62] (AR v2)
Track 5 accurately ripped (confidence 10) [729AB454] (AR v2)
Track 6 accurately ripped (confidence 9) [366A93FF] (AR v2)
Track 7 accurately ripped (confidence 9) [A6E3B09D] (AR v2)
Track 8 accurately ripped (confidence 9) [69BADFAC] (AR v2)
Track 9 accurately ripped (confidence 9) [1632A28E] (AR v2)
Track 10 accurately ripped (confidence 9) [325DAC78] (AR v2)
Track 11 accurately ripped (confidence 8) [96F4A6B1] (AR v2)

All tracks accurately ripped

End of status report

–– CUETools DB Plugin V2.1.6

[CTDB TOCID: _c_rfUBZkCDR2g5dWkWdQIDj2z4-] found
Submit result: _c_rfUBZkCDR2g5dWkWdQIDj2z4- has been confirmed
Track | CTDB Status
1 | (165/171) Accurately ripped
2 | (167/171) Accurately ripped
3 | (167/171) Accurately ripped
4 | (168/171) Accurately ripped
5 | ( 36/171) Accurately ripped
6 | (165/171) Accurately ripped
7 | (169/171) Accurately ripped
8 | (169/171) Accurately ripped
9 | (165/171) Accurately ripped
10 | (168/171) Accurately ripped
11 | (164/171) Accurately ripped


==== Log checksum 0469A596B8D6E9F528A0D409E72AB8277796A0216FE0003DFCD30F861A4FB839 ====


Exact Audio Copy V1.6 from 23. October 2020

EAC extraction logfile from 17. October 2021, 22:03

Orpheus Chamber Orchestra / Rossini - Overtures

Used drive : PIONEER DVD-RW DVR-218L Adapter: 1 ID: 0

Read mode : Secure
Utilize accurate stream : Yes
Defeat audio cache : Yes
Make use of C2 pointers : No

Read offset correction : 6
Overread into Lead-In and Lead-Out : No
Fill up missing offset samples with silence : Yes
Delete leading and trailing silent blocks : No
Null samples used in CRC calculations : Yes
Used interface : Native Win32 interface for Win NT & 2000

Used output format : User Defined Encoder
Selected bitrate : 128 kBit/s
Quality : High
Add ID3 tag : No
Command line compressor : C:\Program Files\Exact Audio Copy\Flac\flac.exe
Additional command line options : -V -8 -T "Date=%year%" -T "Genre=%genre%" %source%


TOC of the extracted CD

Track | Start | Length | Start sector | End sector
––––––––––––––––––––––––––––-
1 | 0:00.33 | 6:09.02 | 33 | 27709
2 | 6:09.35 | 8:06.00 | 27710 | 64159
3 | 14:15.35 | 6:00.63 | 64160 | 91222
4 | 20:16.23 | 6:08.12 | 91223 | 118834
5 | 26:24.35 | 7:40.00 | 118835 | 153334
6 | 34:04.35 | 5:12.73 | 153335 | 176807
7 | 39:17.33 | 5:16.67 | 176808 | 200574
8 | 44:34.25 | 8:46.73 | 200575 | 240097


Range status and errors

Selected range

Filename C:\ArlegZ\Orpheus Chamber Orchestra - Rossini - Overtures.wav

Peak level 98.6 %
Extraction speed 1.8 X
Range quality 100.0 %
Test CRC C55B2B3E
Copy CRC C55B2B3E
Copy OK

No errors occurred


AccurateRip summary

Track 1 accurately ripped (confidence 2) [48BDEF2C] (AR v2)
Track 2 accurately ripped (confidence 2) [8331B22B] (AR v2)
Track 3 accurately ripped (confidence 2) [187D8A53] (AR v2)
Track 4 accurately ripped (confidence 2) [A3BF1EE1] (AR v2)
Track 5 accurately ripped (confidence 2) [1E32DE0F] (AR v2)
Track 6 accurately ripped (confidence 2) [C15CDED7] (AR v2)
Track 7 accurately ripped (confidence 2) [3E18D23D] (AR v2)
Track 8 accurately ripped (confidence 2) [C23E2D09] (AR v2)

All tracks accurately ripped

End of status report

–– CUETools DB Plugin V2.1.6

[CTDB TOCID: uMxX3TNpVaAms4VKztT2cutEPUI-] found
Submit result: uMxX3TNpVaAms4VKztT2cutEPUI- has been confirmed
Track | CTDB Status
1 | (134/134) Accurately ripped
2 | (133/134) Accurately ripped
3 | (134/134) Accurately ripped
4 | (134/134) Accurately ripped
5 | (133/134) Accurately ripped
6 | (134/134) Accurately ripped
7 | (134/134) Accurately ripped
8 | (131/134) Accurately ripped


==== Log checksum 79569583C1BC01067EAEBDFBC017741191F39BFE51EFC46E019932BBC375E5FC ====


Exact Audio Copy V1.6 from 23. October 2020

EAC extraction logfile from 20. October 2021, 16:30

Mischa Maisky, Orpheus Chamber Orchestra / Saint-Saëns - Cello Concerto No.1, Cello Sonata No.1

Used drive : PIONEER DVD-RW DVR-218L Adapter: 1 ID: 0

Read mode : Secure
Utilize accurate stream : Yes
Defeat audio cache : Yes
Make use of C2 pointers : No

Read offset correction : 6
Overread into Lead-In and Lead-Out : No
Fill up missing offset samples with silence : Yes
Delete leading and trailing silent blocks : No
Null samples used in CRC calculations : Yes
Used interface : Native Win32 interface for Win NT & 2000

Used output format : User Defined Encoder
Selected bitrate : 128 kBit/s
Quality : High
Add ID3 tag : No
Command line compressor : C:\Program Files\Exact Audio Copy\Flac\flac.exe
Additional command line options : -V -8 -T "Date=%year%" -T "Genre=%genre%" %source%


TOC of the extracted CD

Track | Start | Length | Start sector | End sector
––––––––––––––––––––––––––––-
1 | 0:00.00 | 5:11.20 | 0 | 23344
2 | 5:11.20 | 4:59.27 | 23345 | 45796
3 | 10:10.47 | 8:19.28 | 45797 | 83249
4 | 18:30.00 | 4:11.00 | 83250 | 102074
5 | 22:41.00 | 3:45.00 | 102075 | 118949
6 | 26:26.00 | 3:20.00 | 118950 | 133949
7 | 29:46.00 | 2:40.00 | 133950 | 145949
8 | 32:26.00 | 3:31.00 | 145950 | 161774
9 | 35:57.00 | 3:25.00 | 161775 | 177149
10 | 39:22.00 | 7:02.00 | 177150 | 208799
11 | 46:24.00 | 3:36.00 | 208800 | 224999
12 | 50:00.00 | 8:31.00 | 225000 | 263324
13 | 58:31.00 | 5:37.00 | 263325 | 288599
14 | 64:08.00 | 6:06.00 | 288600 | 316049


Range status and errors

Selected range

Filename C:\ArlegZ\Orpheus Chamber Orchestra - Saint-Saëns - Cello Concerto No.1, Cello Sonata No.1.wav

Peak level 99.9 %
Extraction speed 2.1 X
Range quality 100.0 %
Test CRC 5B0BEEF2
Copy CRC 5B0BEEF2
Copy OK

No errors occurred


AccurateRip summary

Track 1 accurately ripped (confidence 29) [6C5F8A00] (AR v2)
Track 2 accurately ripped (confidence 29) [DA7AD806] (AR v2)
Track 3 accurately ripped (confidence 29) [62BD7AFA] (AR v2)
Track 4 accurately ripped (confidence 29) [F86EB7C0] (AR v2)
Track 5 accurately ripped (confidence 29) [0A76C271] (AR v2)
Track 6 accurately ripped (confidence 29) [5E0C56F4] (AR v2)
Track 7 accurately ripped (confidence 29) [12BAC063] (AR v2)
Track 8 accurately ripped (confidence 29) [138CFF9A] (AR v2)
Track 9 accurately ripped (confidence 29) [2209B234] (AR v2)
Track 10 accurately ripped (confidence 29) [E0686FBC] (AR v2)
Track 11 accurately ripped (confidence 29) [17D0F597] (AR v2)
Track 12 accurately ripped (confidence 29) [CCC9F033] (AR v2)
Track 13 accurately ripped (confidence 29) [EB32C336] (AR v2)
Track 14 accurately ripped (confidence 28) [1BCF4E2E] (AR v2)

All tracks accurately ripped

End of status report

–– CUETools DB Plugin V2.1.6

[CTDB TOCID: RnZUt2biO_wqz_DOCxxp4XZW0J0-] found
Submit result: RnZUt2biO_wqz_DOCxxp4XZW0J0- has been confirmed
Track | CTDB Status
1 | (156/159) Accurately ripped
2 | (159/159) Accurately ripped
3 | (158/159) Accurately ripped
4 | (158/159) Accurately ripped
5 | (159/159) Accurately ripped
6 | (158/159) Accurately ripped
7 | (159/159) Accurately ripped
8 | (159/159) Accurately ripped
9 | (158/159) Accurately ripped
10 | (158/159) Accurately ripped
11 | (159/159) Accurately ripped
12 | (157/159) Accurately ripped
13 | (157/159) Accurately ripped
14 | (157/159) Accurately ripped


==== Log checksum 69FDE0C8CA35649842BD6A63115A6E4897E4CA9E28E426E197B62A5B083E6068 ====


Exact Audio Copy V1.6 from 23. October 2020

EAC extraction logfile from 20. October 2021, 17:53

Orpheus Chamber Orchestra / Schoenberg - Verklärte Nacht

Used drive : PIONEER DVD-RW DVR-218L Adapter: 1 ID: 0

Read mode : Secure
Utilize accurate stream : Yes
Defeat audio cache : Yes
Make use of C2 pointers : No

Read offset correction : 6
Overread into Lead-In and Lead-Out : No
Fill up missing offset samples with silence : Yes
Delete leading and trailing silent blocks : No
Null samples used in CRC calculations : Yes
Used interface : Native Win32 interface for Win NT & 2000

Used output format : User Defined Encoder
Selected bitrate : 128 kBit/s
Quality : High
Add ID3 tag : No
Command line compressor : C:\Program Files\Exact Audio Copy\Flac\flac.exe
Additional command line options : -V -8 -T "Date=%year%" -T "Genre=%genre%" %source%


TOC of the extracted CD

Track | Start | Length | Start sector | End sector
––––––––––––––––––––––––––––-
1 | 0:00.33 | 6:18.57 | 33 | 28439
2 | 6:19.15 | 4:53.35 | 28440 | 50449
3 | 11:12.50 | 3:25.65 | 50450 | 65889
4 | 14:38.40 | 9:36.20 | 65890 | 109109
5 | 24:14.60 | 4:32.48 | 109110 | 129557
6 | 28:47.33 | 5:41.52 | 129558 | 155184
7 | 34:29.10 | 1:57.48 | 155185 | 164007
8 | 36:26.58 | 3:08.00 | 164008 | 178107
9 | 39:34.58 | 4:08.27 | 178108 | 196734
10 | 43:43.10 | 6:17.23 | 196735 | 225032
11 | 50:00.33 | 8:32.45 | 225033 | 263477
12 | 58:33.03 | 10:54.05 | 263478 | 312532


Range status and errors

Selected range

Filename C:\ArlegZ\Orpheus Chamber Orchestra - Schoenberg - Verklärte Nacht.wav

Peak level 99.8 %
Extraction speed 2.1 X
Range quality 100.0 %
Test CRC D23BAA85
Copy CRC D23BAA85
Copy OK

No errors occurred


AccurateRip summary

Track 1 accurately ripped (confidence 2) [265E70D1] (AR v2)
Track 2 accurately ripped (confidence 2) [8E9CF86A] (AR v2)
Track 3 accurately ripped (confidence 2) [150ECAD5] (AR v2)
Track 4 accurately ripped (confidence 2) [14C504C0] (AR v2)
Track 5 accurately ripped (confidence 2) [77F53E01] (AR v2)
Track 6 accurately ripped (confidence 2) [7B3CA0CD] (AR v2)
Track 7 accurately ripped (confidence 2) [082B18DE] (AR v2)
Track 8 accurately ripped (confidence 2) [7EE6BB1E] (AR v2)
Track 9 accurately ripped (confidence 2) [0B15ED55] (AR v2)
Track 10 accurately ripped (confidence 2) [A263696A] (AR v2)
Track 11 accurately ripped (confidence 2) [20A542DF] (AR v2)
Track 12 accurately ripped (confidence 2) [31426C4B] (AR v2)

All tracks accurately ripped

End of status report

–– CUETools DB Plugin V2.1.6

[CTDB TOCID: xhdCafpnMsgCD5SWHc3FkVuOXc4-] found
Submit result: xhdCafpnMsgCD5SWHc3FkVuOXc4- has been confirmed
Track | CTDB Status
1 | (109/112) Accurately ripped
2 | (108/112) Accurately ripped
3 | (109/112) Accurately ripped
4 | (106/112) Accurately ripped
5 | (106/112) Accurately ripped
6 | (105/112) Accurately ripped
7 | (106/112) Accurately ripped
8 | (106/112) Accurately ripped
9 | (106/112) Accurately ripped
10 | (106/112) Accurately ripped
11 | (106/112) Accurately ripped
12 | (106/112) Accurately ripped


==== Log checksum A2FDEF913B04E20AAC44352F43FD545BDD8846C5142D57F407866D8FF02CFA71 ====


Exact Audio Copy V1.6 from 23. October 2020

EAC extraction logfile from 20. October 2021, 19:45

Orpheus Chamber Orchestra / Classical Hits

Used drive : PIONEER DVD-RW DVR-218L Adapter: 1 ID: 0

Read mode : Secure
Utilize accurate stream : Yes
Defeat audio cache : Yes
Make use of C2 pointers : No

Read offset correction : 6
Overread into Lead-In and Lead-Out : No
Fill up missing offset samples with silence : Yes
Delete leading and trailing silent blocks : No
Null samples used in CRC calculations : Yes
Used interface : Native Win32 interface for Win NT & 2000

Used output format : User Defined Encoder
Selected bitrate : 128 kBit/s
Quality : High
Add ID3 tag : No
Command line compressor : C:\Program Files\Exact Audio Copy\Flac\flac.exe
Additional command line options : -V -8 -T "Date=%year%" -T "Genre=%genre%" %source%


TOC of the extracted CD

Track | Start | Length | Start sector | End sector
––––––––––––––––––––––––––––-
1 | 0:00.32 | 3:16.00 | 32 | 14731
2 | 3:16.32 | 4:04.00 | 14732 | 33031
3 | 7:20.32 | 6:10.00 | 33032 | 60781
4 | 13:30.32 | 6:48.00 | 60782 | 91381
5 | 20:18.32 | 3:24.00 | 91382 | 106681
6 | 23:42.32 | 5:46.00 | 106682 | 132631
7 | 29:28.32 | 6:28.00 | 132632 | 161731
8 | 35:56.32 | 3:21.00 | 161732 | 176806
9 | 39:17.32 | 5:59.00 | 176807 | 203731
10 | 45:16.32 | 6:32.00 | 203732 | 233131
11 | 51:48.32 | 1:29.00 | 233132 | 239806
12 | 53:17.32 | 6:27.00 | 239807 | 268831
13 | 59:44.32 | 3:49.00 | 268832 | 286006


Range status and errors

Selected range

Filename C:\ArlegZ\Orpheus Chamber Orchestra - Classical Hits.wav

Peak level 99.7 %
Extraction speed 2.0 X
Range quality 100.0 %
Test CRC C615516A
Copy CRC C615516A
Copy OK

No errors occurred


AccurateRip summary

Track 1 accurately ripped (confidence 2) [151F5DB8] (AR v2)
Track 2 accurately ripped (confidence 2) [074A771E] (AR v2)
Track 3 accurately ripped (confidence 2) [50482038] (AR v2)
Track 4 accurately ripped (confidence 2) [27731035] (AR v2)
Track 5 accurately ripped (confidence 2) [4A816281] (AR v2)
Track 6 accurately ripped (confidence 2) [0F5E8A12] (AR v2)
Track 7 accurately ripped (confidence 2) [324F8449] (AR v2)
Track 8 accurately ripped (confidence 2) [5F94933C] (AR v2)
Track 9 accurately ripped (confidence 2) [48789C78] (AR v2)
Track 10 accurately ripped (confidence 2) [4A6FE4D9] (AR v2)
Track 11 accurately ripped (confidence 2) [8DB0D49F] (AR v2)
Track 12 accurately ripped (confidence 2) [CDDAF188] (AR v2)
Track 13 accurately ripped (confidence 2) [0D0FCF48] (AR v2)

All tracks accurately ripped

End of status report

–– CUETools DB Plugin V2.1.6

[CTDB TOCID: TkVIXGP2GwDNKycwxRDEKhGFwNo-] found
Submit result: TkVIXGP2GwDNKycwxRDEKhGFwNo- has been confirmed
Track | CTDB Status
1 | (46/47) Accurately ripped
2 | (46/47) Accurately ripped
3 | (46/47) Accurately ripped
4 | (46/47) Accurately ripped
5 | (46/47) Accurately ripped
6 | (46/47) Accurately ripped
7 | (46/47) Accurately ripped
8 | (46/47) Accurately ripped
9 | (46/47) Accurately ripped
10 | (46/47) Accurately ripped
11 | (46/47) Accurately ripped
12 | (45/47) Accurately ripped
13 | (45/47) Accurately ripped


==== Log checksum 524E70DB6A6D7010D1E9977E51501E6398B9762C7A7750E4AC0FBF9A393D2FE2 ====


Orpheus Chamber Orchestra Complete Recordings on Deutsche Grammophon [55CDs] Part 9 (2021)