Subcategories

Os Mutantes - Os Mutantes (1968) [Reissue 1999] (Repost)

Posted By: gribovar
Os Mutantes - Os Mutantes (1968) [Reissue 1999] (Repost)

Os Mutantes - Os Mutantes (1968) [Reissue 1999]
EAC Rip | FLAC (image+.cue+log) - 212 MB | MP3 CBR 320 kbps (LAME 3.93) - 84 MB | Covers - 31 MB
Genre: Psychedelic Rock | RAR 3% Rec. | Label: Omplatten (FJORD 001)

The band's debut album, Os Mutantes, is far and away their best - a wildly inventive trip that assimilates orchestral pop, whimsical psychedelia, musique concrète, found-sound environments - and that's just the first song! Elsewhere there are nods to Carnaval, albeit with distinct hippie sensibilities, incorporating fuzztone guitars and go-go basslines. Two tracks, "O Relogio" and "Le Premier Bonheur du Jour," work through pastoral French pop, sounding closer to the Swingle Singers than Gilberto Gil. Though not all of the experimentation succeeds - the languid Brazilian blues of "Baby" is rather cumbersome - and pop/rock listeners may have a hard time finding the hooks, Os Mutantes' first album is an astonishing listen. It's far more experimental than any of the albums produced by the era's first-rate psychedelic bands of Britain or America.

Tracklist:
01. Panis Et Circensis
02. A Minha Menina
03. O Relogio
04. Adeus Maria Fulo
05. Baby
06. Senhor F
07. Bat Macumba
08. Le Premier Bonheur Du Jour
09. Trem Fantasma
10. Tempo No Tempo
11. Ave Genghis Khan

Total time: 36:01

Exact Audio Copy V0.99 prebeta 3 from 28. July 2007

EAC extraction logfile from 29. September 2010, 11:59

Os Mutantes / Os Mutantes

Used drive : _NEC DVD_RW ND-2510A Adapter: 1 ID: 0

Read mode : Secure
Utilize accurate stream : Yes
Defeat audio cache : Yes
Make use of C2 pointers : No

Read offset correction : 48
Overread into Lead-In and Lead-Out : No
Fill up missing offset samples with silence : Yes
Delete leading and trailing silent blocks : No
Null samples used in CRC calculations : Yes
Used interface : Native Win32 interface for Win NT & 2000

Used output format : User Defined Encoder
Selected bitrate : 1024 kBit/s
Quality : High
Add ID3 tag : No
Command line compressor : C:\Program Files\Exact Audio Copy\Flac\flac.exe
Additional command line options : -8 -V %s


TOC of the extracted CD

Track | Start | Length | Start sector | End sector
––––––––––––––––––––––––––––-
1 | 0:00.00 | 3:37.00 | 0 | 16274
2 | 3:37.00 | 4:41.25 | 16275 | 37374
3 | 8:18.25 | 3:29.62 | 37375 | 53111
4 | 11:48.12 | 3:04.38 | 53112 | 66949
5 | 14:52.50 | 3:00.50 | 66950 | 80499
6 | 17:53.25 | 2:33.25 | 80500 | 91999
7 | 20:26.50 | 3:09.10 | 92000 | 106184
8 | 23:35.60 | 3:35.65 | 106185 | 122374
9 | 27:11.50 | 3:15.37 | 122375 | 137036
10 | 30:27.12 | 1:47.00 | 137037 | 145061
11 | 32:14.12 | 3:46.63 | 145062 | 162074


Range status and errors

Selected range

Filename I:\Раздача музыки Torrents\Mutantes\Mutantes - razdacha\Os Mutantes (1968)\Os Mutantes - Os Mutantes.wav

Peak level 93.3 %
Range quality 100.0 %
Test CRC E51C42FE
Copy CRC E51C42FE
Copy OK

No errors occurred


AccurateRip summary

Track 1 accurately ripped (confidence 6) [347E3FC4]
Track 2 accurately ripped (confidence 5) [DEE53A2B]
Track 3 accurately ripped (confidence 5) [8846A50C]
Track 4 accurately ripped (confidence 5) [6CF13A73]
Track 5 accurately ripped (confidence 5) [0F88D9CD]
Track 6 accurately ripped (confidence 6) [F50DF2A7]
Track 7 accurately ripped (confidence 6) [83B4801E]
Track 8 accurately ripped (confidence 5) [A706179B]
Track 9 accurately ripped (confidence 6) [EDDAE5D0]
Track 10 accurately ripped (confidence 5) [01E60825]
Track 11 accurately ripped (confidence 5) [3CA35910]

All tracks accurately ripped

End of status report

[CUETools log; Date: 13.09.2017 14:07:26; Version: 2.1.4]
[CTDB TOCID: m0jwHaY.zEodVY.Gxemb0Uh9rPI-] found.
Track | CTDB Status
1 | (18/18) Accurately ripped
2 | (18/18) Accurately ripped
3 | (18/18) Accurately ripped
4 | (18/18) Accurately ripped
5 | (18/18) Accurately ripped
6 | (18/18) Accurately ripped
7 | (18/18) Accurately ripped
8 | (18/18) Accurately ripped
9 | (18/18) Accurately ripped
10 | (18/18) Accurately ripped
11 | (17/18) Accurately ripped
[AccurateRip ID: 000f8c42-008474e9-8b08710b] found.
Track [ CRC | V2 ] Status
01 [347e3fc4|72d5501d] (08+10/21) Accurately ripped
02 [dee53a2b|8342c552] (07+10/20) Accurately ripped
03 [8846a50c|4438897b] (07+10/20) Accurately ripped
04 [6cf13a73|202deb7f] (07+10/20) Accurately ripped
05 [0f88d9cd|8dfd4f08] (07+10/20) Accurately ripped
06 [f50df2a7|5ffa0702] (08+10/21) Accurately ripped
07 [83b4801e|6a552840] (08+10/21) Accurately ripped
08 [a706179b|a1598ccf] (07+10/20) Accurately ripped
09 [eddae5d0|b1076cff] (08+10/21) Accurately ripped
10 [01e60825|569f39f4] (07+10/20) Accurately ripped
11 [3ca35910|27a52a86] (07+10/20) Accurately ripped
Offsetted by -716:
01 [06903eb5] (03/21) Accurately ripped
02 [203c8439] (03/20) Accurately ripped
03 [cbf8b79f] (03/20) Accurately ripped
04 [268c21b7] (03/20) Accurately ripped
05 [459747a9] (03/20) Accurately ripped
06 [457e0e58] (03/21) Accurately ripped
07 [f9ce77ec] (03/21) Accurately ripped
08 [8304fd93] (03/20) Accurately ripped
09 [6f7d91fd] (03/21) Accurately ripped
10 [1fef7eae] (03/20) Accurately ripped
11 [fc199bcd] (03/20) Accurately ripped
Offsetted by -686:
01 [e47d6f7f] (00/21) No match (V2 was not tested)
02 [960e30b4] (00/20) No match (V2 was not tested)
03 [5b886d88] (00/20) No match (V2 was not tested)
04 [e03ebce9] (00/20) No match (V2 was not tested)
05 [d82aff03] (00/20) No match (V2 was not tested)
06 [1fec9720] (00/21) No match (V2 was not tested)
07 [3114f0df] (00/21) No match (V2 was not tested)
08 [14d99a75] (00/20) No match (V2 was not tested)
09 [4bda8c53] (00/21) No match (V2 was not tested)
10 [782a6482] (00/20) No match (V2 was not tested)
11 [ea5c41a6] (00/20) No match (V2 was not tested)

Track Peak [ CRC32 ] [W/O NULL] [ LOG ]
– 93,3 [E51C42FE] [1092E0D3] CRC32
01 77,2 [9F19A1F3] [11DDDC60]
02 90,7 [1A035AFC] [B0FBAC1E]
03 90,6 [E7674391] [7DA8AAC1]
04 93,3 [3EEFE6B7] [C01EE9F8]
05 70,1 [29956028] [63A302B6]
06 71,0 [CB8EA6D9] [C32EAC65]
07 93,3 [3A938094] [CA4EF48E]
08 72,1 [944C9C77] [120C22CF]
09 93,3 [26E2CDAF] [AE041C27]
10 88,5 [60C95005] [BD39CEB4]
11 93,3 [1D36E8A5] [7C566C9B]

Thanks to glebchic

See also:
Mutantes (Os Mutantes) - Mutantes (1969) [Reissue 2006]
Mutantes (Os Mutantes) - A Divina Comedia Ou Ando Meio Desligado (1970) [Reissue 2006]
Mutantes (Os Mutantes) - Mutantes E Seus Cometas No País Do Baurets (1972) [Reissue 2006]
Mutantes (Os Mutantes) - Tudo Foi Feito Pelo Sol (1974) [Reissue 2006]
Os Mutantes - O 'A' E O 'Z' [Recorded 1973] (1992) [Reissue 2006]