Tags
Language
Tags

Oscar Peterson - A Royal Wedding Suite (1981) {1998, Remastered}

Posted By: popsakov
Oscar Peterson - A Royal Wedding Suite (1981) {1998, Remastered}

Oscar Peterson - A Royal Wedding Suite (1981) {1998, Remastered}
EAC Rip | FLAC (Img) + Cue + Log ~ 305 Mb | MP3 CBR320 ~ 152 Mb
Full Scans | 00:45:00 | RAR 5% Recovery
Pablo Records / Original Jazz Classics #OJCCD-973-2 (2312-129)
Jazz / Bop / Mainstream Jazz

To celebrate the marriage of Prince Charles and Lady Di of England, Oscar Peterson composed a ten-song suite that he performs on this album while accompanied by an unidentified string orchestra arranged by Rick Wilkins. Not too surprisingly Peterson (who doubles here on electric piano) proves to be a talented composer and, even if none of the individual pieces caught on (or was ever apparently recorded again by the pianist), the music on a whole is quite satisfying.

~ Scott Yanow, All Music

***************

Oscar Peterson - A Royal Wedding Suite (1981) {1998, Remastered}

Oscar Peterson - A Royal Wedding Suite (1981) {1998, Remastered}

Track List:

01. Announcement [0:01:27.45]
02. London Gets Ready [0:05:39.05]
03. When Summer Comes [0:06:01.14]
04. It's On [0:05:38.08]
05. Heraldry [0:04:15.10]
06. Royal Honeymoon [0:03:46.10]
07. Jubilation [0:03:56.63]
08. Lady Di's Waltz [0:05:01.17]
09. Let the World Sing [0:05:35.60]
10. The Empty Cathedral [0:03:39.25]

Exact Audio Copy V1.1 from 23. June 2015

EAC extraction logfile from 19. May 2016, 16:09

Oscar Peterson / A Royal Wedding Suite

Used drive : Optiarc DVD RW AD-7260S Adapter: 1 ID: 0

Read mode : Secure
Utilize accurate stream : Yes
Defeat audio cache : Yes
Make use of C2 pointers : No

Read offset correction : 48
Overread into Lead-In and Lead-Out : No
Fill up missing offset samples with silence : Yes
Delete leading and trailing silent blocks : No
Null samples used in CRC calculations : Yes
Used interface : Native Win32 interface for Win NT & 2000

Used output format : User Defined Encoder
Selected bitrate : 896 kBit/s
Quality : High
Add ID3 tag : No
Command line compressor : C:\MMProgram\Exact Audio Copy\FLAC\FLAC.EXE
Additional command line options : -6 -V -T "ARTIST=%artist%" -T "TITLE=%title%" -T "ALBUM=%albumtitle%" -T "DATE=%year%" -T "TRACKNUMBER=%tracknr%" -T "GENRE=%genre%" -T "COMMENT=%comment%" -T "BAND=%albuminterpret%" -T "ALBUMARTIST=%albuminterpret%" -T "COMPOSER=%composer%" %haslyrics%–tag-from-file=LYRICS="%lyricsfile%"%haslyrics% -T "DISCNUMBER=%cdnumber%" -T "TOTALDISCS=%totalcds%" -T "TOTALTRACKS=%numtracks%" %hascover%–picture="%coverfile%"%hascover% %source% -o %dest%


TOC of the extracted CD

Track | Start | Length | Start sector | End sector
––––––––––––––––––––––––––––-
1 | 0:00.00 | 1:27.45 | 0 | 6569
2 | 1:27.45 | 5:39.05 | 6570 | 31999
3 | 7:06.50 | 6:01.14 | 32000 | 59088
4 | 13:07.64 | 5:38.08 | 59089 | 84446
5 | 18:45.72 | 4:15.10 | 84447 | 103581
6 | 23:01.07 | 3:46.10 | 103582 | 120541
7 | 26:47.17 | 3:56.63 | 120542 | 138304
8 | 30:44.05 | 5:01.17 | 138305 | 160896
9 | 35:45.22 | 5:35.60 | 160897 | 186081
10 | 41:21.07 | 3:39.25 | 186082 | 202531


Range status and errors

Selected range

Filename F:\Music\Oscar Peterson\1981(1998) - A Royal Wedding Suite [OJCCD-973-2 (2312-129)]\Oscar Peterson - A Royal Wedding Suite.wav

Peak level 100.0 %
Extraction speed 3.8 X
Range quality 100.0 %
Test CRC 412911CD
Copy CRC 412911CD
Copy OK

No errors occurred


AccurateRip summary

Track 1 cannot be verified as accurate (confidence 3) [6AA88D32], AccurateRip returned [D9E02705] (AR v2)
Track 2 cannot be verified as accurate (confidence 3) [F0DC1CA5], AccurateRip returned [6E24A3C3] (AR v2)
Track 3 cannot be verified as accurate (confidence 3) [9D2C756F], AccurateRip returned [0C5B5D3C] (AR v2)
Track 4 cannot be verified as accurate (confidence 3) [3CCBB6BF], AccurateRip returned [FB9890D8] (AR v2)
Track 5 cannot be verified as accurate (confidence 3) [2A2C9935], AccurateRip returned [E904E310] (AR v2)
Track 6 cannot be verified as accurate (confidence 3) [2D045744], AccurateRip returned [6ED417B1] (AR v2)
Track 7 cannot be verified as accurate (confidence 3) [7FABFCDA], AccurateRip returned [8E4C9467] (AR v2)
Track 8 cannot be verified as accurate (confidence 3) [93575825], AccurateRip returned [7F950A54] (AR v2)
Track 9 cannot be verified as accurate (confidence 3) [327F3925], AccurateRip returned [451F6FD0] (AR v2)
Track 10 cannot be verified as accurate (confidence 3) [7FFB253A], AccurateRip returned [3A471920] (AR v2)

No tracks could be verified as accurate
You may have a different pressing from the one(s) in the database

End of status report

–– CUETools DB Plugin V2.1.6

[CTDB TOCID: 1zihbJuU1gNTYZKbyhkcMsTIZLU-] found
Submit result: 1zihbJuU1gNTYZKbyhkcMsTIZLU- has been confirmed
Track | CTDB Status
1 | (6/7) Accurately ripped
2 | (6/7) Accurately ripped
3 | (7/7) Accurately ripped
4 | (6/7) Accurately ripped
5 | (6/7) Accurately ripped
6 | (7/7) Accurately ripped
7 | (7/7) Accurately ripped
8 | (6/7) Accurately ripped
9 | (6/7) Accurately ripped
10 | (7/7) Accurately ripped

[CUETools log; Date: 27.07.2016 23:38:59; Version: 2.1.5]
[CTDB TOCID: 1zihbJuU1gNTYZKbyhkcMsTIZLU-] found.
Track | CTDB Status
1 | (7/8) Accurately ripped
2 | (7/8) Accurately ripped
3 | (8/8) Accurately ripped
4 | (7/8) Accurately ripped
5 | (7/8) Accurately ripped
6 | (8/8) Accurately ripped
7 | (8/8) Accurately ripped
8 | (7/8) Accurately ripped
9 | (7/8) Accurately ripped
10 | (8/8) Accurately ripped
[AccurateRip ID: 0010b19e-008770ab-950a8c0a] found.
Track [ CRC | V2 ] Status
01 [5f276c5a|6aa88d32] (00+02/10) Accurately ripped
02 [5f4e3c65|f0dc1ca5] (00+02/10) Accurately ripped
03 [2c14c24b|9d2c756f] (00+02/10) Accurately ripped
04 [6aa37a5e|3ccbb6bf] (00+02/10) Accurately ripped
05 [26404020|2a2c9935] (00+02/10) Accurately ripped
06 [d3f0cfc9|2d045744] (00+02/10) Accurately ripped
07 [f142540a|7fabfcda] (00+02/10) Accurately ripped
08 [a3e81f04|93575825] (00+02/10) Accurately ripped
09 [7409ae2d|327f3925] (00+02/10) Accurately ripped
10 [7ac690a3|7ffb253a] (00+02/10) Accurately ripped
Offsetted by -811:
01 [a377048b] (00/10) No match (V2 was not tested)
02 [cc70f94b] (00/10) No match (V2 was not tested)
03 [45603c56] (02/10) Accurately ripped
04 [a75637c6] (00/10) No match (V2 was not tested)
05 [876edfe1] (00/10) No match (V2 was not tested)
06 [e872734f] (02/10) Accurately ripped
07 [a414d291] (02/10) Accurately ripped
08 [78643dfa] (00/10) No match (V2 was not tested)
09 [b7b06c35] (00/10) No match (V2 was not tested)
10 [03dd2905] (02/10) Accurately ripped
Offsetted by -5:
01 [ce7d399b] (00/10) No match (V2 was not tested)
02 [dde7b198] (00/10) No match (V2 was not tested)
03 [9d9ef0e1] (00/10) No match (V2 was not tested)
04 [2818c6ee] (00/10) No match (V2 was not tested)
05 [e4173bb2] (00/10) No match (V2 was not tested)
06 [173d0f10] (00/10) No match (V2 was not tested)
07 [ff93526b] (00/10) No match (V2 was not tested)
08 [91534bfd] (00/10) No match (V2 was not tested)
09 [87fc4df7] (00/10) No match (V2 was not tested)
10 [367f3b98] (00/10) No match (V2 was not tested)
Offsetted by 659:
01 [551bf272] (00/10) No match (V2 was not tested)
02 [55482a33] (00/10) No match (V2 was not tested)
03 [0b6ea1fa] (00/10) No match (V2 was not tested)
04 [944a23e4] (00/10) No match (V2 was not tested)
05 [a53b65b9] (00/10) No match (V2 was not tested)
06 [efb8b141] (00/10) No match (V2 was not tested)
07 [d991bd4c] (00/10) No match (V2 was not tested)
08 [d4bc8163] (00/10) No match (V2 was not tested)
09 [011b4423] (00/10) No match (V2 was not tested)
10 [af39243e] (00/10) No match (V2 was not tested)
Offsetted by 1683:
01 [3f4a7a8c] (00/10) No match (V2 was not tested)
02 [c1782a46] (00/10) No match (V2 was not tested)
03 [9445b840] (00/10) No match (V2 was not tested)
04 [338a7213] (00/10) No match (V2 was not tested)
05 [c6f785e3] (00/10) No match (V2 was not tested)
06 [9ffd8a1b] (00/10) No match (V2 was not tested)
07 [21045294] (00/10) No match (V2 was not tested)
08 [9483a161] (00/10) No match (V2 was not tested)
09 [d5efda34] (00/10) No match (V2 was not tested)
10 [4417934f] (00/10) No match (V2 was not tested)

Track Peak [ CRC32 ] [W/O NULL] [ LOG ]
– 100,0 [412911CD] [34E4D9F0] CRC32
01 69,9 [73372249] [FEF82A4D]
02 100,0 [E8B253B9] [6F528434]
03 72,3 [0A58310C] [0516647A]
04 92,0 [E9A1FE91] [FB90376A]
05 63,5 [D8A1A211] [589F034C]
06 71,0 [64C93901] [5CB23E60]
07 78,8 [E27A095C] [11B510B5]
08 51,6 [B3F7F413] [3FC6F73A]
09 98,5 [D51521A5] [9424BFAE]
10 63,9 [EAA85A7B] [32B31F6D]

Oscar Peterson - A Royal Wedding Suite (1981) {1998, Remastered}


All thanks go to sergych

>>> Oscar Peterson in my Blog <<<

DOWNLOAD: