Subcategories

Oscar Peterson - Fly Me To The Moon (2006) {"Jazzclub | Legends" Series, Remastered} Repost / New Rip

Posted By: popsakov
Oscar Peterson - Fly Me To The Moon (2006) {"Jazzclub | Legends" Series, Remastered} Repost / New Rip

Oscar Peterson - Fly Me To The Moon (2006) {"Jazzclub | Legends" Series, Remastered}
EAC Rip | FLAC (Img) + Cue + Log ~ 385 Mb | MP3 CBR320 ~ 169 Mb
Scans (JPG, 600 dpi) ~ 40 Mb | RAR 5% Recovery
Jazz, Bop, Mainstream Jazz | Verve Records / Universal Music #06024 9875796

A pleasant compilation of Oscar Peterson tracks with Ed Thigpen, Louis Hayes, Bobby Durham, and others sitting in, all anchored by Peterson's classic version of "Fly Me to the Moon," originally written by Bart Howard in 1954.
~ Steve Leggett, All Music

***************

Oscar Peterson - Fly Me To The Moon (2006) {"Jazzclub | Legends" Series, Remastered} Repost / New Rip

Track List:

01. At Long Last Love [0:04:54.15]
02. I Loves You, Porgy [0:06:14.39]
03. Greensleeves [0:04:27.03]
04. Fly Me To The Moon [0:04:39.61]
05. If I Should Lose You [0:05:20.24]
06. I Didn't Know What Time It Was [0:06:36.61]
07. When I Fall in Love [0:05:15.04]
08. A Time for Love [0:05:28.59]
09. Smile [0:03:59.03]
10. Once Upon A Summertime [0:05:18.19]
11. All The Things You Are [0:06:12.50]
12. Someday My Prince Will Come [0:06:12.07]
13. It Never Entered My Mind [0:05:58.23]

Exact Audio Copy V1.2 from 12. August 2016

EAC extraction logfile from 8. October 2016, 2:33

Oscar Peterson / Fly Me To The Moon

Used drive : ATAPI iHAS124 D Adapter: 1 ID: 0

Read mode : Secure
Utilize accurate stream : Yes
Defeat audio cache : Yes
Make use of C2 pointers : No

Read offset correction : 6
Overread into Lead-In and Lead-Out : No
Fill up missing offset samples with silence : Yes
Delete leading and trailing silent blocks : No
Null samples used in CRC calculations : Yes
Used interface : Native Win32 interface for Win NT & 2000

Used output format : User Defined Encoder
Selected bitrate : 1024 kBit/s
Quality : High
Add ID3 tag : No
Command line compressor : C:\Program Files (x86)\Exact Audio Copy\FLAC\FLAC.EXE
Additional command line options : -6 -V -T "ARTIST=%artist%" -T "TITLE=%title%" -T "ALBUM=%albumtitle%" -T "DATE=%year%" -T "TRACKNUMBER=%tracknr%" -T "GENRE=%genre%" -T "COMMENT=%comment%" -T "BAND=%albuminterpret%" -T "ALBUMARTIST=%albuminterpret%" -T "COMPOSER=%composer%" %haslyrics%–tag-from-file=LYRICS="%lyricsfile%"%haslyrics% -T "DISCNUMBER=%cdnumber%" -T "TOTALDISCS=%totalcds%" -T "TOTALTRACKS=%numtracks%" %hascover%–picture="%coverfile%"%hascover% %source% -o %dest%


TOC of the extracted CD

Track | Start | Length | Start sector | End sector
––––––––––––––––––––––––––––-
1 | 0:00.00 | 4:54.15 | 0 | 22064
2 | 4:54.15 | 6:14.39 | 22065 | 50153
3 | 11:08.54 | 4:27.03 | 50154 | 70181
4 | 15:35.57 | 4:39.61 | 70182 | 91167
5 | 20:15.43 | 5:20.24 | 91168 | 115191
6 | 25:35.67 | 6:36.61 | 115192 | 144952
7 | 32:12.53 | 5:15.04 | 144953 | 168581
8 | 37:27.57 | 5:28.59 | 168582 | 193240
9 | 42:56.41 | 3:59.03 | 193241 | 211168
10 | 46:55.44 | 5:18.19 | 211169 | 235037
11 | 52:13.63 | 6:12.50 | 235038 | 262987
12 | 58:26.38 | 6:12.07 | 262988 | 290894
13 | 64:38.45 | 5:58.23 | 290895 | 317767


Range status and errors

Selected range

Filename C:\mm\Oscar Peterson\2006 - Fly Me To The Moon [06024 9875796]\Oscar Peterson - Fly Me To The Moon.wav

Peak level 98.0 %
Extraction speed 3.7 X
Range quality 100.0 %
Test CRC BC256EF2
Copy CRC BC256EF2
Copy OK

No errors occurred


AccurateRip summary

Track 1 accurately ripped (confidence 31) [F5985C7D] (AR v2)
Track 2 accurately ripped (confidence 31) [536AA9AA] (AR v2)
Track 3 accurately ripped (confidence 31) [CA932E0D] (AR v2)
Track 4 accurately ripped (confidence 31) [B65C20DE] (AR v2)
Track 5 accurately ripped (confidence 31) [0BF05AE3] (AR v2)
Track 6 accurately ripped (confidence 31) [DA132ABC] (AR v2)
Track 7 accurately ripped (confidence 31) [1A23CB4D] (AR v2)
Track 8 accurately ripped (confidence 31) [F3B86D36] (AR v2)
Track 9 accurately ripped (confidence 31) [53A61DE6] (AR v2)
Track 10 accurately ripped (confidence 31) [17219791] (AR v2)
Track 11 accurately ripped (confidence 31) [F2C7FB7E] (AR v2)
Track 12 accurately ripped (confidence 31) [08F90732] (AR v2)
Track 13 accurately ripped (confidence 31) [2C22C236] (AR v2)

All tracks accurately ripped

End of status report

–– CUETools DB Plugin V2.1.6

[CTDB TOCID: Z6jqVB90H85N5La6LaCESh2dDHk-] found
Submit result: Z6jqVB90H85N5La6LaCESh2dDHk- has been confirmed
Track | CTDB Status
1 | (42/43) Accurately ripped
2 | (42/43) Accurately ripped
3 | (42/43) Accurately ripped
4 | (42/43) Accurately ripped
5 | (42/43) Accurately ripped
6 | (42/43) Accurately ripped
7 | (42/43) Accurately ripped
8 | (42/43) Accurately ripped
9 | (42/43) Accurately ripped
10 | (42/43) Accurately ripped
11 | (42/43) Accurately ripped
12 | (41/43) Accurately ripped, or (1/43) differs in 4526 samples @05:23:15-05:23:16,05:23:36,05:23:56-05:23:57,05:24:02-05:24:03,05:24:23-05:24:24,05:24:44,05:24:65-05:24:66,05:25:11,05:25:32,05:25:52-05:25:53,05:25:73-05:25:74,05:26:19-05:26:20,05:26:40,05:26:61-05:26:62,05:27:07,05:27:27-05:27:28,05:27:48-05:27:49,05:27:69-05:27:70,05:28:15-05:28:16,05:28:36-05:28:37,05:28:57,05:29:03-05:29:04,05:29:23-05:29:24,05:29:44-05:29:45,05:29:65-05:29:66,05:30:11-05:30:12,05:30:32-05:30:33,05:30:53,05:30:74,05:31:19-05:31:20,05:31:40-05:31:41,05:31:61-05:31:62,05:32:07-05:32:08,05:32:49,05:32:70,05:33:16,05:33:36-05:33:37,05:33:57-05:33:58,05:34:03-05:34:04,05:34:24-05:34:25,05:34:45-05:34:46,05:34:66,05:35:12,05:35:32-05:35:33,05:35:53-05:35:54,05:35:74-05:36:00,05:36:20-05:36:21,05:36:41-05:36:42,05:36:62-05:36:63,05:37:08,05:37:29,05:37:49-05:37:50,05:37:70-05:37:71,05:38:16-05:38:17,05:38:37-05:38:38,05:38:58-05:38:59,05:39:04-05:39:05,05:39:25-05:39:26,05:39:46-05:39:47,05:39:66-05:39:67,05:40:12-05:40:13,05:40:33-05:40:34,05:40:54-05:40:55,05:41:00-05:41:01,05:41:21-05:41:22,05:41:42,05:41:63,05:42:08-05:42:09,05:42:29-05:42:30,05:42:50-05:42:51,05:42:71-05:42:72,05:43:17-05:43:18,05:43:38-05:43:39,05:43:59-05:43:60,05:44:05,05:44:26,05:44:46-05:44:47,05:44:67-05:44:68,05:45:13-05:45:14,05:45:34-05:45:35,05:45:55,05:46:01-05:46:02,05:46:22,05:46:64,05:47:10,05:47:30-05:47:31,05:47:51,05:48:60
13 | (42/43) Accurately ripped

foobar2000 1.2.6 / Dynamic Range Meter 1.1.1
log date: 2016-10-10 08:31:05

––––––––––––––––––––––––––––––––––––––––
Analyzed: Oscar Peterson / Fly Me To The Moon
––––––––––––––––––––––––––––––––––––––––

DR Peak RMS Duration Track
––––––––––––––––––––––––––––––––––––––––
DR10 -0.17 dB -13.05 dB 4:54 01-At Long Last Love
DR12 -0.48 dB -15.22 dB 6:15 02-I Loves You, Porgy
DR11 -0.29 dB -15.16 dB 4:27 03-Greensleeves
DR9 -0.24 dB -12.59 dB 4:40 04-Fly Me To The Moon
DR10 -2.09 dB -16.67 dB 5:20 05-If I Should Lose You
DR13 -0.30 dB -16.74 dB 6:37 06-I Didn't Know What Time It Was
DR11 -0.29 dB -15.04 dB 5:15 07-When I Fall in Love
DR11 -0.29 dB -14.42 dB 5:29 08-A Time for Love
DR11 -0.27 dB -14.50 dB 3:59 09-Smile
DR13 -0.28 dB -16.96 dB 5:18 10-Once Upon A Summertime
DR10 -0.77 dB -14.00 dB 6:13 11-All The Things You Are
DR10 -0.28 dB -12.91 dB 6:12 12-Someday My Prince Will Come
DR12 -0.48 dB -17.35 dB 5:58 13-It Never Entered My Mind
––––––––––––––––––––––––––––––––––––––––

Number of tracks: 13
Official DR value: DR11

Samplerate: 44100 Hz
Channels: 2
Bits per sample: 16
Bitrate: 726 kbps
Codec: FLAC
================================================================================

[CUETools log; Date: 10.10.2016 8:31:11; Version: 2.1.5]
[CTDB TOCID: Z6jqVB90H85N5La6LaCESh2dDHk-] found.
Track | CTDB Status
1 | (43/44) Accurately ripped
2 | (43/44) Accurately ripped
3 | (43/44) Accurately ripped
4 | (43/44) Accurately ripped
5 | (43/44) Accurately ripped
6 | (43/44) Accurately ripped
7 | (43/44) Accurately ripped
8 | (43/44) Accurately ripped
9 | (43/44) Accurately ripped
10 | (43/44) Accurately ripped
11 | (43/44) Accurately ripped
12 | (42/44) Accurately ripped, or (1/44) differs in 4526 samples @05:23:15-05:23:16,05:23:36,05:23:56-05:23:57,05:24:02-05:24:03,05:24:23-05:24:24,05:24:44,05:24:65-05:24:66,05:25:11,05:25:32,05:25:52-05:25:53,05:25:73-05:25:74,05:26:19-05:26:20,05:26:40,05:26:61-05:26:62,05:27:07,05:27:27-05:27:28,05:27:48-05:27:49,05:27:69-05:27:70,05:28:15-05:28:16,05:28:36-05:28:37,05:28:57,05:29:03-05:29:04,05:29:23-05:29:24,05:29:44-05:29:45,05:29:65-05:29:66,05:30:11-05:30:12,05:30:32-05:30:33,05:30:53,05:30:74,05:31:19-05:31:20,05:31:40-05:31:41,05:31:61-05:31:62,05:32:07-05:32:08,05:32:49,05:32:70,05:33:16,05:33:36-05:33:37,05:33:57-05:33:58,05:34:03-05:34:04,05:34:24-05:34:25,05:34:45-05:34:46,05:34:66,05:35:12,05:35:32-05:35:33,05:35:53-05:35:54,05:35:74-05:36:00,05:36:20-05:36:21,05:36:41-05:36:42,05:36:62-05:36:63,05:37:08,05:37:29,05:37:49-05:37:50,05:37:70-05:37:71,05:38:16-05:38:17,05:38:37-05:38:38,05:38:58-05:38:59,05:39:04-05:39:05,05:39:25-05:39:26,05:39:46-05:39:47,05:39:66-05:39:67,05:40:12-05:40:13,05:40:33-05:40:34,05:40:54-05:40:55,05:41:00-05:41:01,05:41:21-05:41:22,05:41:42,05:41:63,05:42:08-05:42:09,05:42:29-05:42:30,05:42:50-05:42:51,05:42:71-05:42:72,05:43:17-05:43:18,05:43:38-05:43:39,05:43:59-05:43:60,05:44:05,05:44:26,05:44:46-05:44:47,05:44:67-05:44:68,05:45:13-05:45:14,05:45:34-05:45:35,05:45:55,05:46:01-05:46:02,05:46:22,05:46:64,05:47:10,05:47:30-05:47:31,05:47:51,05:48:60
13 | (43/44) Accurately ripped
[AccurateRip ID: 002129d3-014cc420-c7108c0d] found.
Track [ CRC | V2 ] Status
01 [1f9a7512|f5985c7d] (25+31/63) Accurately ripped
02 [45969633|536aa9aa] (25+31/63) Accurately ripped
03 [5725ac0f|ca932e0d] (25+31/63) Accurately ripped
04 [d7d53f07|b65c20de] (24+31/62) Accurately ripped
05 [69233b4a|0bf05ae3] (25+31/63) Accurately ripped
06 [349fc94a|da132abc] (25+31/63) Accurately ripped
07 [96369997|1a23cb4d] (25+31/63) Accurately ripped
08 [255032f9|f3b86d36] (25+31/63) Accurately ripped
09 [6174d55e|53a61de6] (25+31/63) Accurately ripped
10 [f4c83b54|17219791] (25+31/63) Accurately ripped
11 [67b5a01f|f2c7fb7e] (25+31/63) Accurately ripped
12 [c3b94151|08f90732] (25+31/63) Accurately ripped
13 [0e988b45|2c22c236] (25+31/63) Accurately ripped
Offsetted by -646:
01 [b490421b] (02/63) Accurately ripped
02 [5ffef3fb] (02/63) Accurately ripped
03 [91498861] (02/63) Accurately ripped
04 [4cf24747] (02/62) Accurately ripped
05 [e296cb84] (02/63) Accurately ripped
06 [74c54566] (02/63) Accurately ripped
07 [7ec78db5] (02/63) Accurately ripped
08 [05bb446b] (02/63) Accurately ripped
09 [cf4a0e38] (02/63) Accurately ripped
10 [1f04fde0] (02/63) Accurately ripped
11 [946dc591] (02/63) Accurately ripped
12 [b6715da3] (02/63) Accurately ripped
13 [5ea85689] (02/63) Accurately ripped

Track Peak [ CRC32 ] [W/O NULL] [ LOG ]
– 98,0 [BC256EF2] [DF9910E1] CRC32
01 98,0 [8BB63107] [B7BDB873]
02 94,6 [64222523] [FA2AD79C]
03 96,6 [77D77CB8] [A8D250FF]
04 97,3 [EB31607B] [093D19B1]
05 78,6 [7AF357A6] [C04AFCD9]
06 96,6 [40D86171] [87FB0D88]
07 96,7 [05675703] [A0D79239]
08 96,7 [EF5CA0CC] [4B25C404]
09 96,9 [1E50C907] [CE47CE55]
10 96,8 [13AB076C] [E27E22E0]
11 91,4 [46C71C9B] [A51C6551]
12 96,8 [A44D63A8] [740F2C5E]
13 94,6 [83AFDE6D] [CC190680]

Oscar Peterson - Fly Me To The Moon (2006) {"Jazzclub | Legends" Series, Remastered} Repost / New Rip

Oscar Peterson - Fly Me To The Moon (2006) {"Jazzclub | Legends" Series, Remastered} Repost / New Rip



All thanks go to sergych

> Visit my blog <

Download: