Tags
Language
Tags

Oscar Peterson - Blues Etude (1966) [Reissue 1990] (Repost)

Posted By: gribovar
Oscar Peterson - Blues Etude (1966) [Reissue 1990] (Repost)

Oscar Peterson - Blues Etude (1966) [Reissue 1990]
EAC Rip | FLAC (tracks+.cue+log) - 236 MB | MP3 CBR 320 kbps (LAME 3.93) - 100 MB | Covers - 33 MB
Genre: Jazz | RAR 3% Rec. | Label: PolyGram/Limelight (818 844-2)

This LP finds pianist Oscar Peterson at a transitional point in his career. Louis Hayes was the new drummer in his trio and, although veteran Ray Brown was on bass during the earlier of the two sessions, he would depart by 1966 (after 15 years) and be replaced by Sam Jones. However, the basic sound of the Oscar Peterson Trio remained unchanged (Peterson was the dominant voice anyway) and the personality of the group remained intact. Peterson contributed three originals (including the hard-swinging title cut) to this program and also sounds typically fine on "Let's Fall in Love," "The Shadow of Your Smile," "If I Were a Bell," and a definitive version of "Stella by Starlight."
Tracklist:
01. Blues Etude
02. Shelley's World
03. Let's Fall in Love
04. The Shadow of Your Smile
05. If I Were a Bell
06. Stella by Starlight
07. Bossa Beguine
08. L'Impossible
09. I Know Oh So Well

Total time: 42:40

Exact Audio Copy V0.99 prebeta 5 from 4. May 2009

EAC extraction logfile from 7. July 2011, 17:44

Oscar Peterson / Blues Etude

Used drive : ASUS DRW-1608P2S Adapter: 1 ID: 0

Read mode : Secure
Utilize accurate stream : Yes
Defeat audio cache : Yes
Make use of C2 pointers : No

Read offset correction : 48
Overread into Lead-In and Lead-Out : No
Fill up missing offset samples with silence : Yes
Delete leading and trailing silent blocks : No
Null samples used in CRC calculations : Yes
Used interface : Native Win32 interface for Win NT & 2000
Gap handling : Appended to previous track

Used output format : User Defined Encoder
Selected bitrate : 1024 kBit/s
Quality : High
Add ID3 tag : No
Command line compressor : C:\Program Files\Exact Audio Copy\Flac\flac.exe
Additional command line options : -8 -V -T "ARTIST=%a" -T "TITLE=%t" -T "ALBUM=%g" -T "DATE=%y" -T "TRACKNUMBER=%n" -T "GENRE=%m" -T "COMMENT=EAC FLAC -8" %s


TOC of the extracted CD

Track | Start | Length | Start sector | End sector
––––––––––––––––––––––––––––-
1 | 0:00.32 | 5:21.70 | 32 | 24176
2 | 5:22.27 | 5:19.45 | 24177 | 48146
3 | 10:41.72 | 3:52.23 | 48147 | 65569
4 | 14:34.20 | 5:03.72 | 65570 | 88366
5 | 19:38.17 | 5:08.63 | 88367 | 111529
6 | 24:47.05 | 4:42.45 | 111530 | 132724
7 | 29:29.50 | 3:57.27 | 132725 | 150526
8 | 33:27.02 | 5:23.35 | 150527 | 174786
9 | 38:50.37 | 3:49.65 | 174787 | 192026


Track 1

Filename D:\Раздачи\1990. Oscar Peterson - Blues Etude (1966)\01. Blues Etude.wav

Pre-gap length 0:00:02.42

Peak level 100.0 %
Track quality 100.0 %
Test CRC 3E9BA78C
Copy CRC 3E9BA78C
Accurately ripped (confidence 2) [D623A5D8]
Copy OK

Track 2

Filename D:\Раздачи\1990. Oscar Peterson - Blues Etude (1966)\02. Shelley's World.wav

Pre-gap length 0:00:02.93

Peak level 72.5 %
Track quality 100.0 %
Test CRC D82E7592
Copy CRC D82E7592
Track not present in AccurateRip database
Copy OK

Track 3

Filename D:\Раздачи\1990. Oscar Peterson - Blues Etude (1966)\03. Let's Fall In Love.wav

Pre-gap length 0:00:02.73

Peak level 89.4 %
Track quality 100.0 %
Test CRC 2CEC1BBF
Copy CRC 2CEC1BBF
Track not present in AccurateRip database
Copy OK

Track 4

Filename D:\Раздачи\1990. Oscar Peterson - Blues Etude (1966)\04. The Shadow Of Your Smile.wav

Pre-gap length 0:00:03.24

Peak level 79.9 %
Track quality 100.0 %
Test CRC 04ECD161
Copy CRC 04ECD161
Track not present in AccurateRip database
Copy OK

Track 5

Filename D:\Раздачи\1990. Oscar Peterson - Blues Etude (1966)\05. If I Were a Bell.wav

Pre-gap length 0:00:03.29

Peak level 85.3 %
Track quality 100.0 %
Test CRC AEF06959
Copy CRC AEF06959
Track not present in AccurateRip database
Copy OK

Track 6

Filename D:\Раздачи\1990. Oscar Peterson - Blues Etude (1966)\06. Stella By Starlight.wav

Pre-gap length 0:00:03.73

Peak level 83.0 %
Track quality 99.9 %
Test CRC DAAAFA97
Copy CRC DAAAFA97
Accurately ripped (confidence 2) [C9837429]
Copy OK

Track 7

Filename D:\Раздачи\1990. Oscar Peterson - Blues Etude (1966)\07. Bossa Beguine.wav

Pre-gap length 0:00:03.50

Peak level 79.7 %
Track quality 100.0 %
Test CRC 4AFDFC8F
Copy CRC 4AFDFC8F
Track not present in AccurateRip database
Copy OK

Track 8

Filename D:\Раздачи\1990. Oscar Peterson - Blues Etude (1966)\08. L'Impossible.wav

Pre-gap length 0:00:03.40

Peak level 68.6 %
Track quality 100.0 %
Test CRC CA5BFEB3
Copy CRC CA5BFEB3
Track not present in AccurateRip database
Copy OK

Track 9

Filename D:\Раздачи\1990. Oscar Peterson - Blues Etude (1966)\09. I Know You Oh So Well.wav

Pre-gap length 0:00:03.06

Peak level 75.9 %
Track quality 100.0 %
Test CRC 4C7E95CA
Copy CRC 4C7E95CA
Track not present in AccurateRip database
Copy OK


2 track(s) accurately ripped
7 track(s) not present in the AccurateRip database

Some tracks could not be verified as accurate

No errors occurred

End of status report

[CUETools log; Date: 12.02.2019 15:33:25; Version: 2.1.4]
Pregap length 00:00:32.
[CTDB TOCID: 2BgUlRLWt54Pu2cMbT3Sszg5Lak-] found.
Track | CTDB Status
1 | (12/12) Accurately ripped
2 | (12/12) Accurately ripped
3 | (12/12) Accurately ripped
4 | (12/12) Accurately ripped
5 | (12/12) Accurately ripped
6 | (12/12) Accurately ripped
7 | (12/12) Accurately ripped
8 | (12/12) Accurately ripped
9 | (12/12) Accurately ripped
[AccurateRip ID: 000f12f1-006dc0be-720a0009] found.
Track [ CRC | V2 ] Status
01 [d623a5d8|52ffc6ea] (04+03/15) Accurately ripped
02 [708a899e|56e3f74b] (03+03/13) Accurately ripped
03 [adb375eb|dde90bd0] (03+03/14) Accurately ripped
04 [c0dafa47|1cccfa52] (03+03/14) Accurately ripped
05 [e444fd83|024ddda8] (03+03/14) Accurately ripped
06 [c9837429|e790dfe0] (04+03/15) Accurately ripped
07 [7285cb00|78e76ae3] (03+03/14) Accurately ripped
08 [bdabf67d|56540bfb] (03+03/14) Accurately ripped
09 [8ce89e77|693f5ea5] (03+03/13) Accurately ripped
Offsetted by -2016:
01 [1f2589be] (00/15) No match (V2 was not tested)
02 [111a8cfe] (00/13) No match (V2 was not tested)
03 [f20f822b] (00/14) No match (V2 was not tested)
04 [a82ba0c7] (00/14) No match (V2 was not tested)
05 [51117aa3] (00/14) No match (V2 was not tested)
06 [f4b43529] (00/15) No match (V2 was not tested)
07 [2cac9780] (00/14) No match (V2 was not tested)
08 [9c5b3d5d] (00/14) No match (V2 was not tested)
09 [4807cd50] (00/13) No match (V2 was not tested)

Track Peak [ CRC32 ] [W/O NULL] [ LOG ]
– 100,0 [6FFF555D] [0ED5B0EA]
01 100,0 [3E9BA78C] [F744EA89] CRC32
02 72,5 [D82E7592] [F6B15DAD] CRC32
03 89,4 [2CEC1BBF] [B492C953] CRC32
04 79,9 [04ECD161] [5FC5693B] CRC32
05 85,3 [AEF06959] [197A9922] CRC32
06 83,0 [DAAAFA97] [43F6582E] CRC32
07 79,7 [4AFDFC8F] [C06B49D5] CRC32
08 68,6 [CA5BFEB3] [489AD6CC] CRC32
09 75,9 [4C7E95CA] [2C632A60] CRC32

Thanks to rusfed96

See also: