Tags
Language
Tags

Oscar Peterson - Girl Talk (1968)

Posted By: gribovar
Oscar Peterson - Girl Talk (1968)

Oscar Peterson - Girl Talk (1968)
EAC Rip | FLAC (tracks+.cue+log) - 208 MB | Covers (6 MB) included
Genre: Jazz, Piano Jazz | RAR 3% Rec. | Label: MPS (821 842-2)

One of a number of memorable albums recorded by Oscar Peterson for MPS during the mid-'60s, Girl Talk was compiled from several live studio sessions taped between 1964 and 1966, with bassist Sam Jones and either Bobby Durham or Louis Hayes on drums. Peterson's romping right hand helps this normally bland show tune. The pianist's imaginative unaccompanied introduction to "I'm in the Mood for Love" adds a new dimension to this old chestnut, with the rhythm section making a belated entrance; it is rather unusual to hear the trio play on just one song for 17 minutes. The title track, an overlooked gem jointly written by Bobby Troup and Neal Hefti, finds the leader in a bluesy mood. The relaxed but jaunty treatment of "Robbin's Nest" follows a powerful medley of "I Concentrate on You" and "Moon River" to wrap up this highly recommended session.
Tracklist:
01. On A Clear Day You Can See Forever
02. I'm In The Mood For Love
03. Girl Talk
04. I Concentrate On You / Moon River
05. Robbin's Nest

Total time: 40:01

Exact Audio Copy V1.0 beta 1 from 15. November 2010

EAC extraction logfile from 14. February 2013, 16:07

Oscar Peterson / Girl Talk

Used drive : Optiarc DVD RW AD-7200A Adapter: 0 ID: 0

Read mode : Secure
Utilize accurate stream : Yes
Defeat audio cache : Yes
Make use of C2 pointers : No

Read offset correction : 48
Overread into Lead-In and Lead-Out : No
Fill up missing offset samples with silence : Yes
Delete leading and trailing silent blocks : No
Null samples used in CRC calculations : Yes
Used interface : Native Win32 interface for Win NT & 2000
Gap handling : Appended to previous track

Used output format : User Defined Encoder
Selected bitrate : 768 kBit/s
Quality : High
Add ID3 tag : No
Command line compressor : C:\Program Files\Exact Audio Copy\Flac\flac.exe
Additional command line options : -8 -V -T "ARTIST=%a" -T "TITLE=%t" -T "ALBUM=%g" -T "DATE=%y" -T "TRACKNUMBER=%n" -T "TOTALTRACKS=%x" -T "GENRE=%m" -T "ALBUMARTIST=%v" -T "ALBUM ARTIST=%v" -T "COMMENT=EAC Secure Mode, Test & Copy, AccurateRip, FLAC -8" %s


TOC of the extracted CD

Track | Start | Length | Start sector | End sector
––––––––––––––––––––––––––––-
1 | 0:00.33 | 4:25.00 | 33 | 19907
2 | 4:25.33 | 17:12.00 | 19908 | 97307
3 | 21:37.33 | 5:37.00 | 97308 | 122582
4 | 27:14.33 | 6:28.00 | 122583 | 151682
5 | 33:42.33 | 6:18.50 | 151683 | 180082


Track 1

Filename D:\Oscar Peterson - Exclusively for My Friends ~ Girl Talk (1968) [FLAC]\01 - On A Clear Day You Can See Forever.wav

Pre-gap length 0:00:02.44

Peak level 97.7 %
Extraction speed 2.1 X
Track quality 99.9 %
Test CRC 7CA36467
Copy CRC 7CA36467
Accurately ripped (confidence 3) [09CE27DC]
Copy OK

Track 2

Filename D:\Oscar Peterson - Exclusively for My Friends ~ Girl Talk (1968) [FLAC]\02 - I'm In The Mood For Love.wav

Pre-gap length 0:00:03.00

Peak level 89.8 %
Extraction speed 3.3 X
Track quality 100.0 %
Test CRC 80CD433C
Copy CRC 80CD433C
Accurately ripped (confidence 3) [104F0C49]
Copy OK

Track 3

Filename D:\Oscar Peterson - Exclusively for My Friends ~ Girl Talk (1968) [FLAC]\03 - Girl Talk.wav

Pre-gap length 0:00:01.00

Peak level 90.5 %
Extraction speed 3.6 X
Track quality 100.0 %
Test CRC BFEE4B8C
Copy CRC BFEE4B8C
Accurately ripped (confidence 3) [51220227]
Copy OK

Track 4

Filename D:\Oscar Peterson - Exclusively for My Friends ~ Girl Talk (1968) [FLAC]\04 - I Concentrate On You , Moon River.wav

Pre-gap length 0:00:01.33

Peak level 80.8 %
Extraction speed 3.9 X
Track quality 100.0 %
Test CRC C53955B9
Copy CRC C53955B9
Accurately ripped (confidence 3) [5D02E92E]
Copy OK

Track 5

Filename D:\Oscar Peterson - Exclusively for My Friends ~ Girl Talk (1968) [FLAC]\05 - Robbin's Nest.wav

Pre-gap length 0:00:01.84

Peak level 97.7 %
Extraction speed 4.2 X
Track quality 100.0 %
Test CRC DE73322D
Copy CRC DE73322D
Accurately ripped (confidence 3) [C974F032]
Copy OK


All tracks accurately ripped

No errors occurred

End of status report

==== Log checksum A33A8DAD85717D20A6930AFAE0CCC888278772221CC4B87A19C6E73F4BB5641C ====

[CUETools log; Date: 09.05.2019 22:48:42; Version: 2.1.4]
Pregap length 00:00:33.
[CTDB TOCID: davZZteWainQWrmW3OPXYdMypyA-] found.
Track | CTDB Status
1 | (26/26) Accurately ripped
2 | (26/26) Accurately ripped
3 | (25/26) Accurately ripped
4 | (23/26) Accurately ripped, or (1/26) differs in 177 samples @03:03:65-03:03:66
5 | (25/26) Accurately ripped
[AccurateRip ID: 0008b8ce-00289a9a-3e096105] found.
Track [ CRC | V2 ] Status
01 [09ce27dc|9b72de07] (03+14/17) Accurately ripped
02 [104f0c49|1e3b4fdb] (03+14/17) Accurately ripped
03 [51220227|16cd6e8d] (03+14/17) Accurately ripped
04 [5d02e92e|32e4283a] (03+14/17) Accurately ripped
05 [c974f032|d6945395] (03+13/16) Accurately ripped

Track Peak [ CRC32 ] [W/O NULL] [ LOG ]
– 97,7 [8304AFB9] [0B8C1838]
01 97,7 [7CA36467] [FBDC8C33] CRC32
02 89,8 [80CD433C] [1CAE9400] CRC32
03 90,5 [BFEE4B8C] [B198A207] CRC32
04 80,8 [C53955B9] [9E6D2843] CRC32
05 97,7 [DE73322D] [91AF957D] CRC32

Thanks to jazzluq

See also:

Oscar Peterson - Songbooks Etcetera [10CD Box Set] (2005)
The Oscar Peterson Trio - A Jazz Portrait Of Frank Sinatra (1959)
Oscar Peterson - Plays The Jerome Kern Song Book (1959) [Reissue 2009]
Oscar Peterson - Oscar Peterso...ong Book (1959) [Reissue 1996]
Oscar Peterson Trio - West Side Story (1962) [DCC 24 KT Gold CD, 1994]
Oscar Peterson & Nelson Ri...n Riddle (1963) [Reissue 2009]
Oscar Peterson Trio - Oscar Pe...rk Terry (1964) [Reissue 2007]
Oscar Peterson - Blues Etude (1966) [Reissue 1990]
Oscar Peterson - Motions & Emotions (1969) [Reissue 2005]
Oscar Peterson & Dizzy Gil...illespie (1975) [Reissue 1987]
Ella Fitzgerald & Oscar Pe...nd Oscar (1976) [Reissue 2001]
Oscar Peterson & Count Bas...0;.Again (1978) [Reissue 2006]
Oscar Peterson - Digital At Montreux (1980)
Milt Jackson & Oscar Peter... Us Left (1981) [Reissue 2006]
Oscar Peterson + Stephane Grappelli - Skol (1982) [Reissue 1990]
Clark Terry, Freddie Hubbard, ...n - The Alternate Blues (1982)
Oscar Peterson - The Silver Collection [Recorded 1959-1963] (1984)
The Oscar Peterson Trio - Live And At Its Best (1990)
Oscar Peterson Trio - The Osca...Zardi's [Recorded 1955] (1994)
Oscar Peterson Trio with Ray Brown & Ed Thigpen - 1959 (1994)
Oscar Peterson - Oscar Peterso...(Verve Jazz Masters 37) (1994)
Oscar Peterson - 1945-1947 (1999)
Lionel Hampton With Oscar Peterson - Verve Jazz Masters 26 (1994)
Oscar Peterson, Ray Brown, Mil...: Live at the Blue Note (1999)
Oscar Peterson Trio - Complete...sions with Lester Young (2001)
Oscar Peterson - Stephane Grap...ol. 1-2 [Recorded 1973] (2001)
Oscar Peterson - Oscar's Ballads [Recorded 1990-2000] (2001)
Oscar Peterson - A Jazz Odyssey [Recorded 1950-1970] (2002)
Oscar Peterson - Ballads, Blue...1968-1971, 3CD Box Set] (2008)