Tags
Language
Tags

Oscar Peterson - Oscar Peterson Plays The George Gershwin Song Book (1959) [Reissue 1996] (Repost)

Posted By: gribovar
Oscar Peterson - Oscar Peterson Plays The George Gershwin Song Book (1959) [Reissue 1996] (Repost)

Oscar Peterson - Oscar Peterson Plays The George Gershwin Song Book (1959) [Reissue 1996]
EAC Rip | FLAC (tracks+.cue+log) - 310 MB | MP3 CBR 320 kbps (LAME 3.93) - 169 MB | Covers - 22 MB
Genre: Jazz | RAR 3% Rec. | Label: Verve Records (529 698-2)

In what was a giant undertaking (even for producer Norman Granz), pianist Oscar Peterson recorded ten Songbook albums during 1952-1954 and when his trio changed, nine more in 1959. Both of his George Gershwin projects (one from 1952 and the other from 1959) have been reissued in full on this single CD. The earlier date matches the brilliant Peterson with guitarist Barney Kessel and bassist Ray Brown, while the 1959 session has Brown and drummer Ed Thigpen. The Songbook series found Peterson playing concise (around three-minute) versions of tunes, and he always kept the melody in the forefront. The results are not innovative or unique, but they are tasteful and reasonably enjoyable. Since five of the songs are played by both groups, a comparison between the two units is interesting.
Tracklist:
01. It Ain't Necessarily So
02. The Man I Love
03. Love Walked In
04. I Was Doing All Right
05. A Foggy Day
06. Oh, Lady, Be Good!
07. Love Is Here To Stay
08. They All Laughed
09. Let's Call The Whole Thing Off
10. Summertime
11. Nice Work If You Can Get It
12. Shall We Dance?

13. The Man I Love
14. Fascinating Rhythm
15. It Ain't Necessarily So
16. Somebody Loves Me
17. Strike Up The Band
18. I've Got A Crush On You
19. I Was Doing All Right
20. 'S Wonderful
21. Oh, Lady, Be Good!
22. I Got Rhythm
23. A Foggy Day
24. Love Walked In

Total time: 01:11:51

Exact Audio Copy V0.99 prebeta 5 from 4. May 2009

EAC extraction logfile from 28. August 2010, 21:59

Oscar Peterson / The Gershwin Songbooks

Used drive : HL-DT-STDVD-RAM GH40L Adapter: 0 ID: 1

Read mode : Secure
Utilize accurate stream : Yes
Defeat audio cache : Yes
Make use of C2 pointers : No

Read offset correction : 667
Overread into Lead-In and Lead-Out : No
Fill up missing offset samples with silence : Yes
Delete leading and trailing silent blocks : No
Null samples used in CRC calculations : Yes
Used interface : Native Win32 interface for Win NT & 2000
Gap handling : Appended to previous track

Used output format : User Defined Encoder
Selected bitrate : 320 kBit/s
Quality : High
Add ID3 tag : No
Command line compressor : C:\Program Files\FLAC\flac.exe
Additional command line options : -V -8 -T "artist=%a" -T "title=%t" -T "album=%g" -T "date=%y" -T "tracknumber=%n" -T "genre=%m" %s


TOC of the extracted CD

Track | Start | Length | Start sector | End sector
––––––––––––––––––––––––––––-
1 | 0:00.00 | 2:48.67 | 0 | 12666
2 | 2:48.67 | 3:09.10 | 12667 | 26851
3 | 5:58.02 | 2:49.15 | 26852 | 39541
4 | 8:47.17 | 2:50.60 | 39542 | 52351
5 | 11:38.02 | 2:55.28 | 52352 | 65504
6 | 14:33.30 | 3:02.32 | 65505 | 79186
7 | 17:35.62 | 2:59.28 | 79187 | 92639
8 | 20:35.15 | 2:31.52 | 92640 | 104016
9 | 23:06.67 | 2:20.18 | 104017 | 114534
10 | 25:27.10 | 2:58.10 | 114535 | 127894
11 | 28:25.20 | 2:07.67 | 127895 | 137486
12 | 30:33.12 | 2:18.63 | 137487 | 147899
13 | 32:52.00 | 3:34.72 | 147900 | 164021
14 | 36:26.72 | 3:00.70 | 164022 | 177591
15 | 39:27.67 | 3:17.40 | 177592 | 192406
16 | 42:45.32 | 3:25.08 | 192407 | 207789
17 | 46:10.40 | 3:17.72 | 207790 | 222636
18 | 49:28.37 | 2:57.13 | 222637 | 235924
19 | 52:25.50 | 2:45.57 | 235925 | 248356
20 | 55:11.32 | 2:39.23 | 248357 | 260304
21 | 57:50.55 | 3:54.02 | 260305 | 277856
22 | 61:44.57 | 3:19.50 | 277857 | 292831
23 | 65:04.32 | 3:40.55 | 292832 | 309386
24 | 68:45.12 | 3:06.00 | 309387 | 323336


Track 1

Filename G:\FLAC\Oscar Peterson - 1996 - The Gershwin Songbooks\01 - It Ain't Necessarily So.wav

Pre-gap length 0:00:02.00

Peak level 83.8 %
Track quality 100.0 %
Test CRC F2E12D3D
Copy CRC F2E12D3D
Accurately ripped (confidence 2) [FC4213ED]
Copy OK

Track 2

Filename G:\FLAC\Oscar Peterson - 1996 - The Gershwin Songbooks\02 - The Man I Love.wav

Pre-gap length 0:00:03.57

Peak level 99.9 %
Track quality 100.0 %
Test CRC 374AF5FA
Copy CRC 374AF5FA
Accurately ripped (confidence 2) [CC3550FE]
Copy OK

Track 3

Filename G:\FLAC\Oscar Peterson - 1996 - The Gershwin Songbooks\03 - Love Walked In.wav

Pre-gap length 0:00:03.60

Peak level 67.4 %
Track quality 100.0 %
Test CRC 584B8F10
Copy CRC 584B8F10
Accurately ripped (confidence 2) [4B37D1E7]
Copy OK

Track 4

Filename G:\FLAC\Oscar Peterson - 1996 - The Gershwin Songbooks\04 - I Was Doing All Right.wav

Pre-gap length 0:00:03.55

Peak level 71.4 %
Track quality 100.0 %
Test CRC 8968B1D3
Copy CRC 8968B1D3
Accurately ripped (confidence 2) [61D376D7]
Copy OK

Track 5

Filename G:\FLAC\Oscar Peterson - 1996 - The Gershwin Songbooks\05 - A Foggy Day.wav

Pre-gap length 0:00:03.55

Peak level 82.3 %
Track quality 100.0 %
Test CRC 4A0A8216
Copy CRC 4A0A8216
Accurately ripped (confidence 2) [F29BEEF2]
Copy OK

Track 6

Filename G:\FLAC\Oscar Peterson - 1996 - The Gershwin Songbooks\06 - Oh, Lady, Be Good!.wav

Pre-gap length 0:00:03.55

Peak level 98.0 %
Track quality 100.0 %
Test CRC 9E1AB1FB
Copy CRC 9E1AB1FB
Accurately ripped (confidence 2) [0B5F3211]
Copy OK

Track 7

Filename G:\FLAC\Oscar Peterson - 1996 - The Gershwin Songbooks\07 - Love is Here to Stay.wav

Pre-gap length 0:00:03.55

Peak level 85.4 %
Track quality 100.0 %
Test CRC 0057B298
Copy CRC 0057B298
Accurately ripped (confidence 2) [E7F80C13]
Copy OK

Track 8

Filename G:\FLAC\Oscar Peterson - 1996 - The Gershwin Songbooks\08 - They All Laughed.wav

Pre-gap length 0:00:03.55

Peak level 72.8 %
Track quality 100.0 %
Test CRC 6A65FC18
Copy CRC 6A65FC18
Accurately ripped (confidence 2) [2FC44293]
Copy OK

Track 9

Filename G:\FLAC\Oscar Peterson - 1996 - The Gershwin Songbooks\09 - Let's Call the Whole Thing Off.wav

Pre-gap length 0:00:03.55

Peak level 67.2 %
Track quality 100.0 %
Test CRC 7DD2331F
Copy CRC 7DD2331F
Accurately ripped (confidence 2) [C92177DF]
Copy OK

Track 10

Filename G:\FLAC\Oscar Peterson - 1996 - The Gershwin Songbooks\10 - Summertime.wav

Pre-gap length 0:00:03.55

Peak level 98.6 %
Track quality 100.0 %
Test CRC 040DBB8F
Copy CRC 040DBB8F
Accurately ripped (confidence 2) [5BBF2988]
Copy OK

Track 11

Filename G:\FLAC\Oscar Peterson - 1996 - The Gershwin Songbooks\11 - Nice Work if You Can Get it.wav

Pre-gap length 0:00:03.55

Peak level 75.4 %
Track quality 100.0 %
Test CRC 6747B562
Copy CRC 6747B562
Accurately ripped (confidence 2) [2FB18F91]
Copy OK

Track 12

Filename G:\FLAC\Oscar Peterson - 1996 - The Gershwin Songbooks\12 - Shall We Dance .wav

Pre-gap length 0:00:03.55

Peak level 93.6 %
Track quality 100.0 %
Test CRC A55D2460
Copy CRC A55D2460
Accurately ripped (confidence 2) [0184415E]
Copy OK

Track 13

Filename G:\FLAC\Oscar Peterson - 1996 - The Gershwin Songbooks\13 - The Man I Love (alt trk).wav

Pre-gap length 0:00:03.43

Peak level 76.1 %
Track quality 100.0 %
Test CRC 9BF76DCD
Copy CRC 9BF76DCD
Accurately ripped (confidence 2) [3729B03C]
Copy OK

Track 14

Filename G:\FLAC\Oscar Peterson - 1996 - The Gershwin Songbooks\14 - Fascinating Rhythm.wav

Pre-gap length 0:00:04.55

Peak level 93.4 %
Track quality 100.0 %
Test CRC 4C001046
Copy CRC 4C001046
Accurately ripped (confidence 2) [D8098DF9]
Copy OK

Track 15

Filename G:\FLAC\Oscar Peterson - 1996 - The Gershwin Songbooks\15 - It Ain't Necessarily So (alt trk).wav

Pre-gap length 0:00:04.55

Peak level 70.9 %
Track quality 100.0 %
Test CRC 8D14BA15
Copy CRC 8D14BA15
Accurately ripped (confidence 2) [21C5BEF2]
Copy OK

Track 16

Filename G:\FLAC\Oscar Peterson - 1996 - The Gershwin Songbooks\16 - Somebody Loves Me.wav

Pre-gap length 0:00:04.55

Peak level 67.9 %
Track quality 100.0 %
Test CRC 533B8338
Copy CRC 533B8338
Accurately ripped (confidence 2) [A64ED99A]
Copy OK

Track 17

Filename G:\FLAC\Oscar Peterson - 1996 - The Gershwin Songbooks\17 - Strike Up the Band.wav

Pre-gap length 0:00:03.17

Peak level 71.6 %
Track quality 100.0 %
Test CRC CC5C4075
Copy CRC CC5C4075
Accurately ripped (confidence 2) [0E550FAC]
Copy OK

Track 18

Filename G:\FLAC\Oscar Peterson - 1996 - The Gershwin Songbooks\18 - I've Got a Crush on You.wav

Pre-gap length 0:00:03.55

Peak level 69.2 %
Track quality 100.0 %
Test CRC 65FBE356
Copy CRC 65FBE356
Accurately ripped (confidence 2) [58A9B818]
Copy OK

Track 19

Filename G:\FLAC\Oscar Peterson - 1996 - The Gershwin Songbooks\19 - I Was Doing All Right.wav

Pre-gap length 0:00:04.55

Peak level 73.1 %
Track quality 100.0 %
Test CRC C204D843
Copy CRC C204D843
Accurately ripped (confidence 2) [4B1704E4]
Copy OK

Track 20

Filename G:\FLAC\Oscar Peterson - 1996 - The Gershwin Songbooks\20 - 'S Wonderful.wav

Pre-gap length 0:00:04.55

Peak level 68.3 %
Track quality 100.0 %
Test CRC 800567DA
Copy CRC 800567DA
Accurately ripped (confidence 2) [B4AEC936]
Copy OK

Track 21

Filename G:\FLAC\Oscar Peterson - 1996 - The Gershwin Songbooks\21 - Oh, Lady, Be Good.wav

Pre-gap length 0:00:02.55

Peak level 72.5 %
Track quality 100.0 %
Test CRC ED9CFF37
Copy CRC ED9CFF37
Accurately ripped (confidence 2) [5BE2FAFB]
Copy OK

Track 22

Filename G:\FLAC\Oscar Peterson - 1996 - The Gershwin Songbooks\22 - I Got Rhythm.wav

Pre-gap length 0:00:04.55

Peak level 61.7 %
Track quality 100.0 %
Test CRC 4AEA2227
Copy CRC 4AEA2227
Accurately ripped (confidence 2) [08B6FE5C]
Copy OK

Track 23

Filename G:\FLAC\Oscar Peterson - 1996 - The Gershwin Songbooks\23 - A Foggy Day.wav

Pre-gap length 0:00:03.55

Peak level 56.3 %
Track quality 100.0 %
Test CRC 15D27747
Copy CRC 15D27747
Accurately ripped (confidence 2) [437D19FD]
Copy OK

Track 24

Filename G:\FLAC\Oscar Peterson - 1996 - The Gershwin Songbooks\24 - Love Walked In.wav

Pre-gap length 0:00:02.55

Peak level 81.9 %
Track quality 99.9 %
Test CRC A71D920A
Copy CRC A71D920A
Accurately ripped (confidence 2) [85CC6138]
Copy OK


All tracks accurately ripped

No errors occurred

End of status report

[CUETools log; Date: 22.01.2018 0:45:28; Version: 2.1.4]
[CTDB TOCID: O8sBDmSbeiB0aJj3vvC8Zf67uI8-] found.
Track | CTDB Status
1 | (21/30) Accurately ripped
2 | (21/30) Accurately ripped
3 | (21/30) Accurately ripped
4 | (21/30) Accurately ripped
5 | (21/30) Accurately ripped
6 | (21/30) Accurately ripped
7 | (21/30) Accurately ripped
8 | (21/30) Accurately ripped
9 | (21/30) Accurately ripped
10 | (21/30) Accurately ripped
11 | (21/30) Accurately ripped
12 | (21/30) Accurately ripped
13 | (21/30) Accurately ripped
14 | (21/30) Accurately ripped
15 | (21/30) Accurately ripped
16 | (21/30) Accurately ripped
17 | (21/30) Accurately ripped
18 | (21/30) Accurately ripped
19 | (21/30) Accurately ripped
20 | (21/30) Accurately ripped
21 | (21/30) Accurately ripped
22 | (21/30) Accurately ripped
23 | (21/30) Accurately ripped
24 | (21/30) Accurately ripped
[AccurateRip ID: 003bb543-040f877d-6b10d718] found.
Track [ CRC | V2 ] Status
01 [fc4213ed|38232323] (05+06/43) Accurately ripped
02 [cc3550fe|4a0c07b9] (05+06/45) Accurately ripped
03 [4b37d1e7|33bc74f0] (05+06/45) Accurately ripped
04 [61d376d7|604cdd75] (05+06/44) Accurately ripped
05 [f29beef2|8395e2b2] (05+06/45) Accurately ripped
06 [0b5f3211|73e62643] (05+06/45) Accurately ripped
07 [e7f80c13|1910a510] (05+06/44) Accurately ripped
08 [2fc44293|1c475967] (05+06/45) Accurately ripped
09 [c92177df|fa6c1e51] (05+06/45) Accurately ripped
10 [5bbf2988|b6603198] (05+06/45) Accurately ripped
11 [2fb18f91|323b5f4a] (05+06/45) Accurately ripped
12 [0184415e|ee916c11] (05+06/45) Accurately ripped
13 [3729b03c|adc0040a] (05+06/46) Accurately ripped
14 [d8098df9|bbf7fdd4] (05+06/45) Accurately ripped
15 [21c5bef2|748dde5e] (05+06/46) Accurately ripped
16 [a64ed99a|2c7ca7b1] (05+06/46) Accurately ripped
17 [0e550fac|bef3307a] (05+06/46) Accurately ripped
18 [58a9b818|aa3efd04] (05+06/46) Accurately ripped
19 [4b1704e4|1a3d5ae5] (05+06/45) Accurately ripped
20 [b4aec936|c0c21bbb] (05+06/46) Accurately ripped
21 [5be2fafb|383e91fa] (05+06/46) Accurately ripped
22 [08b6fe5c|7f8f2636] (05+06/46) Accurately ripped
23 [437d19fd|b81e3d94] (05+06/46) Accurately ripped
24 [85cc6138|19da94b9] (05+06/43) Accurately ripped
Offsetted by -1726:
01 [2c7da3d9] (09/43) Accurately ripped
02 [d1f666d2] (10/45) Accurately ripped
03 [57cd15d7] (10/45) Accurately ripped
04 [fd3fcdcf] (09/44) Accurately ripped
05 [a68deb98] (10/45) Accurately ripped
06 [4c844a0d] (10/45) Accurately ripped
07 [bea18ab9] (10/44) Accurately ripped
08 [740037f5] (10/45) Accurately ripped
09 [5c9c5721] (10/45) Accurately ripped
10 [718f553c] (10/45) Accurately ripped
11 [fd7c8e85] (10/45) Accurately ripped
12 [d53e66b0] (10/45) Accurately ripped
13 [0c9c393c] (10/46) Accurately ripped
14 [bfc3d315] (09/45) Accurately ripped
15 [c9b0dc88] (10/46) Accurately ripped
16 [3de2eaa2] (10/46) Accurately ripped
17 [ded75df2] (10/46) Accurately ripped
18 [2f965d62] (10/46) Accurately ripped
19 [f8b41eb4] (09/45) Accurately ripped
20 [3f5e04c0] (10/46) Accurately ripped
21 [a85eb11b] (10/46) Accurately ripped
22 [db38ca86] (10/46) Accurately ripped
23 [ac044d75] (10/46) Accurately ripped
24 [9c895c4c] (08/43) Accurately ripped
Offsetted by -1614:
01 [d860db79] (05/43) Accurately ripped
02 [5e7e3132] (05/45) Accurately ripped
03 [fdfe2257] (05/45) Accurately ripped
04 [95b8ec0f] (05/44) Accurately ripped
05 [8f9afde8] (05/45) Accurately ripped
06 [e10f152d] (05/45) Accurately ripped
07 [6e8d0d09] (04/44) Accurately ripped
08 [bcfeff65] (05/45) Accurately ripped
09 [aa8ca791] (05/45) Accurately ripped
10 [f38e489c] (05/45) Accurately ripped
11 [5c67f7e5] (05/45) Accurately ripped
12 [d81ddaa0] (05/45) Accurately ripped
13 [5daf313c] (05/46) Accurately ripped
14 [05dd1d35] (05/45) Accurately ripped
15 [7f505358] (05/46) Accurately ripped
16 [5d488c62] (05/46) Accurately ripped
17 [3ec56b42] (05/46) Accurately ripped
18 [a76ce792] (05/46) Accurately ripped
19 [58865434] (05/45) Accurately ripped
20 [206aacf0] (05/46) Accurately ripped
21 [6860281b] (05/46) Accurately ripped
22 [f84735b6] (05/46) Accurately ripped
23 [7c9827b5] (05/46) Accurately ripped
24 [ea438cac] (05/43) Accurately ripped

Track Peak [ CRC32 ] [W/O NULL] [ LOG ]
– 99,9 [580DA2B4] [F8BACA6C]
01 83,8 [F2E12D3D] [55C57C4E] CRC32
02 99,9 [374AF5FA] [4A095F8B] CRC32
03 67,4 [584B8F10] [74B5ADC8] CRC32
04 71,4 [8968B1D3] [9DBB5982] CRC32
05 82,3 [4A0A8216] [693B9C1C] CRC32
06 98,0 [9E1AB1FB] [A1ABA398] CRC32
07 85,4 [0057B298] [BF6AC7DD] CRC32
08 72,8 [6A65FC18] [4C25EA4B] CRC32
09 67,2 [7DD2331F] [24F2AFF7] CRC32
10 98,6 [040DBB8F] [09E1C419] CRC32
11 75,4 [6747B562] [74A8B30F] CRC32
12 93,6 [A55D2460] [4FC04AA4] CRC32
13 76,1 [9BF76DCD] [9DB1912F] CRC32
14 93,4 [4C001046] [38BD7C46] CRC32
15 70,9 [8D14BA15] [800A0F5D] CRC32
16 67,9 [533B8338] [4AA92E26] CRC32
17 71,6 [CC5C4075] [61562DA3] CRC32
18 69,2 [65FBE356] [EBDE3F3C] CRC32
19 73,1 [C204D843] [4ED56A38] CRC32
20 68,3 [800567DA] [E9F4C96E] CRC32
21 72,5 [ED9CFF37] [CDDA9504] CRC32
22 61,7 [4AEA2227] [2B770195] CRC32
23 56,3 [15D27747] [085AD0E3] CRC32
24 81,9 [A71D920A] [F3F6548B] CRC32

Thanks to sixtyninepalms

See also:
Oscar Peterson - Plays The Jerome Kern Song Book (1959) [Reissue 2009]
Oscar Peterson & Nelson Ri...n Riddle (1963) [Reissue 2009]
Oscar Peterson Trio - Oscar Pe...rk Terry (1964) [Reissue 2007]
Oscar Peterson & Count Bas...0;.Again (1978) [Reissue 2006]
Milt Jackson & Oscar Peter... Us Left (1981) [Reissue 2006]