Subcategories

Oscar Peterson - Plays The Jerome Kern Song Book (1959) [Reissue 2009] (Repost)

Posted By: gribovar
Oscar Peterson - Plays The Jerome Kern Song Book (1959) [Reissue 2009] (Repost)

Oscar Peterson - Plays The Jerome Kern Song Book (1959) [Reissue 2009]
EAC Rip | FLAC (tracks+.cue+log) - 191 MB | MP3 CBR 320 kbps (LAME 3.93) - 87 MB | Covers (6 MB) included
Genre: Jazz | RAR 3% Rec. | Label: Verve Records (602517995765)

Jerome Kern's stage tunes - going back to the late '20s with the acclaimed presentation Show Boat - right up to the '40s, will forever be at the core of quintessential American popular songs that hold a dear place in the heart of all straight-ahead jazz performers. Oscar Peterson's immortal trio with bassist Ray Brown and drummer Ed Thigpen play Kern's themes expertly, with no small degree of interpretation, and a clever angle on these well-worn songs that only Peterson can self-identify with his genius mindset. The title should be more accurately "The Jerome Kern & Friends Songbook," as he always co-wrote with such notables as Oscar Hammerstein II, Otto Harbach, Ira Gershwin, and Dorothy Fields, but these are all instrumental versions of his priceless musical scores and are immediately familiar without lyrics. From the actual Show Boat set list, "Ol' Man River" has endured the longest, and here it rumbles with Thigpen's incredible drums, rambles via Peterson, then has the pianist and bassist in cross talk with space. "Can't Help Lovin' Dat Man" is a tender ballad, slowly unfolding as the chiming chords of Peterson's reflect a melodic comparison of "Stairway to the Stars." The third Show Boat revision, "Bill," is so downplayed and minimal that it is reduced to a steamy crawl. Most astute listeners will easily recognize the perky and hopped up "I Won't Dance" due to Thigpen's expert brush work, while Peterson changes up the harmonic insides of the tune and speeds along on a death-defying solo. "The Song Is You" stops and starts fearlessly then jams into fourth gear immediately, "The Way You Look Tonight" is standard, reliable fare remade in Peterson's image with no strain, and his girthy chords block out "A Fine Romance." There's always a regal side to the pianist in his ability to perceptively tone down his wilder notions; the effortless, serene, and supremely confident take of "Long Ago," a British-styled "Lovely to Look at You," and purely tender "Smoke Gets in Your Eyes" act as final answer evidence. Of the many recordings this great jazz trio made, this is one of the top three, and even though it clocks in at under thirty five minutes with no alternate takes. It remains a monument to the Peterson trio's timeless quality, and is a fitting tribute to Jerome Kern's everlasting genius as one of the true great American popular songwriters.
Tracklist:
01. I Won't Dance
02. Bill
03. The Song Is You
04. A Fine Romance
05. Can't Help Lovin' Dat Man
06. Ol' Man River
07. Long Ago (And Far Away)
08. Lovely To Look At You
09. Pick Yourself Up
10. Smoke Gets In Your Eyes
11. The Way You Look Tonight
12. Yesterdays

Total time: 34:33

Exact Audio Copy V0.99 prebeta 5 from 4. May 2009

EAC extraction logfile from 3. December 2009, 17:18

Oscar Peterson / Plays The Jerome Kern Song Book

Used drive : PLEXTOR CD-R PREMIUM2 Adapter: 1 ID: 1

Read mode : Secure
Utilize accurate stream : Yes
Defeat audio cache : Yes
Make use of C2 pointers : No

Read offset correction : 30
Overread into Lead-In and Lead-Out : No
Fill up missing offset samples with silence : Yes
Delete leading and trailing silent blocks : No
Null samples used in CRC calculations : Yes
Used interface : Installed external ASPI interface
Gap handling : Appended to previous track

Used output format : User Defined Encoder
Selected bitrate : 32 kBit/s
Quality : High
Add ID3 tag : No
Command line compressor : C:\Programmi\FLAC\flac.exe
Additional command line options : -8 -V -T "ARTIST=%a" -T "TITLE=%t" -T "ALBUM=%g" -T "DATE=%y" -T "TRACKNUMBER=%n" -T "GENRE=%m" -T "COMMENT=EAC FLAC -8" %s


TOC of the extracted CD

Track | Start | Length | Start sector | End sector
––––––––––––––––––––––––––––-
1 | 0:00.00 | 2:32.43 | 0 | 11442
2 | 2:32.43 | 2:58.22 | 11443 | 24814
3 | 5:30.65 | 3:04.43 | 24815 | 38657
4 | 8:35.33 | 3:09.41 | 38658 | 52873
5 | 11:44.74 | 2:45.60 | 52874 | 65308
6 | 14:30.59 | 2:38.09 | 65309 | 77167
7 | 17:08.68 | 2:35.68 | 77168 | 88860
8 | 19:44.61 | 2:48.14 | 88861 | 101474
9 | 22:33.00 | 2:12.36 | 101475 | 111410
10 | 24:45.36 | 2:49.45 | 111411 | 124130
11 | 27:35.06 | 3:41.00 | 124131 | 140705
12 | 31:16.06 | 3:17.28 | 140706 | 155508


Track 1

Filename D:\My Rip\01 - I Won't Dance.wav

Pre-gap length 0:00:02.00

Peak level 97.8 %
Track quality 100.0 %
Test CRC BB5D40FF
Copy CRC BB5D40FF
Accurately ripped (confidence 2) [A7F9A079]
Copy OK

Track 2

Filename D:\My Rip\02 - Bill.wav

Pre-gap length 0:00:03.64

Peak level 64.2 %
Track quality 99.9 %
Test CRC 2B2F17D3
Copy CRC 2B2F17D3
Accurately ripped (confidence 2) [A04D491C]
Copy OK

Track 3

Filename D:\My Rip\03 - The Song Is You.wav

Pre-gap length 0:00:03.65

Peak level 90.0 %
Track quality 100.0 %
Test CRC 897148B4
Copy CRC 897148B4
Accurately ripped (confidence 2) [D0D5D72A]
Copy OK

Track 4

Filename D:\My Rip\04 - A Fine Romance.wav

Pre-gap length 0:00:03.58

Peak level 96.3 %
Track quality 100.0 %
Test CRC 9CB67764
Copy CRC 9CB67764
Accurately ripped (confidence 2) [E01EFB55]
Copy OK

Track 5

Filename D:\My Rip\05 - Can't Help Lovin' Dat Man.wav

Pre-gap length 0:00:03.58

Peak level 62.2 %
Track quality 100.0 %
Test CRC CAC09C74
Copy CRC CAC09C74
Accurately ripped (confidence 2) [A5A606B9]
Copy OK

Track 6

Filename D:\My Rip\06 - Ol' Man River.wav

Pre-gap length 0:00:03.60

Peak level 98.0 %
Track quality 100.0 %
Test CRC 80133B18
Copy CRC 80133B18
Accurately ripped (confidence 2) [EBAD228C]
Copy OK

Track 7

Filename D:\My Rip\07 - Long Ago (And Far Away).wav

Pre-gap length 0:00:03.56

Peak level 68.6 %
Track quality 100.0 %
Test CRC D0F75901
Copy CRC D0F75901
Accurately ripped (confidence 2) [6EFD760F]
Copy OK

Track 8

Filename D:\My Rip\08 - Lovely To Look At You.wav

Pre-gap length 0:00:03.61

Peak level 94.5 %
Track quality 100.0 %
Test CRC 2CFB9480
Copy CRC 2CFB9480
Accurately ripped (confidence 2) [F33BBBCE]
Copy OK

Track 9

Filename D:\My Rip\09 - Pick Yourself Up.wav

Pre-gap length 0:00:03.49

Peak level 91.5 %
Track quality 99.9 %
Test CRC 847A3913
Copy CRC 847A3913
Accurately ripped (confidence 2) [AA6992AD]
Copy OK

Track 10

Filename D:\My Rip\10 - Smoke Gets In Your Eyes.wav

Pre-gap length 0:00:03.62

Peak level 82.3 %
Track quality 100.0 %
Test CRC DA4F0DF6
Copy CRC DA4F0DF6
Accurately ripped (confidence 2) [2903DCBA]
Copy OK

Track 11

Filename D:\My Rip\11 - The Way You Look Tonight.wav

Pre-gap length 0:00:03.54

Peak level 82.2 %
Track quality 100.0 %
Test CRC 8ECB4027
Copy CRC 8ECB4027
Accurately ripped (confidence 2) [18327932]
Copy OK

Track 12

Filename D:\My Rip\12 - Yesterdays.wav

Pre-gap length 0:00:03.69

Peak level 83.7 %
Track quality 100.0 %
Test CRC BD097B79
Copy CRC BD097B79
Accurately ripped (confidence 2) [BC39654B]
Copy OK


All tracks accurately ripped

No errors occurred

End of status report

[CUETools log; Date: 15.11.2017 15:07:59; Version: 2.1.4]
[CTDB TOCID: 2g2en85hdTVwzW5JNCLdJzQCn9g-] found.
Track | CTDB Status
1 | (37/37) Accurately ripped
2 | (37/37) Accurately ripped
3 | (36/37) Accurately ripped
4 | (37/37) Accurately ripped
5 | (37/37) Accurately ripped
6 | (37/37) Accurately ripped
7 | (37/37) Accurately ripped
8 | (37/37) Accurately ripped
9 | (37/37) Accurately ripped
10 | (37/37) Accurately ripped
11 | (37/37) Accurately ripped
12 | (37/37) Accurately ripped
[AccurateRip ID: 000f2468-008d5457-a008190c] found.
Track [ CRC | V2 ] Status
01 [a7f9a079|b1817513] (18+37/55) Accurately ripped
02 [a04d491c|bd46daff] (19+38/57) Accurately ripped
03 [d0d5d72a|a58ca315] (19+37/56) Accurately ripped
04 [e01efb55|2bdc3377] (19+38/57) Accurately ripped
05 [a5a606b9|9d3c89d8] (19+38/57) Accurately ripped
06 [ebad228c|9d1f8dee] (19+38/57) Accurately ripped
07 [6efd760f|6ee65f2e] (19+38/57) Accurately ripped
08 [f33bbbce|cd7ef9ee] (19+38/57) Accurately ripped
09 [aa6992ad|71724407] (19+38/57) Accurately ripped
10 [2903dcba|edc4c3d4] (19+37/56) Accurately ripped
11 [18327932|a426312c] (19+38/57) Accurately ripped
12 [bc39654b|3a2a051a] (19+38/57) Accurately ripped

Track Peak [ CRC32 ] [W/O NULL] [ LOG ]
– 98,0 [50585CF8] [DF966667]
01 97,8 [BB5D40FF] [2358C610] CRC32
02 64,2 [2B2F17D3] [3BFF43CB] CRC32
03 90,0 [897148B4] [777F6784] CRC32
04 96,3 [9CB67764] [D75BA3B7] CRC32
05 62,2 [CAC09C74] [6628C318] CRC32
06 98,0 [80133B18] [7A62A0C9] CRC32
07 68,6 [D0F75901] [65233490] CRC32
08 94,5 [2CFB9480] [4FB68006] CRC32
09 91,5 [847A3913] [E36023CC] CRC32
10 82,3 [DA4F0DF6] [5804584B] CRC32
11 82,2 [8ECB4027] [9F0988B0] CRC32
12 83,7 [BD097B79] [69741025] CRC32

Thanks to Duckydude

See also:
Oscar Peterson & Nelson Ri...n Riddle (1963) [Reissue 2009]
Oscar Peterson Trio - Oscar Pe...rk Terry (1964) [Reissue 2007]