Subcategories

Oscar Peterson, Ray Brown, Milt Jackson - The Very Tall Band: Live at the Blue Note (1999)

Posted By: gribovar
Oscar Peterson, Ray Brown, Milt Jackson - The Very Tall Band: Live at the Blue Note (1999)

Oscar Peterson, Ray Brown, Milt Jackson - The Very Tall Band: Live at the Blue Note (1999)
EAC Rip | FLAC (image+.cue+log) - 360 MB | MP3 CBR 320 kbps (LAME 3.93) - 168 MB | Covers - 45 MB
Genre: Jazz | RAR 3% Rec. | Label: Telarc (CD-83443)

This is one of the best post-stroke Oscar Peterson sessions in the catalog, thanks in great part to the distinguished company he keeps (Ray Brown and Milt Jackson) and the stimulating atmosphere of the live setting (New York's Blue Note club). Right from the first track, "Ja-Da," you can tell that this is going to be a fun session, as the slippery, swinging, totally interlocked, totally assured way in which these vets react to each other kicks in immediately. Peterson's right hand is fleet, feathery in touch, and bluesy in feel; the left providing just enough punctuation, and at 75, Jackson's bluesy eloquence had not diminished in the least. Ray Brown's time and placement of notes is, as usual, impeccable, and the very talented drummer in his group at the time, Karriem Riggins, provides a swinging kick for the quartet. In the spirit of democracy, each star gets a solo number - Peterson plays his ballad "When Summer Comes," Jackson pours out a doleful "Nature Boy," and Brown's stream-of-consciousness medley eventually attracts the funky brushes of Riggins. But it's always better to hear them together.
Tracklist:
01. Ja-da
02. SKJ
03. I Remember Clifford
04. When Summer Comes
05. Blues for JR
06. Nature Boy
07. Sometimes I'm Happy
08. Bass Solo Medley: Full Moon and Empty Arms, The Very Thought of You, The Work Song
09. Caravan

Total time: 01:11:24

Exact Audio Copy V0.99 prebeta 3 from 28. July 2007

EAC extraction logfile from 1. January 2008, 14:28

Oscar Peterson, Ray Brown, Milt Jackson / The Very Tall Band

Used drive : PLEXTOR CD-R PREMIUM Adapter: 1 ID: 0

Read mode : Secure
Utilize accurate stream : Yes
Defeat audio cache : Yes
Make use of C2 pointers : No

Read offset correction : 30
Overread into Lead-In and Lead-Out : Yes
Fill up missing offset samples with silence : Yes
Delete leading and trailing silent blocks : No
Null samples used in CRC calculations : No
Used interface : Installed external ASPI interface

Used output format : Internal WAV Routines
Sample format : 44.100 Hz; 16 Bit; Stereo


TOC of the extracted CD

Track | Start | Length | Start sector | End sector
––––––––––––––––––––––––––––-
1 | 0:00.00 | 7:29.70 | 0 | 33744
2 | 7:29.70 | 8:17.20 | 33745 | 71039
3 | 15:47.15 | 8:20.72 | 71040 | 108611
4 | 24:08.12 | 4:32.58 | 108612 | 129069
5 | 28:40.70 | 11:04.40 | 129070 | 178909
6 | 39:45.35 | 5:51.15 | 178910 | 205249
7 | 45:36.50 | 8:50.30 | 205250 | 245029
8 | 54:27.05 | 7:43.62 | 245030 | 279816
9 | 62:10.67 | 9:13.10 | 279817 | 321301


Range status and errors

Selected range

Filename D:\My Documents\My Music\Images\my archive\CD\Oscar Peterson, Ray Brown, Milt Jackson - The Very Tall Band\Oscar Peterson, Ray Brown, Milt Jackson - The Very Tall Band.wav

Peak level 100.0 %
Range quality 100.0 %
Copy CRC 3B763301
Copy OK

No errors occurred


AccurateRip summary

Track 1 accurately ripped (confidence 3) [DEA90A0E]
Track 2 accurately ripped (confidence 3) [38569545]
Track 3 accurately ripped (confidence 3) [2229CE85]
Track 4 accurately ripped (confidence 3) [E8634F7A]
Track 5 accurately ripped (confidence 3) [C7952A03]
Track 6 accurately ripped (confidence 3) [FDE7AAA6]
Track 7 accurately ripped (confidence 3) [F89E7836]
Track 8 accurately ripped (confidence 3) [F7493708]
Track 9 accurately ripped (confidence 2) [430F5F11]

All tracks accurately ripped

End of status report

[CUETools log; Date: 10.08.2018 1:04:19; Version: 2.1.4]
[CTDB TOCID: JWEgb0l554BHqbJ_04RjHmISVSU-] found.
Track | CTDB Status
1 | (45/72) Accurately ripped
2 | (45/72) Accurately ripped
3 | (44/72) Accurately ripped
4 | (45/72) Accurately ripped
5 | (44/72) Accurately ripped
6 | (45/72) Accurately ripped
7 | (45/72) Accurately ripped
8 | (45/72) Accurately ripped
9 | (44/72) Accurately ripped
[AccurateRip ID: 0017ffa8-00b06cf8-8310bc09] found.
Track [ CRC | V2 ] Status
01 [dea90a0e|ac146da6] (18+25/96) Accurately ripped
02 [38569545|68fb19ff] (17+24/96) Accurately ripped
03 [2229ce85|4f4ea9b4] (17+25/97) Accurately ripped
04 [e8634f7a|775645c3] (17+24/96) Accurately ripped
05 [c7952a03|f541e32b] (17+25/96) Accurately ripped
06 [fde7aaa6|1aae7f76] (17+24/94) Accurately ripped
07 [f89e7836|ddeabbcf] (18+25/97) Accurately ripped
08 [f7493708|06891cb5] (18+24/97) Accurately ripped
09 [430f5f11|6245db2c] (15+25/92) Accurately ripped
Offsetted by 1230:
01 [f06342ce] (11/96) Accurately ripped
02 [767b302b] (11/96) Accurately ripped
03 [1dbacc7b] (11/97) Accurately ripped
04 [92ecad43] (11/96) Accurately ripped
05 [a07862cb] (11/96) Accurately ripped
06 [d64d59ec] (11/94) Accurately ripped
07 [6498d534] (11/97) Accurately ripped
08 [a94e4288] (11/97) Accurately ripped
09 [fcd92943] (07/92) Accurately ripped
Offsetted by 26:
01 [7ca18872] (00/96) No match (V2 was not tested)
02 [0fec4a32] (00/96) No match (V2 was not tested)
03 [5f955180] (00/97) No match (V2 was not tested)
04 [8281e682] (00/96) No match (V2 was not tested)
05 [959f7126] (00/96) No match (V2 was not tested)
06 [1ca52233] (00/94) No match (V2 was not tested)
07 [90f658ab] (00/97) No match (V2 was not tested)
08 [13a38c84] (00/97) No match (V2 was not tested)
09 [ce552a67] (00/92) No match (V2 was not tested)

Track Peak [ CRC32 ] [W/O NULL] [ LOG ]
– 99,9 [4A571A7C] [3B763301] W/O NULL
01 99,9 [7EEB8074] [1948FA75]
02 99,9 [E7EBB6FB] [5869A18B]
03 62,9 [962DD01A] [8E8D8AD9]
04 47,7 [09D794AA] [C5139454]
05 87,3 [601F0E58] [415A4A6F]
06 85,4 [66389AD3] [B5422F90]
07 99,9 [9F2643FC] [D5118ABC]
08 51,7 [D2D601F9] [74D62F48]
09 99,9 [E3A5EB5E] [96AF00AA]

Thanks to spiderc@t

See also: