Tags
Language
Tags

Oscar Peterson + Stephane Grappelli - Skol (1982) [Reissue 1990]

Posted By: gribovar
Oscar Peterson + Stephane Grappelli - Skol (1982) [Reissue 1990]

Oscar Peterson + Stephane Grappelli - Skol (1982) [Reissue 1990]
EAC Rip | FLAC (tracks+.cue+log) - 273 MB | MP3 CBR 320 kbps (LAME 3.93) - 95 MB | Covers - 27 MB
Genre: Jazz | RAR 3% Rec. | Label: Pablo (OJC20 496-2)

Pianist Oscar Peterson and violinist Stephane Grappelli meet up for this Scandinavian concert. The "backup" crew (guitarist Joe Pass, bassist Niels Pedersen, and drummer Mickey Roker) isn't too bad either. In addition to a closing blues (which is highlighted by tradeoffs from Peterson and Grappelli), the quintet performs five veteran standards with creativity and swing.
Tracklist:
01. Nuages
02. How About You
03. Someone To Watch Over Me
04. Makin' Whoopee
05. That's All
06. Skol Blues

Total time: 40:23

Exact Audio Copy V0.99 prebeta 4 from 23. January 2008

EAC extraction logfile from 26. July 2010, 20:49

Oscar Peterson / Skol

Used drive : HL-DT-STDVD-RAM GH22NP20 Adapter: 0 ID: 0

Read mode : Secure
Utilize accurate stream : Yes
Defeat audio cache : Yes
Make use of C2 pointers : No

Read offset correction : 102
Overread into Lead-In and Lead-Out : No
Fill up missing offset samples with silence : Yes
Delete leading and trailing silent blocks : No
Null samples used in CRC calculations : Yes
Used interface : Installed external ASPI interface
Gap handling : Appended to previous track

Used output format : User Defined Encoder
Selected bitrate : 320 kBit/s
Quality : High
Add ID3 tag : No
Command line compressor : C:\Program Files\Exact Audio Copy\Flac\flac.exe
Additional command line options : -V -8 -T "artist=%a" -T "title=%t" -T "album=%g" -T "date=%y" -T "tracknumber=%n" -T "genre=%m" %s


TOC of the extracted CD

Track | Start | Length | Start sector | End sector
––––––––––––––––––––––––––––-
1 | 0:00.00 | 8:17.09 | 0 | 37283
2 | 8:17.09 | 5:05.28 | 37284 | 60186
3 | 13:22.37 | 6:59.31 | 60187 | 91642
4 | 20:21.68 | 5:22.66 | 91643 | 115858
5 | 25:44.59 | 7:31.07 | 115859 | 149690
6 | 33:15.66 | 7:07.39 | 149691 | 181754


Track 1

Filename D:\music\Musicgate's rips\Oscar Petersen - Skol - 1979\01 - Nuages.wav

Pre-gap length 0:00:02.00

Peak level 95.4 %
Track quality 100.0 %
Test CRC 72BE6ACD
Copy CRC 72BE6ACD
Accurately ripped (confidence 7) [3D52E7B9]
Copy OK

Track 2

Filename D:\music\Musicgate's rips\Oscar Petersen - Skol - 1979\02 - How about you.wav

Peak level 99.4 %
Track quality 100.0 %
Test CRC 1D1BDF40
Copy CRC 1D1BDF40
Accurately ripped (confidence 7) [259E4996]
Copy OK

Track 3

Filename D:\music\Musicgate's rips\Oscar Petersen - Skol - 1979\03 - Someone to watch over me.wav

Peak level 95.3 %
Track quality 100.0 %
Test CRC E17B82E1
Copy CRC E17B82E1
Accurately ripped (confidence 7) [6A9F5464]
Copy OK

Track 4

Filename D:\music\Musicgate's rips\Oscar Petersen - Skol - 1979\04 - Makin' whoopee.wav

Peak level 96.4 %
Track quality 100.0 %
Test CRC 6DC75BB5
Copy CRC 6DC75BB5
Accurately ripped (confidence 7) [4554899C]
Copy OK

Track 5

Filename D:\music\Musicgate's rips\Oscar Petersen - Skol - 1979\05 - That's all.wav

Peak level 95.8 %
Track quality 100.0 %
Test CRC 66DDD2CF
Copy CRC 66DDD2CF
Accurately ripped (confidence 7) [17D25CA1]
Copy OK

Track 6

Filename D:\music\Musicgate's rips\Oscar Petersen - Skol - 1979\06 - Skol blues.wav

Peak level 96.8 %
Track quality 100.0 %
Test CRC 75E2F18E
Copy CRC 75E2F18E
Accurately ripped (confidence 7) [A912B591]
Copy OK


All tracks accurately ripped

No errors occurred

End of status report

[CUETools log; Date: 27.02.2019 3:43:29; Version: 2.1.4]
[CTDB TOCID: 59YwM47wC5UI3rIx8T3X9QX0rbM-] found.
Track | CTDB Status
1 | (27/27) Accurately ripped
2 | (27/27) Accurately ripped
3 | (27/27) Accurately ripped
4 | (27/27) Accurately ripped
5 | (27/27) Accurately ripped
6 | (27/27) Accurately ripped
[AccurateRip ID: 0009b603-003371a4-56097706] found.
Track [ CRC | V2 ] Status
01 [3d52e7b9|045fef29] (11+16/27) Accurately ripped
02 [259e4996|e3360e4d] (11+16/27) Accurately ripped
03 [6a9f5464|ca062e67] (11+16/27) Accurately ripped
04 [4554899c|58b9ba8e] (11+16/27) Accurately ripped
05 [17d25ca1|7e3587c3] (11+16/27) Accurately ripped
06 [a912b591|a32af977] (11+16/27) Accurately ripped

Track Peak [ CRC32 ] [W/O NULL] [ LOG ]
– 99,4 [3CE1B756] [E66D1083]
01 95,4 [72BE6ACD] [1DCD9A9B] CRC32
02 99,4 [1D1BDF40] [D5995461] CRC32
03 95,3 [E17B82E1] [BDF2FFF8] CRC32
04 96,4 [6DC75BB5] [E85D2930] CRC32
05 95,8 [66DDD2CF] [912D640E] CRC32
06 96,8 [75E2F18E] [5C7E8882] CRC32

Thanks to Musicgate

See also:

Oscar Peterson - Songbooks Etcetera [10CD Box Set] (2005)
The Oscar Peterson Trio - A Jazz Portrait Of Frank Sinatra (1959)
Oscar Peterson - Plays The Jerome Kern Song Book (1959) [Reissue 2009]
Oscar Peterson - Oscar Peterso...ong Book (1959) [Reissue 1996]
Oscar Peterson Trio - West Side Story (1962) [DCC 24 KT Gold CD, 1994]
Oscar Peterson & Nelson Ri...n Riddle (1963) [Reissue 2009]
Oscar Peterson Trio - Oscar Pe...rk Terry (1964) [Reissue 2007]
Oscar Peterson - Blues Etude (1966) [Reissue 1990]
Oscar Peterson - Motions & Emotions (1969) [Reissue 2005]
Oscar Peterson & Dizzy Gil...illespie (1975) [Reissue 1987]
Ella Fitzgerald & Oscar Pe...nd Oscar (1976) [Reissue 2001]
Oscar Peterson & Count Bas...0;.Again (1978) [Reissue 2006]
Milt Jackson & Oscar Peter... Us Left (1981) [Reissue 2006]
Clark Terry, Freddie Hubbard, ...n - The Alternate Blues (1982)
Oscar Peterson - The Silver Collection [Recorded 1959-1963] (1984)
The Oscar Peterson Trio - Live And At Its Best (1990)
Oscar Peterson Trio with Ray Brown & Ed Thigpen - 1959 (1994)
Oscar Peterson - Oscar Peterso...(Verve Jazz Masters 37) (1994)
Oscar Peterson - 1945-1947 (1999)
Lionel Hampton With Oscar Peterson - Verve Jazz Masters 26 (1994)
Oscar Peterson, Ray Brown, Mil...: Live at the Blue Note (1999)
Oscar Peterson Trio - Complete...sions with Lester Young (2001)
Oscar Peterson - Stephane Grap...ol. 1-2 [Recorded 1973] (2001)
Oscar Peterson - Oscar's Ballads [Recorded 1990-2000] (2001)
Oscar Peterson - A Jazz Odyssey [Recorded 1950-1970] (2002)
Oscar Peterson - Ballads, Blue...1968-1971, 3CD Box Set] (2008)

Stephane Grappelli - Improvisations (1957) [Reissue 2000]
Stephane Grappelli & Yo-Yo Ma - Anything Goes (1989)
Stephane Grappelli & McCoy Tyner - One On One (1990)
Stephane Grappelli - Plays Cole Porter [Recorded 1975-1976] (2001)
Stephane Grappelli - Tribute T...dt [Recorded 1971-1979] (2009)