Subcategories

Oscar Peterson Trio - Oscar Peterson Trio + One, Clark Terry (1964) [Reissue 2007] (Repost)

Posted By: gribovar
Oscar Peterson Trio - Oscar Peterson Trio + One, Clark Terry (1964) [Reissue 2007] (Repost)

Oscar Peterson Trio - Oscar Peterson Trio + One, Clark Terry (1964) [Reissue 2007]
EAC Rip | FLAC (tracks+.cue+log) - 265 MB | MP3 CBR 320 kbps (LAME 3.93) - 95 MB | Covers - 39 MB
Genre: Jazz | RAR 3% Rec. | Label: Verve Records (0602517425347)

Some guest soloists get overshadowed by Oscar Peterson's technical prowess, while others meet him halfway with fireworks of their own; trumpeter Clark Terry lands in the latter camp on this fine 1964 session. With drummer Ed Thigpen and bassist Ray Brown providing solid support, the two soloists come off as intimate friends over the course of the album's ten ballad and blues numbers. And while Peterson shows myriad moods, from Ellington's impressionism on slow cuts like "They Didn't Believe Me" to fleet, single-line madness on his own "Squeaky's Blues," Terry goes in for blues and the blowzy on originals like "Mumbles" and "Incoherent Blues"; the trumpeter even airs out some of his singularly rambling and wonderful scat singing in the process. Other highlights include the rarely covered ballad "Jim" and the even more obscure "Brotherhood of Man" from the Broadway musical How to Succeed in Business Without Really Trying. A very engaging and enjoyable disc.
Tracklist:
01. Brotherhood Of Man
02. Jim
03. Blues For Smedley
04. Roundalay
05. Mumbles
06. Mack The Knife
07. They Didn't Believe Me
08. Squeaky's Blues
09. I Want A Little Girl
10. Incoherent Blues

Total time: 40:34

Exact Audio Copy V1.0 beta 1 from 15. November 2010

EAC extraction logfile from 11. December 2010, 3:28

Oscar Peterson Trio / Oscar Peterson Trio + One Clark Terry

Used drive : HL-DT-STDVD-RAM GSA-H55N Adapter: 0 ID: 2

Read mode : Secure
Utilize accurate stream : Yes
Defeat audio cache : Yes
Make use of C2 pointers : No

Read offset correction : 102
Overread into Lead-In and Lead-Out : Yes
Fill up missing offset samples with silence : Yes
Delete leading and trailing silent blocks : No
Null samples used in CRC calculations : Yes
Used interface : Installed external ASPI interface
Gap handling : Appended to previous track

Used output format : User Defined Encoder
Selected bitrate : 128 kBit/s
Quality : High
Add ID3 tag : No
Command line compressor : G:\Program Files\Exact Audio Copy\Encoder\flac.exe
Additional command line options : -V -8 -T "Genre=%m" -T "Artist=%a" -T "Title=%t" -T "Album=%g" -T "Date=%y" -T "Tracknumber=%n" -T "Comment=EAC1b1 -8" %s


TOC of the extracted CD

Track | Start | Length | Start sector | End sector
––––––––––––––––––––––––––––-
1 | 0:00.00 | 3:36.69 | 0 | 16268
2 | 3:36.69 | 3:02.26 | 16269 | 29944
3 | 6:39.20 | 6:55.58 | 29945 | 61127
4 | 13:35.03 | 3:56.68 | 61128 | 78895
5 | 17:31.71 | 2:02.57 | 78896 | 88102
6 | 19:34.53 | 5:17.14 | 88103 | 111891
7 | 24:51.67 | 4:20.14 | 111892 | 131405
8 | 29:12.06 | 3:29.57 | 131406 | 147137
9 | 32:41.63 | 5:10.08 | 147138 | 170395
10 | 37:51.71 | 2:42.02 | 170396 | 182547


Track 1

Filename F:\WAV\01 - Brotherhood Of Man.wav

Pre-gap length 0:00:02.00

Peak level 98.8 %
Extraction speed 2.8 X
Track quality 100.0 %
Test CRC B7BA2185
Copy CRC B7BA2185
Accurately ripped (confidence 30) [094CB67C]
Copy OK

Track 2

Filename F:\WAV\02 - Jim.wav

Pre-gap length 0:00:01.73

Peak level 98.8 %
Extraction speed 2.9 X
Track quality 100.0 %
Test CRC 60055683
Copy CRC 60055683
Accurately ripped (confidence 30) [C6735672]
Copy OK

Track 3

Filename F:\WAV\03 - Blues For Smedley.wav

Pre-gap length 0:00:01.40

Peak level 98.8 %
Extraction speed 3.6 X
Track quality 100.0 %
Test CRC F7602463
Copy CRC F7602463
Accurately ripped (confidence 30) [DA12E9AF]
Copy OK

Track 4

Filename F:\WAV\04 - Roundalay.wav

Pre-gap length 0:00:01.40

Peak level 98.8 %
Extraction speed 3.7 X
Track quality 100.0 %
Test CRC DC559B06
Copy CRC DC559B06
Accurately ripped (confidence 30) [8FF86D0D]
Copy OK

Track 5

Filename F:\WAV\05 - Mumbles.wav

Pre-gap length 0:00:02.20

Peak level 98.8 %
Extraction speed 3.3 X
Track quality 100.0 %
Test CRC 7D518664
Copy CRC 7D518664
Accurately ripped (confidence 29) [14CA0467]
Copy OK

Track 6

Filename F:\WAV\06 - Mack The Knife.wav

Pre-gap length 0:00:02.22

Peak level 98.8 %
Extraction speed 4.1 X
Track quality 100.0 %
Test CRC 4C7956B1
Copy CRC 4C7956B1
Accurately ripped (confidence 29) [85C26D40]
Copy OK

Track 7

Filename F:\WAV\07 - They Didn't Believe Me.wav

Pre-gap length 0:00:01.22

Peak level 98.8 %
Extraction speed 2.6 X
Track quality 100.0 %
Test CRC 886A19B0
Copy CRC 886A19B0
Accurately ripped (confidence 30) [5321119F]
Copy OK

Track 8

Filename F:\WAV\08 - Squeaky's Blues.wav

Pre-gap length 0:00:01.62

Peak level 98.8 %
Extraction speed 2.7 X
Track quality 100.0 %
Test CRC 00CAC3FE
Copy CRC 00CAC3FE
Accurately ripped (confidence 29) [13C5E65A]
Copy OK

Track 9

Filename F:\WAV\09 - I Want A Little Girl.wav

Pre-gap length 0:00:01.39

Peak level 98.8 %
Extraction speed 3.0 X
Track quality 100.0 %
Test CRC 16F128EE
Copy CRC 16F128EE
Accurately ripped (confidence 30) [D5D6CAE3]
Copy OK

Track 10

Filename F:\WAV\10 - Incoherent Blues.wav

Pre-gap length 0:00:01.30

Peak level 98.8 %
Extraction speed 3.1 X
Track quality 99.9 %
Test CRC F2121F41
Copy CRC F2121F41
Accurately ripped (confidence 28) [0CE9D428]
Copy OK


All tracks accurately ripped

No errors occurred

End of status report

==== Log checksum 7243836F80DBA763A3B24CE0DB826B02AE8A23E7F9FE23D3BB80D709DD6DCB95 ====

[CUETools log; Date: 07.11.2017 14:11:02; Version: 2.1.4]
[CTDB TOCID: YcOPMGiWRzmK9.gqVJxHt6qQP4U-] found.
Track | CTDB Status
1 | (80/80) Accurately ripped
2 | (80/80) Accurately ripped
3 | (77/80) Accurately ripped, or (1/80) differs in 258 samples @05:06:10-05:06:12
4 | (80/80) Accurately ripped
5 | (80/80) Accurately ripped
6 | (80/80) Accurately ripped
7 | (80/80) Accurately ripped
8 | (80/80) Accurately ripped
9 | (80/80) Accurately ripped
10 | (79/80) Accurately ripped
[AccurateRip ID: 000f8779-007c85c2-7d09810a] found.
Track [ CRC | V2 ] Status
01 [094cb67c|02b460ac] (046+057/109) Accurately ripped
02 [c6735672|276c054f] (046+056/108) Accurately ripped
03 [da12e9af|cdf3dbca] (046+057/109) Accurately ripped
04 [8ff86d0d|311fbcee] (045+056/107) Accurately ripped
05 [14ca0467|ee780811] (045+057/108) Accurately ripped
06 [85c26d40|7d73dde2] (045+057/108) Accurately ripped
07 [5321119f|10d0c208] (046+057/109) Accurately ripped
08 [13c5e65a|45265ac7] (044+057/107) Accurately ripped
09 [d5d6cae3|acd8e5a5] (046+057/109) Accurately ripped
10 [0ce9d428|52521f81] (044+056/106) Accurately ripped
Offsetted by -12:
01 [371d127f] (000/109) No match (V2 was not tested)
02 [e3bf62be] (000/108) No match (V2 was not tested)
03 [3075690f] (000/109) No match (V2 was not tested)
04 [7d004fab] (000/107) No match (V2 was not tested)
05 [9b4990aa] (000/108) No match (V2 was not tested)
06 [7c70c460] (000/108) No match (V2 was not tested)
07 [2b26fb57] (000/109) No match (V2 was not tested)
08 [e3aa3eaa] (000/107) No match (V2 was not tested)
09 [6367bd3f] (000/109) No match (V2 was not tested)
10 [e5bd833c] (000/106) No match (V2 was not tested)

Track Peak [ CRC32 ] [W/O NULL] [ LOG ]
– 98,8 [C09EA24F] [B71E0EEF]
01 98,8 [B7BA2185] [A34A68A1] CRC32
02 98,8 [60055683] [8E234A00] CRC32
03 98,8 [F7602463] [41222806] CRC32
04 98,8 [DC559B06] [D218BF56] CRC32
05 98,8 [7D518664] [C3C0E7DB] CRC32
06 98,8 [4C7956B1] [0A0399CD] CRC32
07 98,8 [886A19B0] [A98D2A8A] CRC32
08 98,8 [00CAC3FE] [939E5C33] CRC32
09 98,8 [16F128EE] [DABD7B69] CRC32
10 98,8 [F2121F41] [70F9F955] CRC32

Thanks to simple.i