Subcategories

Oslo Philharmonic Orchestra - Rolf Wallin: Act (2007)

Posted By: tirexiss
Oslo Philharmonic Orchestra - Rolf Wallin: Act (2007)

Oslo Philharmonic Orchestra - Rolf Wallin: Act (2007)
EAC | FLAC (image+.cue, log) | Covers Included | 01:00:25 | 278 MB
Genre: Modern Classical | Label: Ondine | Catalog: ODE 111802

Norwegian composer Rolf Wallin (born 1957) belongs to that school of Scandinavian composers of the late twentieth and early twenty-first centuries who are grounded in the techniques of modernism, but who employ those techniques in music that's immensely and immediately appealing to broad audiences in the directness of its emotional reach and the attractiveness of its sound. The three pieces recorded here, an orchestral work, a percussion concerto and a concerto for six percussionists, reveal a composer with an extraordinarily colorful orchestrational palette, fine sense of large musical structure, and an elemental rhythmic vitality. Some pieces that are rhythmically motivated can sound mechanical and driven purely by a propulsive sense of momentum, but Wallin's pieces seem charged by a complex and genuinely organic sense of development that's engaging both viscerally and emotionally, and that makes for a fully satisfying musical experience. Despite having these characteristics in common, the three pieces here are fully differentiated and distinctive. Das war schön!, a solo percussion concerto based on elements of Mozart's music and biography, is in five hauntingly evocative and varied movements, with a kaleidoscopic expressive and sonic range, and Martin Grubinger plays it with huge energy and mesmerizing delicacy. The outstanding Kroumata Percussion Ensemble brings a comparable virtuosity to the large, single-movement concerto Tides. The Oslo Philharmonic Orchestra, conducted by Jaap van Zweden, John Axelrod, and Jukka-Pekka Sarasate, plays with precision, but also with the abandon and wildness that this music requires. The CD should be of special interest to fans of percussion music, and also of fresh new orchestral works.

Oslo Philharmonic Orchestra - Rolf Wallin: Act (2007)

Track List:

1. Act (2003) 10:07
Das war schön! (2006) 24:25
2. I. M. Noir 6:37
3. II. Mon trés cher Pére 4:59
4. III. 3 x 3 0:50
5 IV. Es klinget… 5:22
6 V. Herr Stahr 6:33
7. Tides (1998) 25:56

Performers:
Oslo Philharmonic Orchestra
Kroumata Percussion Ensemble (7)
John Axelrod conductor (2-6)
Jukka-Pekka Saraste conductor (7)
Jaap van Zweden conductor (1)
Martin Grubinger percussion (2-6)

Exact Audio Copy V0.99 prebeta 4 from 23. January 2008

EAC extraction logfile from 25. July 2009, 23:07

Rolf Wallin / Act

Used drive : TSSTcorpCD/DVDW SH-S182M Adapter: 2 ID: 0

Read mode : Secure
Utilize accurate stream : Yes
Defeat audio cache : Yes
Make use of C2 pointers : No

Read offset correction : 6
Overread into Lead-In and Lead-Out : No
Fill up missing offset samples with silence : Yes
Delete leading and trailing silent blocks : No
Null samples used in CRC calculations : Yes
Used interface : Installed external ASPI interface

Used output format : User Defined Encoder
Selected bitrate : 1024 kBit/s
Quality : High
Add ID3 tag : No
Command line compressor : C:\Program Files\Exact Audio Copy\FLAC\FLAC.EXE
Additional command line options : -6 -V -T "ARTIST=%a" -T "TITLE=%t" -T "ALBUM=%g" -T "DATE=%y" -T "TRACKNUMBER=%n" -T "GENRE=%m" -T "COMMENT=%e" %s -o %d


TOC of the extracted CD

Track | Start | Length | Start sector | End sector
––––––––––––––––––––––––––––-
1 | 0:00.00 | 10:07.33 | 0 | 45557
2 | 10:07.33 | 6:36.60 | 45558 | 75317
3 | 16:44.18 | 4:59.16 | 75318 | 97758
4 | 21:43.34 | 0:50.11 | 97759 | 101519
5 | 22:33.45 | 5:22.14 | 101520 | 125683
6 | 27:55.59 | 6:32.47 | 125684 | 155130
7 | 34:28.31 | 25:56.34 | 155131 | 271864


Range status and errors

Selected range

Filename C:\Documents and Settings\Igor\My Documents\My Music\eac\Rolf Wallin - Act.wav

Peak level 97.9 %
Range quality 100.0 %
Test CRC 87B1BE02
Copy CRC 87B1BE02
Copy OK

No errors occurred


AccurateRip summary

Track 1 accurately ripped (confidence 1) [1F461B0F]
Track 2 accurately ripped (confidence 1) [EC91D8A8]
Track 3 accurately ripped (confidence 1) [9FE98CBE]
Track 4 accurately ripped (confidence 1) [12EAA16B]
Track 5 accurately ripped (confidence 1) [A953385C]
Track 6 accurately ripped (confidence 1) [3627D7DB]
Track 7 accurately ripped (confidence 1) [CF4852A5]

All tracks accurately ripped

End of status report

[CUETools log; Date: 10.07.2017 10:50:06; Version: 2.1.5]
[CTDB TOCID: tEmnXJVOAOlkzb1NUIMJbDPdNVw-] found.
Track | CTDB Status
1 | (8/8) Accurately ripped
2 | (8/8) Accurately ripped
3 | (8/8) Accurately ripped
4 | (8/8) Accurately ripped
5 | (8/8) Accurately ripped
6 | (8/8) Accurately ripped
7 | (7/8) Accurately ripped
[AccurateRip ID: 000d5183-004fd038-4d0e2807] found.
Track [ CRC | V2 ] Status
01 [1f461b0f|89306462] (3+4/7) Accurately ripped
02 [ec91d8a8|bd46f8db] (4+4/8) Accurately ripped
03 [9fe98cbe|655c1b19] (4+4/8) Accurately ripped
04 [12eaa16b|a0c14293] (4+4/8) Accurately ripped
05 [a953385c|b95c3be7] (4+4/8) Accurately ripped
06 [3627d7db|65c15dfc] (4+4/8) Accurately ripped
07 [cf4852a5|8c727058] (4+4/8) Accurately ripped

Track Peak [ CRC32 ] [W/O NULL] [ LOG ]
– 97,8 [87B1BE02] [59708824] CRC32
01 97,8 [938DCF28] [DC6003E7]
02 34,3 [A17A039F] [63540F28]
03 50,6 [79E5F323] [E2796A33]
04 55,6 [BA64A32A] [75556408]
05 55,5 [9CCC0B5B] [E0735BE0]
06 96,0 [48DECB8D] [B2F4E009]
07 97,7 [9C786A7A] [53EB59AE]

Thanks to the Original ripper (unknown)!

Download: