Tags
Language
Tags

Otis Redding - Original Album Series Vol. 2 (2013) [5CD Box Set]

Posted By: v3122
Otis Redding - Original Album Series Vol. 2 (2013) [5CD Box Set]

Otis Redding - Original Album Series Vol. 2 (2013)
EAC | Flac(Image) + Cue + Log & MP3 CBR 320Kbps
Rhino Records, 8122796490 | ~ 973 or 394 Mb | Scans(jpg) -> 48 Mb
R&B, Soul

The second five-album set chronicling Otis Redding's legendary work with Stax Records, this slipcase collection includes 1967's Live in Europe, 1968's Dock of the Bay and In Person at the Whisky A Go Go, 1969's Love Man, and 1970's Tell the Truth, each album presented separately and housed in card wallet style.

by Steve Leggett, allmusic

* * *

One of the most influential soul singers of the 1960s, Otis Redding exemplified to many listeners the power of Southern "deep soul" – hoarse, gritty vocals, brassy arrangements, and an emotional way with both party tunes and aching ballads. He was also the most consistent exponent of the Stax sound, cutting his records at the Memphis label/studios that did much to update R&B into modern soul. His death at the age of 26 was tragic not just because he seemed on the verge of breaking through to a wide pop audience (which he would indeed do with his posthumous number one single "[Sittin' On] The Dock of the Bay"). It was also unfortunate because, as "Dock of the Bay" demonstrated, he was also at a point of artistic breakthrough in terms of the expression and sophistication of his songwriting and singing.

Although Redding at his peak was viewed as a consummate, versatile showman, he began his recording career in the early '60s as a Little Richard-styled shouter. The Georgian was working in the band of guitarist Johnny Jenkins at the time, and in 1962 he took advantage of an opportunity to record the ballad "These Arms of Mine" at a Jenkins session. When it became an R&B hit, Redding's solo career was truly on its way, though the hits didn't really start to fly until 1965 and 1966, when "Mr. Pitiful," "I've Been Loving You Too Long," "I Can't Turn You Loose," a cover of the Rolling Stones' "Satisfaction," and "Respect" (later turned into a huge pop smash by Aretha Franklin) were all big sellers.

Redding wrote much of his own material, sometimes with the assistance of Booker T. & the MG's guitarist Steve Cropper. Yet at the time, Redding's success was primarily confined to the soul market; his singles charted only mildly on the pop listings. He was nonetheless tremendously respected by many white groups, particularly the Rolling Stones, who covered Redding's "That's How Strong My Love Is" and "Pain in My Heart." (Redding also returned the favor with "Satisfaction.")

One of Redding's biggest hits was a duet with fellow Stax star Carla Thomas, "Tramp," in 1967. That was the same year he began to show signs of making major inroads into the white audience, particularly with a well-received performance at the Monterey Pop Festival (also issued on record). Redding's biggest triumph, however, came just days before his death, when he recorded the wistful "(Sittin' On) The Dock of the Bay," which represented a significant leap as far as examination of more intensely personal emotions. Also highlighted by crisp Cropper guitar leads and dignified horns, it rose to the top of the pop charts in early 1968.

Redding, however, had perished in a plane crash in Wisconsin on December 10, 1967, in an accident that also took the lives of four members from his backup band, the Bar-Kays. A few other singles became posthumous hits, and a good amount of other unreleased material was issued in the wake of his death. These releases weren't purely exploitative in nature, in fact containing some pretty interesting music, and little that could be considered embarrassing. What Redding might have achieved, or what directions he might have explored, are among the countless tantalizing "what if" questions in rock & roll history. As it is, he did record a considerable wealth of music at Stax, which is now available on thoughtfully archived reissues.

by Richie Unterberger, allmusic
Otis Redding - Original Album Series Vol. 2 (2013):

Otis Redding - Original Album Series Vol. 2 (2013) [5CD Box Set]

Tracklist CD01 - Live In Europe (1967):

01. Respect (03:43)
02. Can't Turn You Loose (03:28)
03. I've Been Loving You Too Long (04:07)
04. My Girl (02:42)
05. Shake (02:56)
06. Satisfaction (03:00)
07. Fa-Fa-Fa-Fa-Fa (Sad Song) (04:04)
08. These Arms Of Mine (03:47)
09. Day Tripper (03:05)
10. Try A Little Tenderness (05:07)

Converted to Image (CUETools 2.1.4)

Exact Audio Copy V1.0 beta 3 from 29. August 2011

EAC extraction logfile from 1. March 2014, 23:27

Otis Redding / Live In Europe

Used drive : HL-DT-STBD-RE GGW-H20L Adapter: 0 ID: 2

Read mode : Secure
Utilize accurate stream : Yes
Defeat audio cache : Yes
Make use of C2 pointers : No

Read offset correction : 667
Overread into Lead-In and Lead-Out : No
Fill up missing offset samples with silence : Yes
Delete leading and trailing silent blocks : No
Null samples used in CRC calculations : Yes
Used interface : Native Win32 interface for Win NT & 2000
Gap handling : Appended to previous track

Used output format : User Defined Encoder
Selected bitrate : 1024 kBit/s
Quality : High
Add ID3 tag : No
Command line compressor : C:\Program Files\Exact Audio Copy\FLAC\FLAC.EXE
Additional command line options : -8 -V -T "ARTIST=%artist%" -T "TITLE=%title%" -T "ALBUM=%albumtitle%" -T "DATE=%year%" -T "TRACKNUMBER=%tracknr%" -T "GENRE=%genre%" -T "PERFORMER=%albuminterpret%" -T "COMPOSER=%composer%" %haslyrics%–tag-from-file=LYRICS="%lyricsfile%"%haslyrics% -T "ALBUMARTIST=%albumartist%" -T "ALBUM ARTIST=%albumartist%" -T "DISCNUMBER=%cdnumber%" -T "TOTALDISCS=%totalcds%" -T "TOTALTRACKS=%numtracks%" -T "COMMENT=EAC V1.0 beta 3, Secure Mode, Test & Copy, AccurateRip, FLAC - 8 - oan" %source% -o %dest%


TOC of the extracted CD

Track | Start | Length | Start sector | End sector
––––––––––––––––––––––––––––-
1 | 0:00.00 | 3:43.33 | 0 | 16757
2 | 3:43.33 | 3:28.57 | 16758 | 32414
3 | 7:12.15 | 4:07.45 | 32415 | 50984
4 | 11:19.60 | 2:42.50 | 50985 | 63184
5 | 14:02.35 | 2:56.03 | 63185 | 76387
6 | 16:58.38 | 3:00.50 | 76388 | 89937
7 | 19:59.13 | 4:04.37 | 89938 | 108274
8 | 24:03.50 | 3:47.30 | 108275 | 125329
9 | 27:51.05 | 3:05.73 | 125330 | 139277
10 | 30:57.03 | 5:07.05 | 139278 | 162307


Track 1

Filename C:\oneanight\01 - Respect.wav

Pre-gap length 0:00:02.00

Peak level 87.0 %
Extraction speed 3.6 X
Track quality 99.9 %
Test CRC E2DF01AD
Copy CRC E2DF01AD
Accurately ripped (confidence 3) [1DD7999A] (AR v2)
Copy OK

Track 2

Filename C:\oneanight\02 - Can't Turn You Loose.wav

Peak level 98.2 %
Extraction speed 4.7 X
Track quality 100.0 %
Test CRC E9BC4FDF
Copy CRC E9BC4FDF
Accurately ripped (confidence 3) [35AE2FE2] (AR v2)
Copy OK

Track 3

Filename C:\oneanight\03 - I've Been Loving You Too Long.wav

Peak level 100.0 %
Extraction speed 5.2 X
Track quality 100.0 %
Test CRC 3381E830
Copy CRC 3381E830
Accurately ripped (confidence 3) [47E3DB04] (AR v2)
Copy OK

Track 4

Filename C:\oneanight\04 - My Girl.wav

Peak level 95.7 %
Extraction speed 4.0 X
Track quality 99.9 %
Test CRC 51DD25E0
Copy CRC 51DD25E0
Accurately ripped (confidence 3) [5F4CEAC6] (AR v2)
Copy OK

Track 5

Filename C:\oneanight\05 - Shake.wav

Peak level 100.0 %
Extraction speed 5.6 X
Track quality 100.0 %
Test CRC DD4585C8
Copy CRC DD4585C8
Accurately ripped (confidence 3) [82DAC0C1] (AR v2)
Copy OK

Track 6

Filename C:\oneanight\06 - Satisfaction.wav

Peak level 99.9 %
Extraction speed 5.9 X
Track quality 100.0 %
Test CRC 5D60D671
Copy CRC 5D60D671
Accurately ripped (confidence 3) [5BF5991C] (AR v2)
Copy OK

Track 7

Filename C:\oneanight\07 - Fa-Fa-Fa-Fa-Fa [Sad Song].wav

Peak level 95.1 %
Extraction speed 6.5 X
Track quality 100.0 %
Test CRC 63A75B66
Copy CRC 63A75B66
Accurately ripped (confidence 3) [033210E9] (AR v2)
Copy OK

Track 8

Filename C:\oneanight\08 - These Arms Of Mine.wav

Peak level 68.0 %
Extraction speed 5.4 X
Track quality 99.9 %
Test CRC 00F444F1
Copy CRC 00F444F1
Accurately ripped (confidence 3) [FBA98143] (AR v2)
Copy OK

Track 9

Filename C:\oneanight\09 - Day Tripper.wav

Peak level 86.1 %
Extraction speed 6.8 X
Track quality 100.0 %
Test CRC E18FFF76
Copy CRC E18FFF76
Accurately ripped (confidence 3) [F20BF79A] (AR v2)
Copy OK

Track 10

Filename C:\oneanight\10 - Try A Little Tenderness.wav

Peak level 72.5 %
Extraction speed 7.5 X
Track quality 100.0 %
Test CRC 6AFBC862
Copy CRC 6AFBC862
Accurately ripped (confidence 3) [D69BCD6D] (AR v2)
Copy OK


All tracks accurately ripped

No errors occurred

End of status report

–– CUETools DB Plugin V2.1.4

[CTDB TOCID: 7c.v1DmKYGwXbq2z_J2qIqZNseg-] found
Submit result: 7c.v1DmKYGwXbq2z_J2qIqZNseg- has been confirmed
Track | CTDB Status
1 | (7/7) Accurately ripped
2 | (7/7) Accurately ripped
3 | (7/7) Accurately ripped
4 | (7/7) Accurately ripped
5 | (7/7) Accurately ripped
6 | (7/7) Accurately ripped
7 | (7/7) Accurately ripped
8 | (7/7) Accurately ripped
9 | (7/7) Accurately ripped
10 | (7/7) Accurately ripped


==== Log checksum 8CA21CD34E7A1D83568E54D6B99E1AEFDBA92DB11724478ACD6DFAFA2B60EC45 ====


foobar2000 1.2.9 / Dynamic Range Meter 1.1.1
log date: 2017-07-14 19:22:09

––––––––––––––––––––––––––––––––––––––––
Analyzed: Otis Redding / Live In Europe
––––––––––––––––––––––––––––––––––––––––

DR Peak RMS Duration Track
––––––––––––––––––––––––––––––––––––––––
DR12 -1.21 dB -15.61 dB 3:43 01-Respect
DR12 -0.16 dB -14.87 dB 3:29 02-Can't Turn You Loose
DR14 0.00 dB -20.91 dB 4:08 03-I've Been Loving You Too Long
DR14 -0.38 dB -16.57 dB 2:43 04-My Girl
DR12 0.00 dB -14.91 dB 2:56 05-Shake
DR13 -0.01 dB -14.60 dB 3:01 06-Satisfaction
DR14 -0.44 dB -17.12 dB 4:04 07-Fa-Fa-Fa-Fa-Fa [Sad Song]
DR14 -3.34 dB -22.72 dB 3:47 08-These Arms Of Mine
DR13 -1.29 dB -17.19 dB 3:06 09-Day Tripper
DR12 -2.78 dB -19.69 dB 5:07 10-Try A Little Tenderness
––––––––––––––––––––––––––––––––––––––––

Number of tracks: 10
Official DR value: DR13

Samplerate: 44100 Hz
Channels: 2
Bits per sample: 16
Bitrate: 873 kbps
Codec: FLAC
================================================================================



[CUETools log; Date: 14.07.2017 19:22:01; Version: 2.1.4]
[CTDB TOCID: 7c.v1DmKYGwXbq2z_J2qIqZNseg-] found.
Track | CTDB Status
1 | (56/56) Accurately ripped
2 | (56/56) Accurately ripped
3 | (56/56) Accurately ripped
4 | (54/56) Accurately ripped, or (2/56) differs in 2 samples @01:02:08
5 | (56/56) Accurately ripped
6 | (56/56) Accurately ripped
7 | (56/56) Accurately ripped
8 | (56/56) Accurately ripped
9 | (56/56) Accurately ripped
10 | (56/56) Accurately ripped
[AccurateRip ID: 000d325c-0069738b-7208740a] found.
Track [ CRC | V2 ] Status
01 [6a00e0e2|1dd7999a] (00+23/23) Accurately ripped
02 [e569a424|35ae2fe2] (00+23/23) Accurately ripped
03 [03602192|47e3db04] (00+23/23) Accurately ripped
04 [154a1014|5f4ceac6] (00+23/23) Accurately ripped
05 [f47faff9|82dac0c1] (00+23/23) Accurately ripped
06 [b2ed1e5a|5bf5991c] (00+23/23) Accurately ripped
07 [02bf444c|033210e9] (00+23/23) Accurately ripped
08 [4b03a4be|fba98143] (00+23/23) Accurately ripped
09 [04372cc1|f20bf79a] (00+23/23) Accurately ripped
10 [41c72385|d69bcd6d] (00+23/23) Accurately ripped

Track Peak [ CRC32 ] [W/O NULL] [ LOG ]
– 100,0 [86034454] [1714E4A9]
01 87,0 [E2DF01AD] [D41DB0BF] CRC32
02 98,2 [E9BC4FDF] [C3090CCB] CRC32
03 100,0 [3381E830] [48734E93] CRC32
04 95,7 [51DD25E0] [12465303] CRC32
05 100,0 [DD4585C8] [150E3341] CRC32
06 99,9 [5D60D671] [27E412BA] CRC32
07 95,1 [63A75B66] [31A7361A] CRC32
08 68,0 [00F444F1] [72E01636] CRC32
09 86,1 [E18FFF76] [97AADBAC] CRC32
10 72,5 [6AFBC862] [3B81884F] CRC32


Otis Redding - Original Album Series Vol. 2 (2013) [5CD Box Set]

Tracklist CD02 - The Dock Of The Bay (1968):

01. (Sittin' On) The Dock Of The Bay (02:46)
02. I Love You More Than Words Can Say (02:56)
03. Let Me Come On Home (02:54)
04. Open The Door (02:25)
05. Don't Mess With Cupid (02:33)
06. Glory Of Love (02:59)
07. I'm Coming Home To See About You (03:03)
08. Tramp (03:03)
09. The Huckle-Buck (03:05)
10. Nobody Knows You (When You're Down And Out) (03:10)
11. Ole Man Trouble (02:36)

Converted to Image (CUETools 2.1.4)

Exact Audio Copy V1.0 beta 3 from 29. August 2011

EAC extraction logfile from 1. March 2014, 23:53

Otis Redding / The Dock Of The Bay

Used drive : HL-DT-STBD-RE GGW-H20L Adapter: 0 ID: 2

Read mode : Secure
Utilize accurate stream : Yes
Defeat audio cache : Yes
Make use of C2 pointers : No

Read offset correction : 667
Overread into Lead-In and Lead-Out : No
Fill up missing offset samples with silence : Yes
Delete leading and trailing silent blocks : No
Null samples used in CRC calculations : Yes
Used interface : Native Win32 interface for Win NT & 2000
Gap handling : Appended to previous track

Used output format : User Defined Encoder
Selected bitrate : 1024 kBit/s
Quality : High
Add ID3 tag : No
Command line compressor : C:\Program Files\Exact Audio Copy\FLAC\FLAC.EXE
Additional command line options : -8 -V -T "ARTIST=%artist%" -T "TITLE=%title%" -T "ALBUM=%albumtitle%" -T "DATE=%year%" -T "TRACKNUMBER=%tracknr%" -T "GENRE=%genre%" -T "PERFORMER=%albuminterpret%" -T "COMPOSER=%composer%" %haslyrics%–tag-from-file=LYRICS="%lyricsfile%"%haslyrics% -T "ALBUMARTIST=%albumartist%" -T "ALBUM ARTIST=%albumartist%" -T "DISCNUMBER=%cdnumber%" -T "TOTALDISCS=%totalcds%" -T "TOTALTRACKS=%numtracks%" -T "COMMENT=EAC V1.0 beta 3, Secure Mode, Test & Copy, AccurateRip, FLAC - 8 - oan" %source% -o %dest%


TOC of the extracted CD

Track | Start | Length | Start sector | End sector
––––––––––––––––––––––––––––-
1 | 0:00.00 | 2:46.18 | 0 | 12467
2 | 2:46.18 | 2:56.60 | 12468 | 25727
3 | 5:43.03 | 2:54.35 | 25728 | 38812
4 | 8:37.38 | 2:25.30 | 38813 | 49717
5 | 11:02.68 | 2:33.47 | 49718 | 61239
6 | 13:36.40 | 2:59.38 | 61240 | 74702
7 | 16:36.03 | 3:03.70 | 74703 | 88497
8 | 19:39.73 | 3:03.27 | 88498 | 102249
9 | 22:43.25 | 3:05.50 | 102250 | 116174
10 | 25:49.00 | 3:10.38 | 116175 | 130462
11 | 28:59.38 | 2:36.22 | 130463 | 142184


Track 1

Filename C:\oneanight\01 - [Sittin' On] The Dock Of The Bay.wav

Pre-gap length 0:00:02.00

Peak level 72.1 %
Extraction speed 4.1 X
Track quality 100.0 %
Test CRC E6FAE948
Copy CRC E6FAE948
Accurately ripped (confidence 4) [D4B1923D] (AR v2)
Copy OK

Track 2

Filename C:\oneanight\02 - I Love You More Than Words Can Say.wav

Pre-gap length 0:00:02.73

Peak level 63.4 %
Extraction speed 4.4 X
Track quality 100.0 %
Test CRC 51E6BD41
Copy CRC 51E6BD41
Accurately ripped (confidence 4) [1760305C] (AR v2)
Copy OK

Track 3

Filename C:\oneanight\03 - Let Me Come On Home.wav

Pre-gap length 0:00:03.24

Peak level 98.5 %
Extraction speed 4.7 X
Track quality 100.0 %
Test CRC 8416732D
Copy CRC 8416732D
Accurately ripped (confidence 4) [3B8E9A65] (AR v2)
Copy OK

Track 4

Filename C:\oneanight\04 - Open The Door.wav

Pre-gap length 0:00:02.20

Peak level 100.0 %
Extraction speed 3.7 X
Track quality 99.9 %
Test CRC C96B947A
Copy CRC C96B947A
Accurately ripped (confidence 4) [6A07FB8F] (AR v2)
Copy OK

Track 5

Filename C:\oneanight\05 - Don't Mess With Cupid.wav

Pre-gap length 0:00:01.53

Peak level 91.2 %
Extraction speed 5.0 X
Track quality 100.0 %
Test CRC BDF90BCE
Copy CRC BDF90BCE
Accurately ripped (confidence 4) [AB1A0BA0] (AR v2)
Copy OK

Track 6

Filename C:\oneanight\06 - Glory Of Love.wav

Pre-gap length 0:00:03.96

Peak level 70.7 %
Extraction speed 5.5 X
Track quality 100.0 %
Test CRC 7BA748D1
Copy CRC 7BA748D1
Accurately ripped (confidence 4) [19C58761] (AR v2)
Copy OK

Track 7

Filename C:\oneanight\07 - I'm Coming Home To See About You.wav

Pre-gap length 0:00:02.20

Peak level 98.3 %
Extraction speed 4.6 X
Track quality 99.9 %
Test CRC AAAF4B3A
Copy CRC AAAF4B3A
Accurately ripped (confidence 4) [DDDD5827] (AR v2)
Copy OK

Track 8

Filename C:\oneanight\08 - Tramp.wav

Pre-gap length 0:00:04.13

Peak level 100.0 %
Extraction speed 6.1 X
Track quality 100.0 %
Test CRC AB86AED5
Copy CRC AB86AED5
Accurately ripped (confidence 4) [02CF6D9F] (AR v2)
Copy OK

Track 9

Filename C:\oneanight\09 - The Huckle-Buck.wav

Pre-gap length 0:00:01.86

Peak level 96.5 %
Extraction speed 6.3 X
Track quality 100.0 %
Test CRC 9E2B416E
Copy CRC 9E2B416E
Accurately ripped (confidence 4) [E75809F6] (AR v2)
Copy OK

Track 10

Filename C:\oneanight\10 - Nobody Knows You [When You're Down And Out].wav

Pre-gap length 0:00:03.09

Peak level 100.0 %
Extraction speed 6.4 X
Track quality 100.0 %
Test CRC 1D24F311
Copy CRC 1D24F311
Accurately ripped (confidence 4) [462DE71E] (AR v2)
Copy OK

Track 11

Filename C:\oneanight\11 - Ole Man Trouble.wav

Pre-gap length 0:00:02.53

Peak level 100.0 %
Extraction speed 6.6 X
Track quality 100.0 %
Test CRC FBC568BF
Copy CRC FBC568BF
Accurately ripped (confidence 4) [291B07E5] (AR v2)
Copy OK


All tracks accurately ripped

No errors occurred

End of status report

–– CUETools DB Plugin V2.1.4

[CTDB TOCID: BjqXr.bq9045mdqzO1Qwj5vuiNE-] found
Submit result: BjqXr.bq9045mdqzO1Qwj5vuiNE- has been confirmed
Track | CTDB Status
1 | (19/32) Accurately ripped
2 | (32/32) Accurately ripped
3 | (32/32) Accurately ripped
4 | (32/32) Accurately ripped
5 | (32/32) Accurately ripped
6 | (19/32) Accurately ripped
7 | (32/32) Accurately ripped
8 | (19/32) Accurately ripped
9 | (19/32) Accurately ripped
10 | (32/32) Accurately ripped
11 | (19/32) Accurately ripped


==== Log checksum 4936932C10DD9E67D5855E59C443235805D120BE111D8D4FB59D51EE825BFA10 ====


foobar2000 1.2.9 / Dynamic Range Meter 1.1.1
log date: 2017-07-14 19:22:23

––––––––––––––––––––––––––––––––––––––––
Analyzed: Otis Redding / The Dock Of The Bay
––––––––––––––––––––––––––––––––––––––––

DR Peak RMS Duration Track
––––––––––––––––––––––––––––––––––––––––
DR12 -2.84 dB -18.40 dB 2:46 01-[Sittin' On] The Dock Of The Bay
DR12 -3.95 dB -18.94 dB 2:57 02-I Love You More Than Words Can Say
DR15 -0.13 dB -18.61 dB 2:54 03-Let Me Come On Home
DR14 0.00 dB -19.90 dB 2:25 04-Open The Door
DR13 -0.80 dB -15.55 dB 2:34 05-Don't Mess With Cupid
DR12 -3.00 dB -20.64 dB 3:00 06-Glory Of Love
DR16 -0.15 dB -17.96 dB 3:04 07-I'm Coming Home To See About You
DR14 0.00 dB -19.23 dB 3:03 08-Tramp
DR14 -0.31 dB -17.66 dB 3:06 09-The Huckle-Buck
DR14 0.00 dB -17.48 dB 3:11 10-Nobody Knows You [When You're Down And Out]
DR14 0.00 dB -17.40 dB 2:36 11-Ole Man Trouble
––––––––––––––––––––––––––––––––––––––––

Number of tracks: 11
Official DR value: DR14

Samplerate: 44100 Hz
Channels: 2
Bits per sample: 16
Bitrate: 658 kbps
Codec: FLAC
================================================================================



[CUETools log; Date: 14.07.2017 19:22:16; Version: 2.1.4]
[CTDB TOCID: BjqXr.bq9045mdqzO1Qwj5vuiNE-] found.
Track | CTDB Status
1 | (121/183) Accurately ripped
2 | (182/183) Accurately ripped
3 | (183/183) Accurately ripped
4 | (182/183) Accurately ripped
5 | (181/183) Accurately ripped
6 | (125/183) Accurately ripped
7 | (181/183) Accurately ripped
8 | (123/183) Accurately ripped
9 | (123/183) Accurately ripped
10 | (180/183) Accurately ripped
11 | (123/183) Accurately ripped
[AccurateRip ID: 000cda01-006fcf85-9a07670b] found.
Track [ CRC | V2 ] Status
01 [99d8652a|d4b1923d] (000+021/168) Accurately ripped
02 [759c66f9|1760305c] (000+021/170) Accurately ripped
03 [569c37e4|3b8e9a65] (000+021/171) Accurately ripped
04 [7d571a38|6a07fb8f] (000+021/171) Accurately ripped
05 [81d5f86a|ab1a0ba0] (000+021/171) Accurately ripped
06 [e3247700|19c58761] (000+021/171) Accurately ripped
07 [53b40ec7|dddd5827] (000+021/170) Accurately ripped
08 [a9269831|02cf6d9f] (000+021/170) Accurately ripped
09 [4bd439c0|e75809f6] (000+021/171) Accurately ripped
10 [de1cc366|462de71e] (000+021/168) Accurately ripped
11 [78d1388d|291b07e5] (000+021/168) Accurately ripped
Offsetted by 36:
01 [7f3307e6] (036/168) Accurately ripped
02 [becc279e] (037/170) Accurately ripped
03 [26dc496c] (037/171) Accurately ripped
04 [c2452cdc] (037/171) Accurately ripped
05 [8ba2b868] (037/171) Accurately ripped
06 [1967922d] (037/171) Accurately ripped
07 [d0a4e592] (037/170) Accurately ripped
08 [f4dfbcb6] (037/170) Accurately ripped
09 [899a76fc] (038/171) Accurately ripped
10 [aeab42e0] (037/168) Accurately ripped
11 [bdcbd245] (036/168) Accurately ripped
Offsetted by -35:
01 [cd4a3942] (000/168) No match (V2 was not tested)
02 [61a7e760] (000/170) No match (V2 was not tested)
03 [3371c58b] (000/171) No match (V2 was not tested)
04 [480fc427] (000/171) No match (V2 was not tested)
05 [e3847f64] (000/171) No match (V2 was not tested)
06 [53574869] (000/171) No match (V2 was not tested)
07 [8ea09c79] (000/170) No match (V2 was not tested)
08 [c62adf04] (000/170) No match (V2 was not tested)
09 [545e7821] (000/171) No match (V2 was not tested)
10 [d2aebdde] (000/168) No match (V2 was not tested)
11 [8f8db7c4] (000/168) No match (V2 was not tested)
Offsetted by 42:
01 [1cc793a0] (000/168) No match (V2 was not tested)
02 [955c46ad] (000/170) No match (V2 was not tested)
03 [536e4d21] (000/171) No match (V2 was not tested)
04 [b446e616] (000/171) No match (V2 was not tested)
05 [d93861f3] (000/171) No match (V2 was not tested)
06 [08c4aa36] (000/171) No match (V2 was not tested)
07 [ae52c891] (000/170) No match (V2 was not tested)
08 [176d4bfa] (000/170) No match (V2 was not tested)
09 [c79e8c06] (000/171) No match (V2 was not tested)
10 [efdac2e4] (000/168) No match (V2 was not tested)
11 [c210152a] (000/168) No match (V2 was not tested)
Offsetted by 700:
01 [64f46264] (000/168) No match (V2 was not tested)
02 [ee932872] (025/170) Accurately ripped
03 [8fa1f189] (026/171) Accurately ripped
04 [d97591b2] (026/171) Accurately ripped
05 [fd0c0a4b] (026/171) Accurately ripped
06 [09b795d5] (000/171) No match (V2 was not tested)
07 [0d6db235] (025/170) Accurately ripped
08 [a6bf737d] (000/170) No match (V2 was not tested)
09 [40b7205a] (000/171) No match (V2 was not tested)
10 [480f3827] (024/168) Accurately ripped
11 [b0290cf5] (000/168) No match (V2 was not tested)

Track Peak [ CRC32 ] [W/O NULL] [ LOG ]
– 100,0 [21965E2F] [C5A84087]
01 72,1 [E6FAE948] [E6D9C935] CRC32
02 63,4 [51E6BD41] [8A9D7CAA] CRC32
03 98,5 [8416732D] [33EFA51A] CRC32
04 100,0 [C96B947A] [3BB95454] CRC32
05 91,2 [BDF90BCE] [F5287775] CRC32
06 70,7 [7BA748D1] [04585680] CRC32
07 98,3 [AAAF4B3A] [1DBE17A6] CRC32
08 100,0 [AB86AED5] [8572BE8A] CRC32
09 96,5 [9E2B416E] [ED2CBFA8] CRC32
10 100,0 [1D24F311] [5E070724] CRC32
11 100,0 [FBC568BF] [BE0A42A1] CRC32


Otis Redding - Original Album Series Vol. 2 (2013) [5CD Box Set]

Tracklist CD03 - In Person At The Whisky A Go Go (1968):

01. I Can't Turn You Loose (04:45)
02. Pain In My Heart (02:13)
03. Just One More Day (05:25)
04. Mr. Pitiful (02:06)
05. (I Can't Get No) Satisfaction (04:38)
06. I'm Depending On You (03:01)
07. Any Ole Way (02:42)
08. These Arms Of Mine (04:01)
09. Papa's Got A Brand New Bag (04:45)
10. Respect (02:06)

Converted to Image (CUETools 2.1.4)

Exact Audio Copy V1.0 beta 3 from 29. August 2011

EAC extraction logfile from 2. March 2014, 0:14

Otis Redding / In Person at the Whisky A Go Go

Used drive : HL-DT-STBD-RE GGW-H20L Adapter: 0 ID: 2

Read mode : Secure
Utilize accurate stream : Yes
Defeat audio cache : Yes
Make use of C2 pointers : No

Read offset correction : 667
Overread into Lead-In and Lead-Out : No
Fill up missing offset samples with silence : Yes
Delete leading and trailing silent blocks : No
Null samples used in CRC calculations : Yes
Used interface : Native Win32 interface for Win NT & 2000
Gap handling : Appended to previous track

Used output format : User Defined Encoder
Selected bitrate : 1024 kBit/s
Quality : High
Add ID3 tag : No
Command line compressor : C:\Program Files\Exact Audio Copy\FLAC\FLAC.EXE
Additional command line options : -8 -V -T "ARTIST=%artist%" -T "TITLE=%title%" -T "ALBUM=%albumtitle%" -T "DATE=%year%" -T "TRACKNUMBER=%tracknr%" -T "GENRE=%genre%" -T "PERFORMER=%albuminterpret%" -T "COMPOSER=%composer%" %haslyrics%–tag-from-file=LYRICS="%lyricsfile%"%haslyrics% -T "ALBUMARTIST=%albumartist%" -T "ALBUM ARTIST=%albumartist%" -T "DISCNUMBER=%cdnumber%" -T "TOTALDISCS=%totalcds%" -T "TOTALTRACKS=%numtracks%" -T "COMMENT=EAC V1.0 beta 3, Secure Mode, Test & Copy, AccurateRip, FLAC - 8 - oan" %source% -o %dest%


TOC of the extracted CD

Track | Start | Length | Start sector | End sector
––––––––––––––––––––––––––––-
1 | 0:00.00 | 4:45.73 | 0 | 21447
2 | 4:45.73 | 2:13.42 | 21448 | 31464
3 | 6:59.40 | 5:25.45 | 31465 | 55884
4 | 12:25.10 | 2:06.68 | 55885 | 65402
5 | 14:32.03 | 4:38.22 | 65403 | 86274
6 | 19:10.25 | 3:01.58 | 86275 | 99907
7 | 22:12.08 | 2:42.45 | 99908 | 112102
8 | 24:54.53 | 4:01.15 | 112103 | 130192
9 | 28:55.68 | 4:45.67 | 130193 | 151634
10 | 33:41.60 | 2:06.00 | 151635 | 161084


Track 1

Filename C:\oneanight\01 - I Can't Turn You Loose.wav

Pre-gap length 0:00:02.00

Peak level 97.1 %
Extraction speed 4.6 X
Track quality 100.0 %
Test CRC B3F32473
Copy CRC B3F32473
Accurately ripped (confidence 4) [FD8A1640] (AR v2)
Copy OK

Track 2

Filename C:\oneanight\02 - Pain In My Heart.wav

Peak level 94.4 %
Extraction speed 4.4 X
Track quality 100.0 %
Test CRC 70701E7D
Copy CRC 70701E7D
Accurately ripped (confidence 4) [30A92D5C] (AR v2)
Copy OK

Track 3

Filename C:\oneanight\03 - Just One More Day.wav

Peak level 92.7 %
Extraction speed 5.5 X
Track quality 100.0 %
Test CRC 69F88785
Copy CRC 69F88785
Accurately ripped (confidence 4) [75979BB2] (AR v2)
Copy OK

Track 4

Filename C:\oneanight\04 - Mr. Pitiful.wav

Peak level 89.5 %
Extraction speed 5.1 X
Track quality 100.0 %
Test CRC 02F89E38
Copy CRC 02F89E38
Accurately ripped (confidence 4) [07EEB62D] (AR v2)
Copy OK

Track 5

Filename C:\oneanight\05 - Satisfaction.wav

Peak level 97.4 %
Extraction speed 6.2 X
Track quality 100.0 %
Test CRC 2D0AA578
Copy CRC 2D0AA578
Accurately ripped (confidence 4) [4181DB3F] (AR v2)
Copy OK

Track 6

Filename C:\oneanight\06 - I'm Depending On You.wav

Peak level 88.0 %
Extraction speed 5.9 X
Track quality 100.0 %
Test CRC F39CB842
Copy CRC F39CB842
Accurately ripped (confidence 4) [B08DBA4E] (AR v2)
Copy OK

Track 7

Filename C:\oneanight\07 - Any Ole Way.wav

Peak level 88.7 %
Extraction speed 5.9 X
Track quality 100.0 %
Test CRC CA336373
Copy CRC CA336373
Accurately ripped (confidence 4) [2C307CE2] (AR v2)
Copy OK

Track 8

Filename C:\oneanight\08 - These Arms Of Mine.wav

Peak level 82.7 %
Extraction speed 6.6 X
Track quality 100.0 %
Test CRC 03F1FF4B
Copy CRC 03F1FF4B
Accurately ripped (confidence 4) [1279808B] (AR v2)
Copy OK

Track 9

Filename C:\oneanight\09 - Papa's Got A Brand New Bag.wav

Peak level 79.4 %
Extraction speed 7.3 X
Track quality 100.0 %
Test CRC 1516590C
Copy CRC 1516590C
Accurately ripped (confidence 4) [A3F1288D] (AR v2)
Copy OK

Track 10

Filename C:\oneanight\10 - Respect.wav

Peak level 100.0 %
Extraction speed 6.7 X
Track quality 100.0 %
Test CRC 01990D9C
Copy CRC 01990D9C
Accurately ripped (confidence 4) [4B183A1A] (AR v2)
Copy OK


All tracks accurately ripped

No errors occurred

End of status report

–– CUETools DB Plugin V2.1.4

[CTDB TOCID: xGaoRTfzANMxeZBukZWTtKiv_tE-] found
Submit result: xGaoRTfzANMxeZBukZWTtKiv_tE- has been confirmed
Track | CTDB Status
1 | (16/16) Accurately ripped
2 | (16/16) Accurately ripped
3 | (16/16) Accurately ripped
4 | (16/16) Accurately ripped
5 | (16/16) Accurately ripped
6 | (16/16) Accurately ripped
7 | (16/16) Accurately ripped
8 | (16/16) Accurately ripped
9 | (16/16) Accurately ripped
10 | (16/16) Accurately ripped


==== Log checksum 5C0515B94A8280C58759B49EFF30086D3CD1053C28F8668C0312EB33959DE290 ====


foobar2000 1.2.9 / Dynamic Range Meter 1.1.1
log date: 2017-07-14 19:22:39

––––––––––––––––––––––––––––––––––––––––
Analyzed: Otis Redding / In Person at the Whisky A Go Go
––––––––––––––––––––––––––––––––––––––––

DR Peak RMS Duration Track
––––––––––––––––––––––––––––––––––––––––
DR12 -0.25 dB -13.58 dB 4:46 01-I Can't Turn You Loose
DR12 -0.49 dB -15.46 dB 2:14 02-Pain In My Heart
DR14 -0.65 dB -17.47 dB 5:26 03-Just One More Day
DR12 -0.96 dB -15.00 dB 2:07 04-Mr. Pitiful
DR12 -0.23 dB -13.21 dB 4:38 05-I Can't Get No] Satisfaction
DR12 -1.11 dB -14.68 dB 3:02 06-I'm Depending On You
DR12 -1.04 dB -15.36 dB 2:43 07-Any Ole Way
DR13 -1.65 dB -17.96 dB 4:01 08-These Arms Of Mine
DR12 -2.00 dB -15.99 dB 4:46 09-Papa's Got A Brand New Bag
DR12 0.00 dB -14.76 dB 2:06 10-Respect
––––––––––––––––––––––––––––––––––––––––

Number of tracks: 10
Official DR value: DR12

Samplerate: 44100 Hz
Channels: 2
Bits per sample: 16
Bitrate: 872 kbps
Codec: FLAC
================================================================================



[CUETools log; Date: 14.07.2017 19:22:30; Version: 2.1.4]
[CTDB TOCID: xGaoRTfzANMxeZBukZWTtKiv_tE-] found.
Track | CTDB Status
1 | (87/89) Accurately ripped
2 | (87/89) Accurately ripped
3 | (87/89) Accurately ripped
4 | (87/89) Accurately ripped
5 | (87/89) Accurately ripped
6 | (87/89) Accurately ripped
7 | (87/89) Accurately ripped
8 | (87/89) Accurately ripped
9 | (87/89) Accurately ripped
10 | (89/89) Accurately ripped
[AccurateRip ID: 000df7c8-006ece03-8008630a] found.
Track [ CRC | V2 ] Status
01 [19ab83da|fd8a1640] (00+21/64) Accurately ripped
02 [bb99420d|30a92d5c] (00+21/64) Accurately ripped
03 [2f5e4c47|75979bb2] (00+21/65) Accurately ripped
04 [4196e98a|07eeb62d] (00+20/65) Accurately ripped
05 [10f18e0c|4181db3f] (00+21/65) Accurately ripped
06 [c78df789|b08dba4e] (00+21/64) Accurately ripped
07 [3a2b218c|2c307ce2] (00+21/65) Accurately ripped
08 [ff01100f|1279808b] (00+21/65) Accurately ripped
09 [40f7e341|a3f1288d] (00+21/65) Accurately ripped
10 [743d3770|4b183a1a] (00+21/62) Accurately ripped
Offsetted by 700:
01 [67115c7f] (16/64) Accurately ripped
02 [702b9975] (16/64) Accurately ripped
03 [42482a89] (17/65) Accurately ripped
04 [578a2914] (18/65) Accurately ripped
05 [52c05370] (18/65) Accurately ripped
06 [eb9eb89c] (17/64) Accurately ripped
07 [c4b7c43a] (18/65) Accurately ripped
08 [be9eff55] (17/65) Accurately ripped
09 [1d0ce0b5] (18/65) Accurately ripped
10 [834146c8] (16/62) Accurately ripped
Offsetted by 42:
01 [d3e5b473] (00/64) No match (V2 was not tested)
02 [7a61881e] (00/64) No match (V2 was not tested)
03 [dfb70594] (00/65) No match (V2 was not tested)
04 [31e66166] (00/65) No match (V2 was not tested)
05 [2b05208b] (00/65) No match (V2 was not tested)
06 [3383b3e4] (00/64) No match (V2 was not tested)
07 [7f4ffafb] (00/65) No match (V2 was not tested)
08 [2453bd96] (00/65) No match (V2 was not tested)
09 [17cf5a31] (00/65) No match (V2 was not tested)
10 [5fcccc8f] (00/62) No match (V2 was not tested)

Track Peak [ CRC32 ] [W/O NULL] [ LOG ]
– 100,0 [588FD528] [4E45507F]
01 97,1 [B3F32473] [B9BBAF9F] CRC32
02 94,4 [70701E7D] [5B5F02DA] CRC32
03 92,7 [69F88785] [27B57C51] CRC32
04 89,5 [02F89E38] [8FE775F1] CRC32
05 97,4 [2D0AA578] [D9544D68] CRC32
06 88,0 [F39CB842] [4C10921D] CRC32
07 88,7 [CA336373] [DEEDA902] CRC32
08 82,7 [03F1FF4B] [C529C92D] CRC32
09 79,4 [1516590C] [A72D40FB] CRC32
10 100,0 [01990D9C] [B7BBBA0F] CRC32


Otis Redding - Original Album Series Vol. 2 (2013) [5CD Box Set]

Tracklist CD04 - Love Man (1969):

01. I'm a Changed Man (02:18)
02. (Your Love Has Lifted Me) Higher and Higher (03:06)
03. That's a Good Idea (02:19)
04. I'll Let Nothing Separate us (02:54)
05. Direct Me (02:18)
06. Love Man (02:19)
07. Groovin' Time (02:48)
08. Your Feeling Is Mine (02:21)
09. Got to Get Myself Together (02:28)
10. Free Me (03:08)
11. A Lover's Question (02:54)
12. Look at That Girl (02:37)

Converted to Image (CUETools 2.1.4)

Exact Audio Copy V1.0 beta 3 from 29. August 2011

EAC extraction logfile from 2. March 2014, 0:36

Otis Redding / Love Man

Used drive : HL-DT-STBD-RE GGW-H20L Adapter: 0 ID: 2

Read mode : Secure
Utilize accurate stream : Yes
Defeat audio cache : Yes
Make use of C2 pointers : No

Read offset correction : 667
Overread into Lead-In and Lead-Out : No
Fill up missing offset samples with silence : Yes
Delete leading and trailing silent blocks : No
Null samples used in CRC calculations : Yes
Used interface : Native Win32 interface for Win NT & 2000
Gap handling : Appended to previous track

Used output format : User Defined Encoder
Selected bitrate : 1024 kBit/s
Quality : High
Add ID3 tag : No
Command line compressor : C:\Program Files\Exact Audio Copy\FLAC\FLAC.EXE
Additional command line options : -8 -V -T "ARTIST=%artist%" -T "TITLE=%title%" -T "ALBUM=%albumtitle%" -T "DATE=%year%" -T "TRACKNUMBER=%tracknr%" -T "GENRE=%genre%" -T "PERFORMER=%albuminterpret%" -T "COMPOSER=%composer%" %haslyrics%–tag-from-file=LYRICS="%lyricsfile%"%haslyrics% -T "ALBUMARTIST=%albumartist%" -T "ALBUM ARTIST=%albumartist%" -T "DISCNUMBER=%cdnumber%" -T "TOTALDISCS=%totalcds%" -T "TOTALTRACKS=%numtracks%" -T "COMMENT=EAC V1.0 beta 3, Secure Mode, Test & Copy, AccurateRip, FLAC - 8 - oan" %source% -o %dest%


TOC of the extracted CD

Track | Start | Length | Start sector | End sector
––––––––––––––––––––––––––––-
1 | 0:00.00 | 2:18.40 | 0 | 10389
2 | 2:18.40 | 3:06.13 | 10390 | 24352
3 | 5:24.53 | 2:19.35 | 24353 | 34812
4 | 7:44.13 | 2:54.27 | 34813 | 47889
5 | 10:38.40 | 2:18.68 | 47890 | 58307
6 | 12:57.33 | 2:19.22 | 58308 | 68754
7 | 15:16.55 | 2:48.38 | 68755 | 81392
8 | 18:05.18 | 2:21.65 | 81393 | 92032
9 | 20:27.08 | 2:28.27 | 92033 | 103159
10 | 22:55.35 | 3:08.18 | 103160 | 117277
11 | 26:03.53 | 2:54.62 | 117278 | 130389
12 | 28:58.40 | 2:37.18 | 130390 | 142182


Track 1

Filename C:\oneanight\01 - I'm a Changed Man.wav

Pre-gap length 0:00:02.00

Peak level 97.6 %
Extraction speed 4.0 X
Track quality 100.0 %
Test CRC 117B6502
Copy CRC 117B6502
Accurately ripped (confidence 4) [D82FA5D9] (AR v2)
Copy OK

Track 2

Filename C:\oneanight\02 - [Your Love Has Lifted Me] Higher and Higher.wav

Pre-gap length 0:00:01.72

Peak level 100.0 %
Extraction speed 4.4 X
Track quality 100.0 %
Test CRC 2AC5DBC8
Copy CRC 2AC5DBC8
Accurately ripped (confidence 4) [5B36F140] (AR v2)
Copy OK

Track 3

Filename C:\oneanight\03 - That's a Good Idea.wav

Pre-gap length 0:00:02.52

Peak level 99.7 %
Extraction speed 4.6 X
Track quality 100.0 %
Test CRC 5DC73A98
Copy CRC 5DC73A98
Accurately ripped (confidence 4) [7D7D3D5F] (AR v2)
Copy OK

Track 4

Filename C:\oneanight\04 - I'll Let Nothing Separate us.wav

Pre-gap length 0:00:01.73

Peak level 87.1 %
Extraction speed 5.0 X
Track quality 100.0 %
Test CRC 7EF6BDE4
Copy CRC 7EF6BDE4
Accurately ripped (confidence 4) [2EE0A286] (AR v2)
Copy OK

Track 5

Filename C:\oneanight\05 - Direct Me.wav

Pre-gap length 0:00:02.60

Peak level 99.9 %
Extraction speed 5.1 X
Track quality 100.0 %
Test CRC 27F75D1A
Copy CRC 27F75D1A
Accurately ripped (confidence 4) [4C80DE19] (AR v2)
Copy OK

Track 6

Filename C:\oneanight\06 - Love Man.wav

Pre-gap length 0:00:01.80

Peak level 100.0 %
Extraction speed 5.1 X
Track quality 100.0 %
Test CRC DDFB6E3F
Copy CRC DDFB6E3F
Accurately ripped (confidence 4) [A0F9BCB8] (AR v2)
Copy OK

Track 7

Filename C:\oneanight\07 - Groovin' Time.wav

Pre-gap length 0:00:02.20

Peak level 100.0 %
Extraction speed 5.5 X
Track quality 100.0 %
Test CRC 7D55B48D
Copy CRC 7D55B48D
Accurately ripped (confidence 4) [FB66CB19] (AR v2)
Copy OK

Track 8

Filename C:\oneanight\08 - Your Feeling Is Mine.wav

Pre-gap length 0:00:02.10

Peak level 100.0 %
Extraction speed 5.6 X
Track quality 100.0 %
Test CRC 49F6DD0D
Copy CRC 49F6DD0D
Accurately ripped (confidence 4) [28FD77C9] (AR v2)
Copy OK

Track 9

Filename C:\oneanight\09 - Got to Get Myself Together.wav

Pre-gap length 0:00:02.40

Peak level 99.9 %
Extraction speed 4.4 X
Track quality 99.9 %
Test CRC 48533692
Copy CRC 48533692
Accurately ripped (confidence 4) [9585410B] (AR v2)
Copy OK

Track 10

Filename C:\oneanight\10 - Free Me.wav

Pre-gap length 0:00:02.56

Peak level 100.0 %
Extraction speed 5.0 X
Track quality 99.9 %
Test CRC 87E376DA
Copy CRC 87E376DA
Accurately ripped (confidence 4) [CD9866B5] (AR v2)
Copy OK

Track 11

Filename C:\oneanight\11 - A Lover's Question.wav

Pre-gap length 0:00:02.60

Peak level 100.0 %
Extraction speed 6.3 X
Track quality 100.0 %
Test CRC C7260966
Copy CRC C7260966
Accurately ripped (confidence 4) [6AA37BA5] (AR v2)
Copy OK

Track 12

Filename C:\oneanight\12 - Look at That Girl.wav

Pre-gap length 0:00:01.86

Peak level 100.0 %
Extraction speed 6.6 X
Track quality 100.0 %
Test CRC 57F38415
Copy CRC 57F38415
Accurately ripped (confidence 4) [95A1DF64] (AR v2)
Copy OK


All tracks accurately ripped

No errors occurred

End of status report

–– CUETools DB Plugin V2.1.4

[CTDB TOCID: sN.9Ld279xIXqvcEFXNikPqZogc-] found
Submit result: sN.9Ld279xIXqvcEFXNikPqZogc- has been confirmed
Track | CTDB Status
1 | (7/8) Accurately ripped
2 | (7/8) Accurately ripped
3 | (7/8) Accurately ripped
4 | (7/8) Accurately ripped
5 | (7/8) Accurately ripped
6 | (7/8) Accurately ripped
7 | (7/8) Accurately ripped
8 | (7/8) Accurately ripped
9 | (7/8) Accurately ripped
10 | (7/8) Accurately ripped
11 | (7/8) Accurately ripped
12 | (7/8) Accurately ripped


==== Log checksum 8722DB56AC9127DE35D232EFFCAA15E39ABDCC9984F140BFD740196557884495 ====


foobar2000 1.2.9 / Dynamic Range Meter 1.1.1
log date: 2017-07-14 19:22:51

––––––––––––––––––––––––––––––––––––––––
Analyzed: Otis Redding / Love Man
––––––––––––––––––––––––––––––––––––––––

DR Peak RMS Duration Track
––––––––––––––––––––––––––––––––––––––––
DR13 -0.20 dB -16.20 dB 2:19 01-I'm a Changed Man
DR12 0.00 dB -16.98 dB 3:06 02-[Your Love Has Lifted Me] Higher and Higher
DR13 -0.02 dB -16.51 dB 2:19 03-That's a Good Idea
DR14 -1.19 dB -19.87 dB 2:54 04-I'll Let Nothing Separate us
DR14 -0.01 dB -16.80 dB 2:19 05-Direct Me
DR12 0.00 dB -15.77 dB 2:19 06-Love Man
DR13 0.00 dB -16.64 dB 2:49 07-Groovin' Time
DR11 0.00 dB -15.69 dB 2:22 08-Your Feeling Is Mine
DR12 0.00 dB -14.71 dB 2:28 09-Got to Get Myself Together
DR14 0.00 dB -18.87 dB 3:08 10-Free Me
DR15 0.00 dB -16.87 dB 2:55 11-A Lover's Question
DR13 0.00 dB -16.97 dB 2:37 12-Look at That Girl
––––––––––––––––––––––––––––––––––––––––

Number of tracks: 12
Official DR value: DR13

Samplerate: 44100 Hz
Channels: 2
Bits per sample: 16
Bitrate: 795 kbps
Codec: FLAC
================================================================================



[CUETools log; Date: 14.07.2017 19:22:44; Version: 2.1.4]
[CTDB TOCID: sN.9Ld279xIXqvcEFXNikPqZogc-] found.
Track | CTDB Status
1 | (40/67) Accurately ripped
2 | (40/67) Accurately ripped
3 | (40/67) Accurately ripped
4 | (40/67) Accurately ripped
5 | (40/67) Accurately ripped
6 | (40/67) Accurately ripped
7 | (40/67) Accurately ripped
8 | (40/67) Accurately ripped
9 | (40/67) Accurately ripped
10 | (40/67) Accurately ripped
11 | (40/67) Accurately ripped
12 | (40/67) Accurately ripped
[AccurateRip ID: 000de662-0081f8c9-a207670c] found.
Track [ CRC | V2 ] Status
01 [62594755|d82fa5d9] (00+22/59) Accurately ripped
02 [46513094|5b36f140] (00+22/59) Accurately ripped
03 [99ddd9eb|7d7d3d5f] (00+22/59) Accurately ripped
04 [5e63e8af|2ee0a286] (00+22/59) Accurately ripped
05 [5c48c784|4c80de19] (00+22/59) Accurately ripped
06 [ddff66c1|a0f9bcb8] (00+22/59) Accurately ripped
07 [50773864|fb66cb19] (00+22/59) Accurately ripped
08 [f617c37a|28fd77c9] (00+22/59) Accurately ripped
09 [ec2d8314|9585410b] (00+22/59) Accurately ripped
10 [b07fa1f3|cd9866b5] (00+22/59) Accurately ripped
11 [c3851a19|6aa37ba5] (00+22/59) Accurately ripped
12 [ad3f77c4|95a1df64] (00+22/59) Accurately ripped
Offsetted by 658:
01 [97b8f5f9] (06/59) Accurately ripped
02 [808392a9] (06/59) Accurately ripped
03 [6d1397d9] (06/59) Accurately ripped
04 [2f5046fc] (06/59) Accurately ripped
05 [77aeb43f] (06/59) Accurately ripped
06 [a4b07616] (06/59) Accurately ripped
07 [cb8dcd42] (06/59) Accurately ripped
08 [a5fe36fe] (06/59) Accurately ripped
09 [0e80732b] (06/59) Accurately ripped
10 [9014c757] (06/59) Accurately ripped
11 [2300676c] (06/59) Accurately ripped
12 [f33b18e5] (06/59) Accurately ripped
Offsetted by -6:
01 [2b164644] (00/59) No match (V2 was not tested)
02 [f12d8f77] (00/59) No match (V2 was not tested)
03 [5ead5cf1] (00/59) No match (V2 was not tested)
04 [4279eb84] (00/59) No match (V2 was not tested)
05 [3a43b4a7] (00/59) No match (V2 was not tested)
06 [0283cdcd] (00/59) No match (V2 was not tested)
07 [c6000fab] (00/59) No match (V2 was not tested)
08 [957b578e] (00/59) No match (V2 was not tested)
09 [c3630bb4] (00/59) No match (V2 was not tested)
10 [6a01a8e7] (00/59) No match (V2 was not tested)
11 [5897678a] (00/59) No match (V2 was not tested)
12 [bd77d5fc] (00/59) No match (V2 was not tested)
Offsetted by 670:
01 [72d184ca] (00/59) No match (V2 was not tested)
02 [c60f46da] (00/59) No match (V2 was not tested)
03 [f2f96ad6] (00/59) No match (V2 was not tested)
04 [09ce997f] (00/59) No match (V2 was not tested)
05 [bb7bf6c7] (00/59) No match (V2 was not tested)
06 [4769ecc9] (00/59) No match (V2 was not tested)
07 [a86e1efe] (00/59) No match (V2 was not tested)
08 [8d517286] (00/59) No match (V2 was not tested)
09 [35bb8c0a] (00/59) No match (V2 was not tested)
10 [20610e2e] (00/59) No match (V2 was not tested)
11 [facc15d2] (00/59) No match (V2 was not tested)
12 [280cc771] (00/59) No match (V2 was not tested)
Offsetted by 676:
01 [88217bf4] (00/59) No match (V2 was not tested)
02 [d2e71257] (00/59) No match (V2 was not tested)
03 [a36173b6] (00/59) No match (V2 was not tested)
04 [74e3ee8c] (00/59) No match (V2 was not tested)
05 [73f7828f] (00/59) No match (V2 was not tested)
06 [220585dc] (00/59) No match (V2 was not tested)
07 [089c7383] (00/59) No match (V2 was not tested)
08 [77f8cbbc] (00/59) No match (V2 was not tested)
09 [89f1d86f] (00/59) No match (V2 was not tested)
10 [bcf25c00] (00/59) No match (V2 was not tested)
11 [1cfcc863] (00/59) No match (V2 was not tested)
12 [174c696f] (00/59) No match (V2 was not tested)

Track Peak [ CRC32 ] [W/O NULL] [ LOG ]
– 100,0 [9C8874FF] [683FA055]
01 97,6 [117B6502] [64B2C964] CRC32
02 100,0 [2AC5DBC8] [09DE8E67] CRC32
03 99,7 [5DC73A98] [E0B455D3] CRC32
04 87,1 [7EF6BDE4] [972A8200] CRC32
05 99,9 [27F75D1A] [85630B50] CRC32
06 100,0 [DDFB6E3F] [03C005A3] CRC32
07 100,0 [7D55B48D] [F24277EC] CRC32
08 100,0 [49F6DD0D] [05FA45BD] CRC32
09 99,9 [48533692] [3914D053] CRC32
10 100,0 [87E376DA] [28590733] CRC32
11 100,0 [C7260966] [18EC3FAF] CRC32
12 100,0 [57F38415] [3094AE53] CRC32


Otis Redding - Original Album Series Vol. 2 (2013) [5CD Box Set]

Tracklist CD05 - Tell The Truth (1970):

01. Demonstration (02:25)
02. Tell The Truth (03:11)
03. Out Of Sight (02:18)
04. Give Away None Of My Love (02:54)
05. Wholesale Love (02:28)
06. I Got The Will (02:51)
07. Johnny's Heartbreak (02:28)
08. Snatch A Little Piece (02:13)
09. Slippn' And Slidin' (01:56)
10. Match Game (02:55)
11. Little Time (02:33)
12. Swinging On A String (02:51)

Converted to Image (CUETools 2.1.4)

Exact Audio Copy V1.0 beta 3 from 29. August 2011

EAC extraction logfile from 2. March 2014, 0:55

Otis Redding / Tell The Truth

Used drive : HL-DT-STBD-RE GGW-H20L Adapter: 0 ID: 2

Read mode : Secure
Utilize accurate stream : Yes
Defeat audio cache : Yes
Make use of C2 pointers : No

Read offset correction : 667
Overread into Lead-In and Lead-Out : No
Fill up missing offset samples with silence : Yes
Delete leading and trailing silent blocks : No
Null samples used in CRC calculations : Yes
Used interface : Native Win32 interface for Win NT & 2000
Gap handling : Appended to previous track

Used output format : User Defined Encoder
Selected bitrate : 1024 kBit/s
Quality : High
Add ID3 tag : No
Command line compressor : C:\Program Files\Exact Audio Copy\FLAC\FLAC.EXE
Additional command line options : -8 -V -T "ARTIST=%artist%" -T "TITLE=%title%" -T "ALBUM=%albumtitle%" -T "DATE=%year%" -T "TRACKNUMBER=%tracknr%" -T "GENRE=%genre%" -T "PERFORMER=%albuminterpret%" -T "COMPOSER=%composer%" %haslyrics%–tag-from-file=LYRICS="%lyricsfile%"%haslyrics% -T "ALBUMARTIST=%albumartist%" -T "ALBUM ARTIST=%albumartist%" -T "DISCNUMBER=%cdnumber%" -T "TOTALDISCS=%totalcds%" -T "TOTALTRACKS=%numtracks%" -T "COMMENT=EAC V1.0 beta 3, Secure Mode, Test & Copy, AccurateRip, FLAC - 8 - oan" %source% -o %dest%


TOC of the extracted CD

Track | Start | Length | Start sector | End sector
––––––––––––––––––––––––––––-
1 | 0:00.00 | 2:25.45 | 0 | 10919
2 | 2:25.45 | 3:11.20 | 10920 | 25264
3 | 5:36.65 | 2:18.07 | 25265 | 35621
4 | 7:54.72 | 2:54.28 | 35622 | 48699
5 | 10:49.25 | 2:28.57 | 48700 | 59856
6 | 13:18.07 | 2:51.35 | 59857 | 72716
7 | 16:09.42 | 2:28.58 | 72717 | 83874
8 | 18:38.25 | 2:13.05 | 83875 | 93854
9 | 20:51.30 | 1:56.37 | 93855 | 102591
10 | 22:47.67 | 2:55.28 | 102592 | 115744
11 | 25:43.20 | 2:33.00 | 115745 | 127219
12 | 28:16.20 | 2:51.17 | 127220 | 140061


Track 1

Filename C:\oneanight\01 - Demonstration.wav

Pre-gap length 0:00:02.00

Peak level 100.0 %
Extraction speed 4.0 X
Track quality 100.0 %
Test CRC D79B6C86
Copy CRC D79B6C86
Accurately ripped (confidence 4) [BCEA9481] (AR v2)
Copy OK

Track 2

Filename C:\oneanight\02 - Tell The Truth.wav

Pre-gap length 0:00:01.33

Peak level 100.0 %
Extraction speed 4.5 X
Track quality 100.0 %
Test CRC 90164052
Copy CRC 90164052
Accurately ripped (confidence 4) [7392D0B2] (AR v2)
Copy OK

Track 3

Filename C:\oneanight\03 - Out Of Sight.wav

Pre-gap length 0:00:02.30

Peak level 91.7 %
Extraction speed 3.4 X
Track quality 99.9 %
Test CRC F159DCCB
Copy CRC F159DCCB
Accurately ripped (confidence 4) [CEFE5F39] (AR v2)
Copy OK

Track 4

Filename C:\oneanight\04 - Give Away None Of My Love.wav

Pre-gap length 0:00:01.69

Peak level 84.9 %
Extraction speed 5.0 X
Track quality 100.0 %
Test CRC 208EB53F
Copy CRC 208EB53F
Accurately ripped (confidence 4) [DF938A46] (AR v2)
Copy OK

Track 5

Filename C:\oneanight\05 - Wholesale Love.wav

Pre-gap length 0:00:01.33

Peak level 99.8 %
Extraction speed 5.1 X
Track quality 100.0 %
Test CRC C56A7744
Copy CRC C56A7744
Accurately ripped (confidence 4) [B9444550] (AR v2)
Copy OK

Track 6

Filename C:\oneanight\06 - I Got The Will.wav

Pre-gap length 0:00:00.82

Peak level 100.0 %
Extraction speed 5.6 X
Track quality 100.0 %
Test CRC B8545C08
Copy CRC B8545C08
Accurately ripped (confidence 4) [CC09CEA6] (AR v2)
Copy OK

Track 7

Filename C:\oneanight\07 - Johnny's Heartbreak.wav

Pre-gap length 0:00:01.24

Peak level 96.9 %
Extraction speed 5.6 X
Track quality 100.0 %
Test CRC B586D04B
Copy CRC B586D04B
Accurately ripped (confidence 4) [2D13182F] (AR v2)
Copy OK

Track 8

Filename C:\oneanight\08 - Snatch A Little Piece.wav

Pre-gap length 0:00:02.97

Peak level 90.6 %
Extraction speed 5.5 X
Track quality 100.0 %
Test CRC 87498AB7
Copy CRC 87498AB7
Accurately ripped (confidence 4) [8ED91101] (AR v2)
Copy OK

Track 9

Filename C:\oneanight\09 - Slippn' And Slidin'.wav

Pre-gap length 0:00:02.50

Peak level 97.6 %
Extraction speed 4.0 X
Track quality 99.9 %
Test CRC 5A4F6F3D
Copy CRC 5A4F6F3D
Accurately ripped (confidence 4) [4BB5F745] (AR v2)
Copy OK

Track 10

Filename C:\oneanight\10 - Match Game.wav

Pre-gap length 0:00:01.90

Peak level 77.3 %
Extraction speed 6.3 X
Track quality 100.0 %
Test CRC 1ADFDD68
Copy CRC 1ADFDD68
Accurately ripped (confidence 4) [F3C2638E] (AR v2)
Copy OK

Track 11

Filename C:\oneanight\11 - Little Time.wav

Pre-gap length 0:00:01.40

Peak level 97.3 %
Extraction speed 6.2 X
Track quality 100.0 %
Test CRC B316C0DB
Copy CRC B316C0DB
Accurately ripped (confidence 4) [A27AC713] (AR v2)
Copy OK

Track 12

Filename C:\oneanight\12 - Swinging On A String.wav

Pre-gap length 0:00:02.60

Peak level 100.0 %
Extraction speed 6.7 X
Track quality 100.0 %
Test CRC 5B508E22
Copy CRC 5B508E22
Accurately ripped (confidence 4) [DF90CEBE] (AR v2)
Copy OK


All tracks accurately ripped

No errors occurred

End of status report

–– CUETools DB Plugin V2.1.4

[CTDB TOCID: dt53IyGz3WeggfpwuVYjwVwo8Sw-] found
Submit result: dt53IyGz3WeggfpwuVYjwVwo8Sw- has been confirmed
Track | CTDB Status
1 | (5/5) Accurately ripped
2 | (5/5) Accurately ripped
3 | (5/5) Accurately ripped
4 | (5/5) Accurately ripped
5 | (5/5) Accurately ripped
6 | (5/5) Accurately ripped
7 | (5/5) Accurately ripped
8 | (5/5) Accurately ripped
9 | (5/5) Accurately ripped
10 | (5/5) Accurately ripped
11 | (5/5) Accurately ripped
12 | (5/5) Accurately ripped


==== Log checksum C478808FB31D8A9663E019835FE14737452A9CB379C5F83251F8296A4FBC58E6 ====


foobar2000 1.2.9 / Dynamic Range Meter 1.1.1
log date: 2017-07-14 19:23:06

––––––––––––––––––––––––––––––––––––––––
Analyzed: Otis Redding / Tell The Truth
––––––––––––––––––––––––––––––––––––––––

DR Peak RMS Duration Track
––––––––––––––––––––––––––––––––––––––––
DR12 0.00 dB -14.02 dB 2:26 01-Demonstration
DR13 0.00 dB -15.50 dB 3:11 02-Tell The Truth
DR13 -0.75 dB -15.32 dB 2:18 03-Out Of Sight
DR11 -1.42 dB -14.83 dB 2:54 04-Give Away None Of My Love
DR12 -0.01 dB -15.50 dB 2:29 05-Wholesale Love
DR13 0.00 dB -15.73 dB 2:51 06-I Got The Will
DR15 -0.27 dB -17.23 dB 2:29 07-Johnny's Heartbreak
DR13 -0.85 dB -16.48 dB 2:13 08-Snatch A Little Piece
DR13 -0.20 dB -16.62 dB 1:56 09-Slippn' And Slidin'
DR13 -2.23 dB -17.08 dB 2:55 10-Match Game
DR14 -0.23 dB -16.80 dB 2:33 11-Little Time
DR14 0.00 dB -17.10 dB 2:51 12-Swinging On A String
––––––––––––––––––––––––––––––––––––––––

Number of tracks: 12
Official DR value: DR13

Samplerate: 44100 Hz
Channels: 2
Bits per sample: 16
Bitrate: 756 kbps
Codec: FLAC
================================================================================



[CUETools log; Date: 14.07.2017 19:22:57; Version: 2.1.4]
[CTDB TOCID: dt53IyGz3WeggfpwuVYjwVwo8Sw-] found.
Track | CTDB Status
1 | (61/61) Accurately ripped
2 | (61/61) Accurately ripped
3 | (61/61) Accurately ripped
4 | (61/61) Accurately ripped
5 | (61/61) Accurately ripped
6 | (61/61) Accurately ripped
7 | (61/61) Accurately ripped
8 | (61/61) Accurately ripped
9 | (61/61) Accurately ripped
10 | (61/61) Accurately ripped
11 | (61/61) Accurately ripped
12 | (61/61) Accurately ripped
[AccurateRip ID: 000dfbce-0081e9f9-9b074b0c] found.
Track [ CRC | V2 ] Status
01 [15ff4b42|bcea9481] (00+34/48) Accurately ripped
02 [4efa2dc2|7392d0b2] (00+34/48) Accurately ripped
03 [82fd01e1|cefe5f39] (00+34/48) Accurately ripped
04 [d57514cb|df938a46] (00+34/48) Accurately ripped
05 [ca6e65b1|b9444550] (00+34/48) Accurately ripped
06 [5a6a8be9|cc09cea6] (00+34/48) Accurately ripped
07 [b6292848|2d13182f] (00+34/48) Accurately ripped
08 [edae4d99|8ed91101] (00+34/48) Accurately ripped
09 [bf31be65|4bb5f745] (00+34/48) Accurately ripped
10 [0ebe4bda|f3c2638e] (00+34/48) Accurately ripped
11 [09882145|a27ac713] (00+34/48) Accurately ripped
12 [33eba999|df90cebe] (00+34/48) Accurately ripped
Offsetted by 658:
01 [03d96ee1] (06/48) Accurately ripped
02 [ecb8d025] (06/48) Accurately ripped
03 [35910519] (06/48) Accurately ripped
04 [97ee6900] (06/48) Accurately ripped
05 [f428442b] (06/48) Accurately ripped
06 [4c63246c] (06/48) Accurately ripped
07 [b8977806] (06/48) Accurately ripped
08 [f0896966] (06/48) Accurately ripped
09 [03ae41ea] (06/48) Accurately ripped
10 [67ce839d] (06/48) Accurately ripped
11 [206df53f] (06/48) Accurately ripped
12 [d1815224] (06/48) Accurately ripped
Offsetted by -670:
01 [b62a63dc] (00/48) No match (V2 was not tested)
02 [02bee880] (00/48) No match (V2 was not tested)
03 [8ac1cec5] (00/48) No match (V2 was not tested)
04 [597ac2a9] (00/48) No match (V2 was not tested)
05 [a2136a87] (00/48) No match (V2 was not tested)
06 [50785f02] (00/48) No match (V2 was not tested)
07 [6d71401d] (00/48) No match (V2 was not tested)
08 [1a4a2a5f] (00/48) No match (V2 was not tested)
09 [b75c2b8d] (00/48) No match (V2 was not tested)
10 [870eaa67] (00/48) No match (V2 was not tested)
11 [6bb2042b] (00/48) No match (V2 was not tested)
12 [2bce26ff] (00/48) No match (V2 was not tested)

Track Peak [ CRC32 ] [W/O NULL] [ LOG ]
– 100,0 [3FFCF726] [73D10F8D]
01 100,0 [D79B6C86] [FB57749C] CRC32
02 100,0 [90164052] [2A4B090D] CRC32
03 91,7 [F159DCCB] [B6FED327] CRC32
04 84,9 [208EB53F] [2586914A] CRC32
05 99,8 [C56A7744] [E9FB4392] CRC32
06 100,0 [B8545C08] [6078AE34] CRC32
07 96,9 [B586D04B] [3DE799B7] CRC32
08 90,6 [87498AB7] [4E319ABF] CRC32
09 97,6 [5A4F6F3D] [AD5DA87D] CRC32
10 77,3 [1ADFDD68] [C91D6F89] CRC32
11 97,3 [B316C0DB] [DDECE2B5] CRC32
12 100,0 [5B508E22] [17D0312F] CRC32


Otis Redding - Original Album Series Vol. 2 (2013) [5CD Box Set]

All thanks go to the original releaser

Original Album Series in my Blog

Download Otis Redding - Original Album Series Vol. 2 (2013):