Tags
Language
Tags

Otis Redding & His Orchestra - Live On The Sunset Strip [Recorded 1966] (2010)

Posted By:
Otis Redding & His Orchestra - Live On The Sunset Strip [Recorded 1966] (2010)

Otis Redding & His Orchestra - Live On The Sunset Strip [Recorded 1966] (2010)
EAC Rip | FLAC (tracks+.cue+log) - 903 MB | MP3 CBR 320 kbps (LAME 3.93) - 328 MB | Covers (16 MB) included
Genre: Soul | RAR 3% Rec. | Label: Stax (STX-32046)

Otis Redding's now historic four-night stand at Hollywood's Whisky a Go Go in April of 1966 has been selectively documented on two previous releases. The first was 1968's In Person at the Whisky a Go Go, which included ten selections chosen from the run. Good to Me: Recorded Live at the Whisky a Go Go, Vol. 2, released in 1982 and expanded for CD release in 1993, was also assembled from various nights. This release is very different. No mere attempt to milk a few more gems from a legendary set of gigs, Otis Redding & His Orchestra Live on the Sunset Strip contains three full sets on two discs from that stand. It's a warts-and-all, rowdy, magical set of performances that reminds the faithful of Redding's singular gifts as a singer and performer, and will open the ears of the uninitiated. A new revelation here is just how much Redding's own band played a role. He was recorded often with the Bar-Kays or Booker T. & the MG's. This set showcases the talents of the "orchestra" reflected in the CD title. This band, ten pieces strong with a backing chorus, was handpicked by Redding, and the bandmembers understood instinctively what he was about more than any other musicians he played with. One need only go as far as the first disc's third and fourth tracks, where "These Arms of Mine" gives way on a dime to the impromptu, largely lyrically improvised cover of "Satisfaction." One minute is a pure begging, gritty, Southern soul love song; the next it's the church in full revival mode, though the expression is purely carnal. That vibe is continued on "Can't Turn You Loose," quickly counted off and stormed into. Redding's rapport with the audience is easy, yet commanding. He just turns himself loose and they all follow. The lockstep groove quotient on these performances is unending, no matter which set they're playing, and no matter the track. The rhythm section is near flawless, though the band - and Redding - flub a little on occasion, which adds to the riveting excitement that unfolds here. Each disc has moments when you're listening and can become so captivated that you forget where you are, what time, or even what year it is. Check disc two, where "A Hard Day's Night" moves into "These Arms of Mine," or "Destiny" as it shifts gears rapidly into "Security"; there are no jerky transitions, just a seamless shift into power glide. Ashley Khan's liner notes - which quote extensively from Taj Mahal (who was present for the entire run because his band the Rising Sons were the opening act) - are priceless; they are an exciting counterpart to a captivating listening experience that completes a portrait of this run that the previous live Whisky volumes merely traced.
CD 1 Tracklist:
01. Security
02. Just One More Day
03. These Arms of Mine
04. Satisfaction
05. I Can't Turn You Loose
06. Chained and Bound
07. Respect
08. I'm Depending On You
09. I Can't Turn You Loose
10. Satisfaction
11. Chained and Bound
12. Just One More Day
13. Any Ole Way

Total time: 01:05:35

CD 2 Tracklist:
01. I've Been Loving You Too Long (To Stop Now)
02. Satisfaction
03. Destiny
04. Security
05. Good To Me
06. Respect
07. Chained and Bound
08. Mr. Pitful
09. Satisfaction
10. Ole Man Trouble
11. I Can't Turn You Loose
12. A Hard Day's Night
13. These Arms of Mine
14. Papa's Got A Brand New Bag
15. Satisfaction

Total time: 01:05:24

Exact Audio Copy V0.99 prebeta 4 from 23. January 2008

EAC extraction logfile from 29. November 2010, 23:21

Otis Redding / Live On The Sunset Strip [Disc 1]

Used drive : HL-DT-STDVDRAM GH15F Adapter: 1 ID: 0

Read mode : Secure
Utilize accurate stream : Yes
Defeat audio cache : Yes
Make use of C2 pointers : No

Read offset correction : 667
Overread into Lead-In and Lead-Out : No
Fill up missing offset samples with silence : Yes
Delete leading and trailing silent blocks : No
Null samples used in CRC calculations : Yes
Used interface : Native Win32 interface for Win NT & 2000
Gap handling : Appended to previous track

Used output format : Internal WAV Routines
Sample format : 44.100 Hz; 16 Bit; Stereo


TOC of the extracted CD

Track | Start | Length | Start sector | End sector
––––––––––––––––––––––––––––-
1 | 0:00.00 | 3:07.44 | 0 | 14068
2 | 3:07.44 | 5:20.57 | 14069 | 38125
3 | 8:28.26 | 3:10.74 | 38126 | 52449
4 | 11:39.25 | 6:44.36 | 52450 | 82785
5 | 18:23.61 | 6:20.22 | 82786 | 111307
6 | 24:44.08 | 4:52.42 | 111308 | 133249
7 | 29:36.50 | 2:36.31 | 133250 | 144980
8 | 32:13.06 | 4:46.51 | 144981 | 166481
9 | 36:59.57 | 6:18.67 | 166482 | 194898
10 | 43:18.49 | 6:06.47 | 194899 | 222395
11 | 49:25.21 | 7:32.08 | 222396 | 256303
12 | 56:57.29 | 4:33.72 | 256304 | 276850
13 | 61:31.26 | 4:03.50 | 276851 | 295125


Track 1

Filename C:\Users\Q ball\Desktop\FLAC\EAC Rips\Otis Redding - 1966 - Live On The Sunset Strip [Disc 1]\01 - Security.wav

Pre-gap length 0:00:02.00

Peak level 100.0 %
Track quality 100.0 %
Test CRC 1E33C8A3
Copy CRC 1E33C8A3
Accurately ripped (confidence 10) [44B49E63]
Copy OK

Track 2

Filename C:\Users\Q ball\Desktop\FLAC\EAC Rips\Otis Redding - 1966 - Live On The Sunset Strip [Disc 1]\02 - Just One More Day.wav

Peak level 100.0 %
Track quality 99.9 %
Test CRC 299C22D0
Copy CRC 299C22D0
Accurately ripped (confidence 11) [BDE8C0F8]
Copy OK

Track 3

Filename C:\Users\Q ball\Desktop\FLAC\EAC Rips\Otis Redding - 1966 - Live On The Sunset Strip [Disc 1]\03 - These Arms Of Mine.wav

Peak level 100.0 %
Track quality 100.0 %
Test CRC AD1DC8A1
Copy CRC AD1DC8A1
Accurately ripped (confidence 10) [5C3AD2BB]
Copy OK

Track 4

Filename C:\Users\Q ball\Desktop\FLAC\EAC Rips\Otis Redding - 1966 - Live On The Sunset Strip [Disc 1]\04 - Satisfaction.wav

Peak level 100.0 %
Track quality 100.0 %
Test CRC 7EBD260F
Copy CRC 7EBD260F
Accurately ripped (confidence 10) [ECBB8F5D]
Copy OK

Track 5

Filename C:\Users\Q ball\Desktop\FLAC\EAC Rips\Otis Redding - 1966 - Live On The Sunset Strip [Disc 1]\05 - I Can't Turn You Loose.wav

Peak level 100.0 %
Track quality 100.0 %
Test CRC 4D7C3FA6
Copy CRC 4D7C3FA6
Accurately ripped (confidence 10) [84AC13A2]
Copy OK

Track 6

Filename C:\Users\Q ball\Desktop\FLAC\EAC Rips\Otis Redding - 1966 - Live On The Sunset Strip [Disc 1]\06 - Chained And Bound.wav

Peak level 100.0 %
Track quality 99.9 %
Test CRC B141B709
Copy CRC B141B709
Accurately ripped (confidence 11) [65AF419A]
Copy OK

Track 7

Filename C:\Users\Q ball\Desktop\FLAC\EAC Rips\Otis Redding - 1966 - Live On The Sunset Strip [Disc 1]\07 - Respect.wav

Peak level 100.0 %
Track quality 99.9 %
Test CRC 25212BF1
Copy CRC 25212BF1
Accurately ripped (confidence 10) [0DB4DD5B]
Copy OK

Track 8

Filename C:\Users\Q ball\Desktop\FLAC\EAC Rips\Otis Redding - 1966 - Live On The Sunset Strip [Disc 1]\08 - I'm Depending On You.wav

Peak level 100.0 %
Track quality 100.0 %
Test CRC EBFB5F3C
Copy CRC EBFB5F3C
Accurately ripped (confidence 10) [730E98C5]
Copy OK

Track 9

Filename C:\Users\Q ball\Desktop\FLAC\EAC Rips\Otis Redding - 1966 - Live On The Sunset Strip [Disc 1]\09 - I Can't Turn You Loose.wav

Peak level 100.0 %
Track quality 99.9 %
Test CRC BC46908D
Copy CRC BC46908D
Accurately ripped (confidence 10) [0CBB47DA]
Copy OK

Track 10

Filename C:\Users\Q ball\Desktop\FLAC\EAC Rips\Otis Redding - 1966 - Live On The Sunset Strip [Disc 1]\10 - Satisfaction.wav

Peak level 100.0 %
Track quality 100.0 %
Test CRC 9EC271D2
Copy CRC 9EC271D2
Accurately ripped (confidence 10) [FE2BEE9F]
Copy OK

Track 11

Filename C:\Users\Q ball\Desktop\FLAC\EAC Rips\Otis Redding - 1966 - Live On The Sunset Strip [Disc 1]\11 - Chained And Bound.wav

Peak level 100.0 %
Track quality 100.0 %
Test CRC 91164EAC
Copy CRC 91164EAC
Accurately ripped (confidence 10) [96B3C480]
Copy OK

Track 12

Filename C:\Users\Q ball\Desktop\FLAC\EAC Rips\Otis Redding - 1966 - Live On The Sunset Strip [Disc 1]\12 - Just One More Day.wav

Peak level 100.0 %
Track quality 99.9 %
Test CRC 26D903B3
Copy CRC 26D903B3
Accurately ripped (confidence 11) [6618B505]
Copy OK

Track 13

Filename C:\Users\Q ball\Desktop\FLAC\EAC Rips\Otis Redding - 1966 - Live On The Sunset Strip [Disc 1]\13 - Any Ole Way.wav

Peak level 100.0 %
Track quality 100.0 %
Test CRC D23DBB38
Copy CRC D23DBB38
Accurately ripped (confidence 10) [151BB0E5]
Copy OK


All tracks accurately ripped

No errors occurred

End of status report

[CUETools log; Date: 25.12.2019 1:48:34; Version: 2.1.4]
[CTDB TOCID: OqzNSGj8CqMLANjS_6_syURsG_s-] found.
Track | CTDB Status
1 | (33/33) Accurately ripped
2 | (33/33) Accurately ripped
3 | (33/33) Accurately ripped
4 | (33/33) Accurately ripped
5 | (33/33) Accurately ripped
6 | (33/33) Accurately ripped
7 | (33/33) Accurately ripped
8 | (33/33) Accurately ripped
9 | (33/33) Accurately ripped
10 | (33/33) Accurately ripped
11 | (33/33) Accurately ripped
12 | (33/33) Accurately ripped
13 | (33/33) Accurately ripped
[AccurateRip ID: 001e59a4-0134a324-b20f5f0d] found.
Track [ CRC | V2 ] Status
01 [44b49e63|bd2f940f] (19+24/43) Accurately ripped
02 [bde8c0f8|83156c24] (20+25/45) Accurately ripped
03 [5c3ad2bb|c05ee431] (19+25/44) Accurately ripped
04 [ecbb8f5d|1cd09a46] (18+24/42) Accurately ripped
05 [84ac13a2|36fbe81d] (18+24/42) Accurately ripped
06 [65af419a|91fb9362] (19+25/44) Accurately ripped
07 [0db4dd5b|94322e7e] (18+25/43) Accurately ripped
08 [730e98c5|9af7162b] (19+25/44) Accurately ripped
09 [0cbb47da|321b8807] (19+25/44) Accurately ripped
10 [fe2bee9f|20a6a4db] (19+25/44) Accurately ripped
11 [96b3c480|c4fad911] (18+24/42) Accurately ripped
12 [6618b505|20c97e73] (20+24/44) Accurately ripped
13 [151bb0e5|f7434dcd] (19+25/44) Accurately ripped

Track Peak [ CRC32 ] [W/O NULL] [ LOG ]
– 100,0 [A2B5443E] [7FC6975C]
01 100,0 [1E33C8A3] [D1C9B1D2] CRC32
02 100,0 [299C22D0] [FF4FE27C] CRC32
03 100,0 [AD1DC8A1] [C0C80D24] CRC32
04 100,0 [7EBD260F] [FBD91271] CRC32
05 100,0 [4D7C3FA6] [B53C00F2] CRC32
06 100,0 [B141B709] [5D52D3BA] CRC32
07 100,0 [25212BF1] [8FAC3C56] CRC32
08 100,0 [EBFB5F3C] [F3FB0589] CRC32
09 100,0 [BC46908D] [659D52EB] CRC32
10 100,0 [9EC271D2] [775F6B45] CRC32
11 100,0 [91164EAC] [7FAE9B9E] CRC32
12 100,0 [26D903B3] [AB364DCC] CRC32
13 100,0 [D23DBB38] [3981CFDA] CRC32

Exact Audio Copy V0.99 prebeta 4 from 23. January 2008

EAC extraction logfile from 30. November 2010, 0:07

Otis Redding / Live On The Sunset Strip [Disc 2]

Used drive : HL-DT-STDVDRAM GH15F Adapter: 1 ID: 0

Read mode : Secure
Utilize accurate stream : Yes
Defeat audio cache : Yes
Make use of C2 pointers : No

Read offset correction : 667
Overread into Lead-In and Lead-Out : No
Fill up missing offset samples with silence : Yes
Delete leading and trailing silent blocks : No
Null samples used in CRC calculations : Yes
Used interface : Native Win32 interface for Win NT & 2000
Gap handling : Appended to previous track

Used output format : Internal WAV Routines
Sample format : 44.100 Hz; 16 Bit; Stereo


TOC of the extracted CD

Track | Start | Length | Start sector | End sector
––––––––––––––––––––––––––––-
1 | 0:00.00 | 3:55.73 | 0 | 17697
2 | 3:55.73 | 5:02.32 | 17698 | 40379
3 | 8:58.30 | 2:55.73 | 40380 | 53577
4 | 11:54.28 | 2:57.15 | 53578 | 66867
5 | 14:51.43 | 3:35.24 | 66868 | 83016
6 | 18:26.67 | 2:13.10 | 83017 | 93001
7 | 20:40.02 | 6:57.39 | 93002 | 124315
8 | 27:37.41 | 2:18.33 | 124316 | 134698
9 | 29:55.74 | 6:28.36 | 134699 | 163834
10 | 36:24.35 | 2:40.35 | 163835 | 175869
11 | 39:04.70 | 4:51.21 | 175870 | 197715
12 | 43:56.16 | 4:13.70 | 197716 | 216760
13 | 48:10.11 | 3:34.56 | 216761 | 232866
14 | 51:44.67 | 10:08.32 | 232867 | 278498
15 | 61:53.24 | 3:31.05 | 278499 | 294328


Track 1

Filename C:\Users\Q ball\Desktop\FLAC\EAC Rips\Otis Redding - 1966 - Live On The Sunset Strip [Disc 2]\01 - I've Been Loving You Too Long (To Stop Now).wav

Pre-gap length 0:00:02.00

Peak level 100.0 %
Track quality 100.0 %
Test CRC FE7F2506
Copy CRC FE7F2506
Accurately ripped (confidence 10) [E6889AF9]
Copy OK

Track 2

Filename C:\Users\Q ball\Desktop\FLAC\EAC Rips\Otis Redding - 1966 - Live On The Sunset Strip [Disc 2]\02 - Satisfaction.wav

Peak level 100.0 %
Track quality 100.0 %
Test CRC B4B10929
Copy CRC B4B10929
Accurately ripped (confidence 10) [A8356F23]
Copy OK

Track 3

Filename C:\Users\Q ball\Desktop\FLAC\EAC Rips\Otis Redding - 1966 - Live On The Sunset Strip [Disc 2]\03 - Destiny.wav

Peak level 100.0 %
Track quality 99.9 %
Test CRC 91C64106
Copy CRC 91C64106
Accurately ripped (confidence 10) [C1656951]
Copy OK

Track 4

Filename C:\Users\Q ball\Desktop\FLAC\EAC Rips\Otis Redding - 1966 - Live On The Sunset Strip [Disc 2]\04 - Security.wav

Peak level 100.0 %
Track quality 100.0 %
Test CRC 34D6D801
Copy CRC 34D6D801
Accurately ripped (confidence 11) [6B274A66]
Copy OK

Track 5

Filename C:\Users\Q ball\Desktop\FLAC\EAC Rips\Otis Redding - 1966 - Live On The Sunset Strip [Disc 2]\05 - Good To Me.wav

Peak level 100.0 %
Track quality 100.0 %
Test CRC B01CB470
Copy CRC B01CB470
Accurately ripped (confidence 11) [A8455CD3]
Copy OK

Track 6

Filename C:\Users\Q ball\Desktop\FLAC\EAC Rips\Otis Redding - 1966 - Live On The Sunset Strip [Disc 2]\06 - Respect.wav

Peak level 100.0 %
Track quality 99.9 %
Test CRC 1A94055E
Copy CRC 1A94055E
Accurately ripped (confidence 11) [4845133C]
Copy OK

Track 7

Filename C:\Users\Q ball\Desktop\FLAC\EAC Rips\Otis Redding - 1966 - Live On The Sunset Strip [Disc 2]\07 - Chained And Bound.wav

Peak level 100.0 %
Track quality 100.0 %
Test CRC 15B7E353
Copy CRC 15B7E353
Accurately ripped (confidence 10) [4B6FC52E]
Copy OK

Track 8

Filename C:\Users\Q ball\Desktop\FLAC\EAC Rips\Otis Redding - 1966 - Live On The Sunset Strip [Disc 2]\08 - Mr. Pitiful.wav

Peak level 100.0 %
Track quality 100.0 %
Test CRC 85B397E1
Copy CRC 85B397E1
Accurately ripped (confidence 10) [64CE78F7]
Copy OK

Track 9

Filename C:\Users\Q ball\Desktop\FLAC\EAC Rips\Otis Redding - 1966 - Live On The Sunset Strip [Disc 2]\09 - Satisfaction.wav

Peak level 100.0 %
Track quality 100.0 %
Test CRC 0EEFB904
Copy CRC 0EEFB904
Accurately ripped (confidence 10) [2DDF80CD]
Copy OK

Track 10

Filename C:\Users\Q ball\Desktop\FLAC\EAC Rips\Otis Redding - 1966 - Live On The Sunset Strip [Disc 2]\10 - Ole Man Trouble.wav

Peak level 100.0 %
Track quality 100.0 %
Test CRC 9B0B8B93
Copy CRC 9B0B8B93
Accurately ripped (confidence 11) [2B59C0AB]
Copy OK

Track 11

Filename C:\Users\Q ball\Desktop\FLAC\EAC Rips\Otis Redding - 1966 - Live On The Sunset Strip [Disc 2]\11 - I Can't Turn You Loose.wav

Peak level 100.0 %
Track quality 100.0 %
Test CRC F5B79432
Copy CRC F5B79432
Accurately ripped (confidence 10) [EBF33F85]
Copy OK

Track 12

Filename C:\Users\Q ball\Desktop\FLAC\EAC Rips\Otis Redding - 1966 - Live On The Sunset Strip [Disc 2]\12 - A Hard Day's Night.wav

Peak level 100.0 %
Track quality 100.0 %
Test CRC 630A4459
Copy CRC 630A4459
Accurately ripped (confidence 11) [DCCBF905]
Copy OK

Track 13

Filename C:\Users\Q ball\Desktop\FLAC\EAC Rips\Otis Redding - 1966 - Live On The Sunset Strip [Disc 2]\13 - These Arms Of Mine.wav

Peak level 100.0 %
Track quality 100.0 %
Test CRC FD27A280
Copy CRC FD27A280
Accurately ripped (confidence 11) [E41E0347]
Copy OK

Track 14

Filename C:\Users\Q ball\Desktop\FLAC\EAC Rips\Otis Redding - 1966 - Live On The Sunset Strip [Disc 2]\14 - Papa's Got A Brand New Bag.wav

Peak level 100.0 %
Track quality 100.0 %
Test CRC 9694ECC5
Copy CRC 9694ECC5
Accurately ripped (confidence 11) [3A1F6BF4]
Copy OK

Track 15

Filename C:\Users\Q ball\Desktop\FLAC\EAC Rips\Otis Redding - 1966 - Live On The Sunset Strip [Disc 2]\15 - Satisfaction.wav

Peak level 100.0 %
Track quality 100.0 %
Test CRC 46B05EB3
Copy CRC 46B05EB3
Accurately ripped (confidence 10) [D8A6156F]
Copy OK


All tracks accurately ripped

No errors occurred

End of status report

[CUETools log; Date: 25.12.2019 1:49:17; Version: 2.1.4]
[CTDB TOCID: IYvGFYMfer_c2eAVIz5jeyxlJgE-] found.
Track | CTDB Status
1 | (34/34) Accurately ripped
2 | (34/34) Accurately ripped
3 | (34/34) Accurately ripped
4 | (34/34) Accurately ripped
5 | (34/34) Accurately ripped
6 | (34/34) Accurately ripped
7 | (34/34) Accurately ripped
8 | (34/34) Accurately ripped
9 | (34/34) Accurately ripped
10 | (34/34) Accurately ripped
11 | (34/34) Accurately ripped
12 | (34/34) Accurately ripped
13 | (34/34) Accurately ripped
14 | (34/34) Accurately ripped
15 | (34/34) Accurately ripped
[AccurateRip ID: 002129fb-017d0898-db0f540f] found.
Track [ CRC | V2 ] Status
01 [e6889af9|ac01a879] (17+26/43) Accurately ripped
02 [a8356f23|607541e1] (19+25/44) Accurately ripped
03 [c1656951|19419818] (19+26/45) Accurately ripped
04 [6b274a66|7ddb6cb2] (20+25/45) Accurately ripped
05 [a8455cd3|6235b50d] (20+25/45) Accurately ripped
06 [4845133c|d16bbf86] (19+24/43) Accurately ripped
07 [4b6fc52e|0f282922] (19+25/44) Accurately ripped
08 [64ce78f7|a76941f2] (19+26/45) Accurately ripped
09 [2ddf80cd|3cc15d48] (19+25/44) Accurately ripped
10 [2b59c0ab|22c1246c] (20+26/46) Accurately ripped
11 [ebf33f85|24a43403] (19+25/44) Accurately ripped
12 [dccbf905|b0a9f370] (20+26/46) Accurately ripped
13 [e41e0347|72efdeb2] (20+25/45) Accurately ripped
14 [3a1f6bf4|90a72380] (20+26/46) Accurately ripped
15 [d8a6156f|9cd2b359] (19+25/44) Accurately ripped

Track Peak [ CRC32 ] [W/O NULL] [ LOG ]
– 100,0 [3B73CBC5] [2B60F440]
01 100,0 [FE7F2506] [39B525A8] CRC32
02 100,0 [B4B10929] [E99B1E2E] CRC32
03 100,0 [91C64106] [09938652] CRC32
04 100,0 [34D6D801] [C76B6838] CRC32
05 100,0 [B01CB470] [E398EC9F] CRC32
06 100,0 [1A94055E] [B3E30745] CRC32
07 100,0 [15B7E353] [4322D7B0] CRC32
08 100,0 [85B397E1] [B2C125B8] CRC32
09 100,0 [0EEFB904] [1849BED5] CRC32
10 100,0 [9B0B8B93] [96DB6D6A] CRC32
11 100,0 [F5B79432] [97DA5814] CRC32
12 100,0 [630A4459] [464DECBE] CRC32
13 100,0 [FD27A280] [09740962] CRC32
14 100,0 [9694ECC5] [B17B1DFA] CRC32
15 100,0 [46B05EB3] [53C76199] CRC32

Thanks to newsoft88

See also:
Otis Redding - The Soul Album (1966)