Tags
Language
Tags

Otis Redding - The Soul Album (1966)

Posted By:
Otis Redding - The Soul Album (1966)

Otis Redding - The Soul Album (1966)
EAC Rip | FLAC (image+.cue+log) - 136 MB | MP3 CBR 320 kbps (LAME 3.93) - 88 MB | Covers (8 MB) included
Genre: R&B, Soul | RAR 3% Rec. | Label: Atco (7567-91705-2)

Otis Redding's talent began to surge, across songs and their stylesand absorbing them , with the recording of The Soul Album. In contrast to The Great Otis Redding Sings Soul Ballads, which was an advance over its predecessor but still a body of 12 songs of varying styles and textures, rising to peaks and never falling before an intense, soulful mid-range, The Soul Album shows him moving from strength to strength in a string of high-energy, sweaty soul performances, interspersing his own songs with work by Sam Cooke ("Chain Gang"), Roy Head ("Treat Her Right"), Eddie Floyd ("Everybody Makes A Mistake"), and Smokey Robinson ("It's Growing") and recasting them in his own style, so that they're not "covers" so much as reinterpretations; indeed, "Chain Gang" is almost a rewrite of the original, though one suspects not one that Cooke would have disapproved of. He still had a little way to go as a songwriter – the jewel of this undervalued collection is "Cigarettes And Coffee, co-authored by Eddie Thomas and Jerry Butler - but as an interpreter he was now without peer, and his albums were now showing this remarkable, stunningly high level of consistency. Also significant on this album was the contribution of Steve Cropper, not only on guitar but as co-author of three songs.
Tracklist:
01. Just One More Day
02. It's Growing
03. Cigarettes and Coffee
04. Chain Gang
05. Nobody Knows You (When You're Down and Out)
06. Good to Me
07. Scratch My Back
08. Treat Her Right
09. Everybody Makes a Mistake
10. Any Ole Way
11. 634-5789

Total time: 34:01

Exact Audio Copy V0.99 prebeta 4 from 23. January 2008

EAC extraction logfile from 12. February 2008, 19:34

Otis Redding / The Soul Album

Used drive : LITE-ON CD-RW SOHR-5238S Adapter: 1 ID: 1

Read mode : Secure
Utilize accurate stream : Yes
Defeat audio cache : Yes
Make use of C2 pointers : No

Read offset correction : 6
Overread into Lead-In and Lead-Out : No
Fill up missing offset samples with silence : Yes
Delete leading and trailing silent blocks : No
Null samples used in CRC calculations : Yes
Used interface : Installed external ASPI interface

Used output format : Internal WAV Routines
Sample format : 44.100 Hz; 16 Bit; Stereo


TOC of the extracted CD

Track | Start | Length | Start sector | End sector
––––––––––––––––––––––––––––-
1 | 0:00.00 | 3:31.63 | 0 | 15887
2 | 3:31.63 | 2:47.22 | 15888 | 28434
3 | 6:19.10 | 3:53.55 | 28435 | 45964
4 | 10:12.65 | 3:04.53 | 45965 | 59817
5 | 13:17.43 | 3:11.37 | 59818 | 74179
6 | 16:29.05 | 3:51.03 | 74180 | 91507
7 | 20:20.08 | 2:42.42 | 91508 | 103699
8 | 23:02.50 | 2:11.03 | 103700 | 113527
9 | 25:13.53 | 3:23.20 | 113528 | 128772
10 | 28:36.73 | 2:34.25 | 128773 | 140347
11 | 31:11.23 | 2:49.40 | 140348 | 153062


Range status and errors

Selected range

Filename J:\EAC\The Soul Album.wav

Peak level 100.0 %
Range quality 100.0 %
Test CRC BAB3FC3B
Copy CRC BAB3FC3B
Copy OK

No errors occurred

End of status report

[CUETools log; Date: 22.12.2019 15:18:23; Version: 2.1.4]
[CTDB TOCID: jSHeY1v9pkQToryNPWE.z.QPtqI-] found.
Track | CTDB Status
1 | (283/295) Accurately ripped
2 | (283/295) Accurately ripped
3 | (283/295) Accurately ripped
4 | (282/295) Accurately ripped
5 | (282/295) Accurately ripped
6 | (280/295) Accurately ripped
7 | (282/295) Accurately ripped
8 | (282/295) Accurately ripped
9 | (282/295) Accurately ripped
10 | (282/295) Accurately ripped
11 | (284/295) Accurately ripped
[AccurateRip ID: 000e9346-007d3416-9207f80b] found.
Track [ CRC | V2 ] Status
01 [c61912ad|4c9e2e32] (015+013/223) Accurately ripped
02 [9cf5990a|0256dfce] (015+013/225) Accurately ripped
03 [fcd9d3cb|2be31a6b] (015+013/224) Accurately ripped
04 [112f0393|c085eb45] (015+013/224) Accurately ripped
05 [675cc522|34396901] (015+013/225) Accurately ripped
06 [af66e1d2|c3d7e53e] (015+013/222) Accurately ripped
07 [e33330dc|2b4ab187] (015+013/225) Accurately ripped
08 [939924af|33c72dd8] (015+013/224) Accurately ripped
09 [2eeea2b4|05c86205] (015+013/224) Accurately ripped
10 [b841c2cf|1b31ea9a] (015+013/224) Accurately ripped
11 [3ff21868|f6652023] (014+013/221) Accurately ripped
Offsetted by -1310:
01 [8d1b5c45] (021/223) Accurately ripped
02 [9cb70e8a] (021/225) Accurately ripped
03 [a2a9b7bd] (020/224) Accurately ripped
04 [a14b6a75] (021/224) Accurately ripped
05 [1d49b7b6] (021/225) Accurately ripped
06 [84b1ff82] (020/222) Accurately ripped
07 [27a98777] (021/225) Accurately ripped
08 [deb5b8cc] (021/224) Accurately ripped
09 [0cbbf997] (020/224) Accurately ripped
10 [45d71a28] (020/224) Accurately ripped
11 [805787f3] (020/221) Accurately ripped
Offsetted by 664:
01 [95cd77be] (013/223) Accurately ripped
02 [4711baba] (014/225) Accurately ripped
03 [f4784c33] (014/224) Accurately ripped
04 [af42a6fb] (014/224) Accurately ripped
05 [b247e035] (014/225) Accurately ripped
06 [599fa005] (014/222) Accurately ripped
07 [fe730dde] (014/225) Accurately ripped
08 [c1e58124] (014/224) Accurately ripped
09 [d110446e] (014/224) Accurately ripped
10 [c3e4ad4c] (014/224) Accurately ripped
11 [f313100c] (014/221) Accurately ripped
Offsetted by -1316:
01 [48886841] (000/223) No match (V2 was not tested)
02 [f9eb0d4f] (000/225) No match (V2 was not tested)
03 [5fcb9107] (000/224) No match (V2 was not tested)
04 [279c27c7] (000/224) No match (V2 was not tested)
05 [c3a70a86] (000/225) No match (V2 was not tested)
06 [7485c2be] (000/222) No match (V2 was not tested)
07 [eaaf38a1] (000/225) No match (V2 was not tested)
08 [ff5b7017] (000/224) No match (V2 was not tested)
09 [28b83cbe] (000/224) No match (V2 was not tested)
10 [013c09f2] (000/224) No match (V2 was not tested)
11 [f95cd511] (000/221) No match (V2 was not tested)
Offsetted by 6:
01 [4692fe99] (000/223) No match (V2 was not tested)
02 [8b2008f7] (000/225) No match (V2 was not tested)
03 [76538707] (000/224) No match (V2 was not tested)
04 [b96f98c4] (000/224) No match (V2 was not tested)
05 [c35053d1] (000/225) No match (V2 was not tested)
06 [37461e49] (000/222) No match (V2 was not tested)
07 [0b7021a0] (000/225) No match (V2 was not tested)
08 [7d301d8e] (000/224) No match (V2 was not tested)
09 [4ec86c62] (000/224) No match (V2 was not tested)
10 [1bed14a0] (000/224) No match (V2 was not tested)
11 [b124dbf0] (000/221) No match (V2 was not tested)

Track Peak [ CRC32 ] [W/O NULL] [ LOG ]
– 100,0 [BAB3FC3B] [D14013E9] CRC32
01 100,0 [D135FFF9] [2B670222]
02 98,4 [6B1C1C0D] [8DE7F51A]
03 85,6 [F6BC4AEA] [E5FDE444]
04 99,8 [BBEDF137] [BC8FB23D]
05 100,0 [0B3A4ED7] [AE429026]
06 88,8 [101DBC0E] [F2F619F0]
07 89,4 [9A06C848] [0DBA6336]
08 94,6 [607F8904] [88CFDB8E]
09 96,1 [5E0D33E0] [1A7E6FBF]
10 99,9 [2B654246] [16F20FCD]
11 99,9 [068E4D0C] [F28BB200]

Thanks to garet jax