Tags
Language
Tags

Otis Redding - The Very Best of Otis Redding (1992)

Posted By:
Otis Redding - The Very Best of Otis Redding (1992)

Otis Redding - The Very Best of Otis Redding (1992)
EAC Rip | WavPack (image+.cue+log) - 179 MB | MP3 CBR 320 kbps (LAME 3.93) - 105 MB | Covers - 114 MB
Genre: R&B, Soul | RAR 3% Rec. | Label: Atlantic/Rhino (R2 71147)

The Very Best of Otis Redding wasn't the first Otis Redding compilation but it is the best of the single-disc collections, distilling the high points across his career (up thru the posthumous hits "(Sitting' On) The Dock of the Bay" and the heartbreaking "I've Got Dreams to Remember") in 16 tracks, every one a musical milestone and a soul music high-point of one kind or another. Although aimed at the casual listener and the neophyte fan, there are some astonishing realizations to be had in listening to this disc and looking at the chart placements of the early sides, and realizing just how uniform his musical influence is - "These Arms of Mine" and, especially, "Pain In My Heart," from 1962 and 1963, respectively, sold only a fraction of what his later singles did, yet they've been covered by so many artists since, that they're as familiar as any of the other, bigger hits on this disc. The collection is hardly comprehensive, but all of the major bases are touched, right down to his 1967 hit duet "Tramp" with Carla Thomas.
Tracklist:
01. These Arms Of Mine
02. Pain In My Heart
03. That's How Strong My Love Is
04. Mr. Pitiful
05. I've Been Loving You Too Long
06. Respect
07. I Can't Turn You Loose
08. Satisfaction
09. My Lover's Prayer
10. Fa-Fa-Fa-Fa-Fa (Sad Song)
11. Try A Little Tenderness
12. Shake
13. The Happy Song (Dum-Dum)
14. Tramp
15. (Sittin' On) The Dock Of The Bay
16. I've Got Dreams To Remember

Total time: 44:35

Exact Audio Copy V1.0 beta 3 from 29. August 2011

EAC extraction logfile from 9. December 2012, 7:38

Otis Redding / The Very Best of Otis Redding

Used drive : HL-DT-STBDDVDRW GBC-H20N Adapter: 1 ID: 0

Read mode : Secure
Utilize accurate stream : Yes
Defeat audio cache : Yes
Make use of C2 pointers : No

Read offset correction : 667
Overread into Lead-In and Lead-Out : No
Fill up missing offset samples with silence : Yes
Delete leading and trailing silent blocks : No
Null samples used in CRC calculations : Yes
Used interface : Native Win32 interface for Win NT & 2000

Used output format : User Defined Encoder
Selected bitrate : 1024 kBit/s
Quality : High
Add ID3 tag : No
Command line compressor : C:\Program Files\Exact Audio Copy\wavpack.exe
Additional command line options : -hm %source% %dest%


TOC of the extracted CD

Track | Start | Length | Start sector | End sector
––––––––––––––––––––––––––––-
1 | 0:00.32 | 2:34.30 | 32 | 11611
2 | 2:34.62 | 2:26.48 | 11612 | 22609
3 | 5:01.35 | 2:25.60 | 22610 | 33544
4 | 7:27.20 | 2:44.45 | 33545 | 45889
5 | 10:11.65 | 2:57.30 | 45890 | 59194
6 | 13:09.20 | 2:12.00 | 59195 | 69094
7 | 15:21.20 | 2:49.35 | 69095 | 81804
8 | 18:10.55 | 2:47.52 | 81805 | 94381
9 | 20:58.32 | 3:12.25 | 94382 | 108806
10 | 24:10.57 | 2:43.48 | 108807 | 121079
11 | 26:54.30 | 3:20.65 | 121080 | 136144
12 | 30:15.20 | 2:33.62 | 136145 | 147681
13 | 32:49.07 | 2:45.23 | 147682 | 160079
14 | 35:34.30 | 3:02.70 | 160080 | 173799
15 | 38:37.25 | 2:42.15 | 173800 | 185964
16 | 41:19.40 | 3:15.17 | 185965 | 200606


Range status and errors

Selected range

Filename C:\Users\ProgDog\Music\ZALIVKI\Single albums\Otis Redding\Otis Redding - The Very Best of Otis Redding.wav

Peak level 100.0 %
Extraction speed 5.9 X
Range quality 100.0 %
Test CRC 49768E3E
Copy CRC 49768E3E
Copy OK

No errors occurred


AccurateRip summary

Track 1 accurately ripped (confidence 9) [6A7E6E49] (AR v2)
Track 2 accurately ripped (confidence 8) [BDBD9993] (AR v2)
Track 3 accurately ripped (confidence 8) [6DA07BAD] (AR v2)
Track 4 accurately ripped (confidence 8) [014A8177] (AR v2)
Track 5 accurately ripped (confidence 9) [7058A171] (AR v2)
Track 6 accurately ripped (confidence 8) [0427EF84] (AR v2)
Track 7 accurately ripped (confidence 8) [1A574C15] (AR v2)
Track 8 accurately ripped (confidence 8) [CAF0807B] (AR v2)
Track 9 accurately ripped (confidence 8) [2EDB6085] (AR v2)
Track 10 accurately ripped (confidence 9) [7152BE20] (AR v2)
Track 11 accurately ripped (confidence 9) [622D3608] (AR v2)
Track 12 accurately ripped (confidence 8) [015A71D1] (AR v2)
Track 13 accurately ripped (confidence 8) [71ED5C24] (AR v2)
Track 14 accurately ripped (confidence 8) [EAB30142] (AR v2)
Track 15 accurately ripped (confidence 8) [AFE6D129] (AR v2)
Track 16 accurately ripped (confidence 7) [C75B63F1] (AR v2)

All tracks accurately ripped

End of status report

–– CUETools DB Plugin V2.1.3

[CTDB TOCID: 6DFjtfY596vS8cdTE5Myv_ux05I-] found, Submit result: discs with pregaps not supported in this protocol version
[0c660c26] (134/134) Differs in 0 samples @
You can use CUETools to repair this rip.


==== Log checksum 2C6C6A2A26D5A40E9AB51D3CA920B2E9EEF7CE663AA3047EDBFCC1D97E1B713A ====

[CUETools log; Date: 30.01.2020 21:06:11; Version: 2.1.4]
Pregap length 00:00:32.
[CTDB TOCID: 6DFjtfY596vS8cdTE5Myv_ux05I-] found.
Track | CTDB Status
1 | (342/538) Accurately ripped
2 | (342/538) Accurately ripped
3 | (343/538) Accurately ripped
4 | (339/538) Accurately ripped
5 | (339/538) Accurately ripped
6 | (342/538) Accurately ripped
7 | (341/538) Accurately ripped
8 | (342/538) Accurately ripped
9 | (340/538) Accurately ripped
10 | (340/538) Accurately ripped
11 | (340/538) Accurately ripped
12 | (337/538) Accurately ripped
13 | (338/538) Accurately ripped
14 | (337/538) Accurately ripped
15 | (338/538) Accurately ripped
16 | (336/538) Accurately ripped
[AccurateRip ID: 0019366c-01314000-ca0a7210] found.
Track [ CRC | V2 ] Status
01 [b07a9add|6a7e6e49] (058+097/401) Accurately ripped
02 [d4764bd0|bdbd9993] (058+093/395) Accurately ripped
03 [dc61d54a|6da07bad] (058+095/400) Accurately ripped
04 [3600ab55|014a8177] (059+093/399) Accurately ripped
05 [300fb018|7058a171] (058+096/400) Accurately ripped
06 [535695ae|0427ef84] (057+094/395) Accurately ripped
07 [0fc331c9|1a574c15] (058+095/398) Accurately ripped
08 [72cd4f2c|caf0807b] (058+093/396) Accurately ripped
09 [a21e0198|2edb6085] (058+093/397) Accurately ripped
10 [65f96bb7|7152be20] (058+096/399) Accurately ripped
11 [aedf4165|622d3608] (058+096/396) Accurately ripped
12 [a0369da0|015a71d1] (057+095/396) Accurately ripped
13 [b317676b|71ed5c24] (057+095/396) Accurately ripped
14 [04d1201c|eab30142] (057+093/393) Accurately ripped
15 [b2aa78df|afe6d129] (055+096/397) Accurately ripped
16 [08674787|c75b63f1] (055+094/393) Accurately ripped
Offsetted by -2629:
01 [bd1acc85] (015/401) Accurately ripped
02 [373cd3ee] (015/395) Accurately ripped
03 [630c9980] (015/400) Accurately ripped
04 [e66cd17e] (015/399) Accurately ripped
05 [91c2856a] (015/400) Accurately ripped
06 [7fe7a9e3] (015/395) Accurately ripped
07 [166fe306] (015/398) Accurately ripped
08 [49107795] (015/396) Accurately ripped
09 [fc092a43] (015/397) Accurately ripped
10 [31c44403] (015/399) Accurately ripped
11 [da1a55ae] (015/396) Accurately ripped
12 [bd750152] (015/396) Accurately ripped
13 [563e35e4] (015/396) Accurately ripped
14 [dda0dbf7] (015/393) Accurately ripped
15 [5971e745] (015/397) Accurately ripped
16 [0d2369c3] (015/393) Accurately ripped
Offsetted by -2608:
01 [8f63101b] (012/401) Accurately ripped
02 [f76a7bd7] (012/395) Accurately ripped
03 [77133a8f] (012/400) Accurately ripped
04 [ec7c7daa] (012/399) Accurately ripped
05 [7ecfbe12] (012/400) Accurately ripped
06 [62470b2b] (012/395) Accurately ripped
07 [d2092812] (012/398) Accurately ripped
08 [bf9ce47c] (012/396) Accurately ripped
09 [bb0e1948] (012/397) Accurately ripped
10 [c602e192] (012/399) Accurately ripped
11 [0f6b919e] (011/396) Accurately ripped
12 [6a0ae7d2] (012/396) Accurately ripped
13 [74ad4484] (012/396) Accurately ripped
14 [0897acb8] (012/393) Accurately ripped
15 [5b0a7962] (012/397) Accurately ripped
16 [f602c69e] (011/393) Accurately ripped
Offsetted by -1517:
01 [9a2645f5] (021/401) Accurately ripped
02 [db64f0e0] (021/395) Accurately ripped
03 [6ac0c4a5] (021/400) Accurately ripped
04 [77aa1899] (021/399) Accurately ripped
05 [51e0506f] (021/400) Accurately ripped
06 [9a8179d5] (021/395) Accurately ripped
07 [67c8a79e] (021/398) Accurately ripped
08 [71c0aa54] (021/396) Accurately ripped
09 [dc270e04] (021/397) Accurately ripped
10 [09f7e8cb] (021/399) Accurately ripped
11 [921a8345] (021/396) Accurately ripped
12 [7814505f] (021/396) Accurately ripped
13 [dda194ac] (021/396) Accurately ripped
14 [11311615] (021/393) Accurately ripped
15 [4260f3f8] (021/397) Accurately ripped
16 [6e5cd0b9] (020/393) Accurately ripped
Offsetted by -1413:
01 [555438f0] (025/401) Accurately ripped
02 [a9686538] (026/395) Accurately ripped
03 [55aaa629] (026/400) Accurately ripped
04 [7fe72c76] (026/399) Accurately ripped
05 [f2facd1f] (026/400) Accurately ripped
06 [07685c7e] (026/395) Accurately ripped
07 [dd98ef2b] (026/398) Accurately ripped
08 [d8089bc8] (026/396) Accurately ripped
09 [665a74a1] (027/397) Accurately ripped
10 [8cef0687] (026/399) Accurately ripped
11 [b61ca3f5] (026/396) Accurately ripped
12 [e9eaa1e8] (026/396) Accurately ripped
13 [5a55603a] (027/396) Accurately ripped
14 [efa559cb] (026/393) Accurately ripped
15 [cbd79e36] (026/397) Accurately ripped
16 [f6ad9087] (027/393) Accurately ripped
Offsetted by -681:
01 [d5ca8f97] (003/401) Accurately ripped
02 [95dcbf2a] (003/395) Accurately ripped
03 [56e9f946] (003/400) Accurately ripped
04 [69f25745] (003/399) Accurately ripped
05 [786aa5ab] (003/400) Accurately ripped
06 [0d1c7d08] (003/395) Accurately ripped
07 [fbd4a144] (003/398) Accurately ripped
08 [cdb17f06] (003/396) Accurately ripped
09 [d0f5e9d1] (003/397) Accurately ripped
10 [e2094970] (003/399) Accurately ripped
11 [05751761] (003/396) Accurately ripped
12 [754e5829] (003/396) Accurately ripped
13 [8802ca7b] (003/396) Accurately ripped
14 [c704fa2f] (003/393) Accurately ripped
15 [ba2a8e84] (003/397) Accurately ripped
16 [015db4fc] (003/393) Accurately ripped
Offsetted by 1112:
01 [e294de6b] (002/401) Accurately ripped
02 [b77495f5] (002/395) Accurately ripped
03 [c041208d] (002/400) Accurately ripped
04 [3f7672bf] (002/399) Accurately ripped
05 [9a0f48ee] (002/400) Accurately ripped
06 [297f92e5] (002/395) Accurately ripped
07 [d2b9a419] (002/398) Accurately ripped
08 [af48e59f] (002/396) Accurately ripped
09 [3947001f] (002/397) Accurately ripped
10 [a1e7459d] (002/399) Accurately ripped
11 [2054ddce] (002/396) Accurately ripped
12 [24717a17] (002/396) Accurately ripped
13 [d641ec66] (002/396) Accurately ripped
14 [871a9e2f] (002/393) Accurately ripped
15 [d98325ba] (002/397) Accurately ripped
16 [322e30ad] (002/393) Accurately ripped
Offsetted by -2077:
01 [09edb4d4] (000/401) No match (V2 was not tested)
02 [cf9944c5] (000/395) No match (V2 was not tested)
03 [b7ddf645] (000/400) No match (V2 was not tested)
04 [653717d5] (000/399) No match (V2 was not tested)
05 [0dbc56d4] (000/400) No match (V2 was not tested)
06 [cb9fc10a] (000/395) No match (V2 was not tested)
07 [80466828] (000/398) No match (V2 was not tested)
08 [edb70498] (000/396) No match (V2 was not tested)
09 [2024736f] (000/397) No match (V2 was not tested)
10 [2bacf7bc] (000/399) No match (V2 was not tested)
11 [5dee113c] (000/396) No match (V2 was not tested)
12 [823d39f3] (000/396) No match (V2 was not tested)
13 [01117da9] (000/396) No match (V2 was not tested)
14 [c8069a22] (000/393) No match (V2 was not tested)
15 [5d3ae6e1] (000/397) No match (V2 was not tested)
16 [f5fbdb5f] (000/393) No match (V2 was not tested)
Offsetted by -965:
01 [a8792e72] (000/401) No match (V2 was not tested)
02 [babb9c4d] (000/395) No match (V2 was not tested)
03 [2cf48b32] (000/400) No match (V2 was not tested)
04 [628948ee] (000/399) No match (V2 was not tested)
05 [224ba1d3] (000/400) No match (V2 was not tested)
06 [6d1cf102] (000/395) No match (V2 was not tested)
07 [d84bee6b] (000/398) No match (V2 was not tested)
08 [f3916ff6] (000/396) No match (V2 was not tested)
09 [3f5948ac] (000/397) No match (V2 was not tested)
10 [2806de72] (000/399) No match (V2 was not tested)
11 [56aa9721] (000/396) No match (V2 was not tested)
12 [f4d6c9f6] (000/396) No match (V2 was not tested)
13 [df6f4711] (000/396) No match (V2 was not tested)
14 [e5f9e403] (000/393) No match (V2 was not tested)
15 [db19cd2a] (000/397) No match (V2 was not tested)
16 [8be2aa9e] (000/393) No match (V2 was not tested)

Track Peak [ CRC32 ] [W/O NULL] [ LOG ]
– 100,0 [49768E3E] [862EFDD4] CRC32
01 79,6 [3FE9E228] [7F3587E1]
02 86,3 [6ABD3462] [EE31C7EE]
03 80,7 [69C62FC6] [363BA4F2]
04 98,9 [9476315C] [7D5BB4D0]
05 96,5 [CD5AB022] [F49819C9]
06 99,9 [9450C3F7] [565DBD96]
07 96,6 [AAAC434D] [8BF8D8BD]
08 99,9 [AEEC1D30] [D06EEF90]
09 81,5 [773BE2E5] [6CF8A996]
10 100,0 [A670D16D] [8AE9CAC9]
11 100,0 [A772812C] [F82833F2]
12 88,8 [35666DD3] [329BA70C]
13 97,6 [FECA87ED] [8D020613]
14 98,3 [6A9721C6] [5E079B7F]
15 92,6 [1E772227] [945CFC6D]
16 98,5 [5A8DA430] [33ACA5D9]

Thanks to arizonadream

See also:
Otis Redding - The Soul Album (1966)
Otis Redding - Live in London and Paris [Recorded 1967] (2008)
Otis Redding & His Orchest...t Strip [Recorded 1966] (2010)