Subcategories

Öz Ürügülü - Fashion and Welfare (2016)

Posted By: gribovar
Öz Ürügülü - Fashion and Welfare (2016)

Öz Ürügülü - Fashion and Welfare (2016)
EAC Rip | FLAC (tracks+.cue+log) - 336 MB | MP3 CBR 320 kbps (LAME 3.93) - 134 MB | Covers - 52 MB
Genre: Progressive Rock, Avant-Prog | RAR 3% Rec. | Label: Unit Records (UTR 4703)

Swiss group Oz Urugulu is one of the most original and exciting bands out there today. Citing weird food, old video games, and bad movies as major influences, the band is a mixed bag of odd styles and approaches. In zappaesque fashion, the instrumental Oz Urugulu demonstrate with their uncompromising and self-ironic second album "Fashion and Welfare", how the most adverse genres can be melted into something quite wonderful. Prog rock, jazz, oriental or film music - this band is hard to put your finger on. Immerse yourself for 56 minutes into these carefully crafted and joyfully experimental compositions.

Tracklist:
01. Tarkatan Rush
02. Android Mustache
03. Odd Waltz
04. Rabbit
05. I Am the Fungus
06. RDA
07. Garlic Venus
08. Missing Pets

Total time: 56:54

Exact Audio Copy V1.0 beta 4 from 7. December 2014

EAC extraction logfile from 20. December 2016, 16:36

Oz Urugulu / Fashion and Welfare

Used drive : Optiarc DVD RW AD-5260S Adapter: 1 ID: 1

Read mode : Secure
Utilize accurate stream : Yes
Defeat audio cache : Yes
Make use of C2 pointers : No

Read offset correction : 48
Overread into Lead-In and Lead-Out : No
Fill up missing offset samples with silence : Yes
Delete leading and trailing silent blocks : No
Null samples used in CRC calculations : Yes
Used interface : Native Win32 interface for Win NT & 2000
Gap handling : Appended to previous track

Used output format : Internal WAV Routines
Sample format : 44.100 Hz; 16 Bit; Stereo


TOC of the extracted CD

Track | Start | Length | Start sector | End sector
––––––––––––––––––––––––––––-
1 | 0:00.00 | 6:02.28 | 0 | 27177
2 | 6:02.28 | 5:25.07 | 27178 | 51559
3 | 11:27.35 | 6:38.43 | 51560 | 81452
4 | 18:06.03 | 3:51.37 | 81453 | 98814
5 | 21:57.40 | 10:07.03 | 98815 | 144342
6 | 32:04.43 | 7:00.18 | 144343 | 175860
7 | 39:04.61 | 9:31.29 | 175861 | 218714
8 | 48:36.15 | 8:17.28 | 218715 | 256017


Track 1

Filename C:\_EAC\01. Tarkatan Rush.wav

Pre-gap length 0:00:02.00

Peak level 96.3 %
Extraction speed 1.1 X
Track quality 100.0 %
Test CRC FD57EC62
Copy CRC FD57EC62
Track not present in AccurateRip database
Copy OK

Track 2

Filename C:\_EAC\02. Android Mustache.wav

Peak level 96.3 %
Extraction speed 1.1 X
Track quality 100.0 %
Test CRC B490B78E
Copy CRC B490B78E
Track not present in AccurateRip database
Copy OK

Track 3

Filename C:\_EAC\03. Odd Waltz.wav

Peak level 96.3 %
Extraction speed 1.1 X
Track quality 100.0 %
Test CRC 00879E01
Copy CRC 00879E01
Track not present in AccurateRip database
Copy OK

Track 4

Filename C:\_EAC\04. Rabbit.wav

Peak level 96.3 %
Extraction speed 1.1 X
Track quality 100.0 %
Test CRC 7B946B90
Copy CRC 7B946B90
Track not present in AccurateRip database
Copy OK

Track 5

Filename C:\_EAC\05. I Am the Fungus.wav

Peak level 96.3 %
Extraction speed 1.2 X
Track quality 100.0 %
Test CRC 34A378E1
Copy CRC 34A378E1
Track not present in AccurateRip database
Copy OK

Track 6

Filename C:\_EAC\06. RDA.wav

Peak level 96.3 %
Extraction speed 1.1 X
Track quality 100.0 %
Test CRC B8EAD5FB
Copy CRC B8EAD5FB
Track not present in AccurateRip database
Copy OK

Track 7

Filename C:\_EAC\07. RDA.wav

Peak level 96.3 %
Extraction speed 1.1 X
Track quality 99.9 %
Test CRC A5A7B52F
Copy CRC A5A7B52F
Track not present in AccurateRip database
Copy OK

Track 8

Filename C:\_EAC\08. Missing Pets.wav

Peak level 96.3 %
Extraction speed 1.1 X
Track quality 99.9 %
Test CRC D14FE90D
Copy CRC D14FE90D
Track not present in AccurateRip database
Copy OK


None of the tracks are present in the AccurateRip database

No errors occurred

End of status report

–– CUETools DB Plugin V2.1.4

[CTDB TOCID: YnYJ7tFZdXJCZHva.ngV45qn4tE-] disk not present in database
Submit result: YnYJ7tFZdXJCZHva.ngV45qn4tE- has been uploaded


==== Log checksum 9DEEC62E851B5B5C30EC8B7C0866ED1FF51AB45C4946EF90263F736E56CF67F1 ====

[CUETools log; Date: 18.01.2017 16:18:18; Version: 2.1.4]
[CTDB TOCID: YnYJ7tFZdXJCZHva.ngV45qn4tE-] found.
Track | CTDB Status
1 | (1/1) Accurately ripped
2 | (1/1) Accurately ripped
3 | (1/1) Accurately ripped
4 | (1/1) Accurately ripped
5 | (1/1) Accurately ripped
6 | (1/1) Accurately ripped
7 | (1/1) Accurately ripped
8 | (1/1) Accurately ripped
[AccurateRip ID: 001014f7-006d8e73-7a0d5508] disk not present in database.

Track Peak [ CRC32 ] [W/O NULL] [ LOG ]
– 96,3 [D6823730] [3BDADAE6]
01 96,3 [FD57EC62] [CE611F58] CRC32
02 96,3 [B490B78E] [DEA67552] CRC32
03 96,3 [00879E01] [439AE003] CRC32
04 96,3 [7B946B90] [2C5D6939] CRC32
05 96,3 [34A378E1] [A6CB08EA] CRC32
06 96,3 [B8EAD5FB] [01014C49] CRC32
07 96,3 [A5A7B52F] [3D506DDC] CRC32
08 96,3 [D14FE90D] [E7EDCF60] CRC32

Thanks to vp_sunset