Subcategories

Ozric Tentacles - 9 Studio Albums (1993-2011) (Repost)

Posted By: gribovar
Ozric Tentacles - 9 Studio Albums (1993-2011) (Repost)

Ozric Tentacles - 9 Studio Albums (1993-2011)
EAC Rip | FLAC, WavPack (image+.cue+log) - 3,51 GB | MP3 CBR 320 kbps (LAME 3.93) - 1,17 GB | Covers - 320 MB
Genre: Psychedelic/Space Rock | RAR 3% Rec. | Label: Snapper Music, Phoenix Rising, Stretchy Records, Magna Carta

Ozric Tentacles are simply put, legends of the UK underground. Inspired by a myriad of musical genres and musicians from Kraut-rockers Kaan to guitar maestro Steve VAI, from ethnic Arabic to electronic techno, from Hendrix to Hillage. Ozric Tentacles' music is a fusion of sounds, styles and genres that cannot be categorized nor plagiarized, such is its complexity. The essence of the Ozric Tentacles remains essentially a free-willed musical unit oblivious to fashion trends and intent on exploring instrumental experimental music with an obsessive zeal. Formed in the early eighties, the Ozrics began life as a free-form psychedelic vehicle for jamming, attracting a dedicated fan-base at grassroots level by playing at all the free festivals to fans of space-rock, dub, psychedelia, and later on when the festivals had developed into raves, to fans of house and techno. Having then developed their own cottage industry - studio, label, tour bus, dedicated following - the Ozrics eventually achieved top ten album status in the UK with their 1993 album "Jurassic Shift". It was, and still is, an astonishing accomplishment for a band with no celebrity status, and no major record label backing.

Ozric Tentacles - 9 Studio Albums (1993-2011) (Repost)

Ozric Tentacles - Jurassic Shift (1993) [Reissue 1998]
EAC Rip | FLAC (image+.cue+log) - 457 MB | MP3 CBR 320 kbps (LAME 3.93) - 150 MB | Covers - 18 MB
Genre: Psychedelic/Space Rock | RAR 3% Rec. | Label: Snapper Music (SMM CD 547)

Tracklist:
01. Sunhair
02. Stretchy
03. Feng Shui
04. Half Light In Thillai
05. Jurassic Shift
06. Pteranodon
07. Train Oasis
08. Vita Voom
09. Feng Shui (Live, Bonus track)

Total time: 01:03:50

Exact Audio Copy V0.99 prebeta 4 from 23. January 2008

EAC extraction logfile from 10. February 2008, 18:05

Ozric Tentacles / Jurassic Shift

Used drive : PLEXTOR CD-R PX-W5224A Adapter: 1 ID: 1

Read mode : Secure
Utilize accurate stream : Yes
Defeat audio cache : Yes
Make use of C2 pointers : No

Read offset correction : 30
Overread into Lead-In and Lead-Out : Yes
Fill up missing offset samples with silence : Yes
Delete leading and trailing silent blocks : No
Null samples used in CRC calculations : Yes
Used interface : Installed external ASPI interface

Used output format : Internal WAV Routines
Sample format : 44.100 Hz; 16 Bit; Stereo


TOC of the extracted CD

Track | Start | Length | Start sector | End sector
––––––––––––––––––––––––––––-
1 | 0:00.00 | 5:43.20 | 0 | 25744
2 | 5:43.20 | 6:51.40 | 25745 | 56609
3 | 12:34.60 | 10:24.47 | 56610 | 103456
4 | 22:59.32 | 5:35.55 | 103457 | 128636
5 | 28:35.12 | 11:04.63 | 128637 | 178499
6 | 39:40.00 | 5:40.67 | 178500 | 204066
7 | 45:20.67 | 2:45.58 | 204067 | 216499
8 | 48:06.50 | 4:47.45 | 216500 | 238069
9 | 52:54.20 | 10:56.00 | 238070 | 287269


Range status and errors

Selected range

Filename C:\DAE\Ozric Tentacles - Jurassic Shift\Ozric Tentacles - Jurassic Shift.wav

Peak level 98.8 %
Range quality 100.0 %
Test CRC 627DE56E
Copy CRC 627DE56E
Copy OK

No errors occurred

End of status report

[CUETools log; Date: 25.05.2018 16:53:52; Version: 2.1.4]
[CTDB TOCID: KCd8Gmf2y0XxUP2j9CACjSbUTHs-] found.
Track | CTDB Status
1 | (62/82) Accurately ripped
2 | (62/82) Accurately ripped
3 | (61/82) Accurately ripped
4 | (61/82) Accurately ripped
5 | (60/82) Accurately ripped
6 | (61/82) Accurately ripped
7 | (62/82) Accurately ripped
8 | (62/82) Accurately ripped
9 | (62/82) Accurately ripped
[AccurateRip ID: 0015f488-00a099cd-840ef609] found.
Track [ CRC | V2 ] Status
01 [dce27789|13077f1b] (017+013/123) Accurately ripped
02 [6b567d06|8733c8b2] (017+013/124) Accurately ripped
03 [3c5fbacd|a0814f61] (017+013/124) Accurately ripped
04 [7560df0b|c17ffbc2] (017+013/125) Accurately ripped
05 [154ed642|f93b5adf] (017+013/124) Accurately ripped
06 [afc0476a|074cac11] (017+013/124) Accurately ripped
07 [3dcfa620|0b9fb622] (017+013/125) Accurately ripped
08 [4804faf0|5a965487] (017+013/123) Accurately ripped
09 [d91f70f6|b3d03bd8] (017+013/119) Accurately ripped
Offsetted by -2646:
01 [accee639] (006/123) Accurately ripped
02 [3b252986] (006/124) Accurately ripped
03 [67cfdfd3] (006/124) Accurately ripped
04 [c18cefe7] (006/125) Accurately ripped
05 [5483207a] (005/124) Accurately ripped
06 [f8855220] (006/124) Accurately ripped
07 [c7d7a2b2] (006/125) Accurately ripped
08 [182d615c] (006/123) Accurately ripped
09 [1b7872e2] (005/119) Accurately ripped
Offsetted by -2006:
01 [92e5d239] (005/123) Accurately ripped
02 [26ae4986] (005/124) Accurately ripped
03 [4da1c953] (005/124) Accurately ripped
04 [120136e7] (005/125) Accurately ripped
05 [f5e3ce7a] (005/124) Accurately ripped
06 [f18fe7a0] (005/124) Accurately ripped
07 [e1aabf32] (005/125) Accurately ripped
08 [6cb2cc5c] (005/123) Accurately ripped
09 [c026bde2] (005/119) Accurately ripped
Offsetted by -1982:
01 [feb9e179] (005/123) Accurately ripped
02 [391d0786] (005/124) Accurately ripped
03 [cfd9a87b] (005/124) Accurately ripped
04 [31d25ff7] (005/125) Accurately ripped
05 [12576e9a] (005/124) Accurately ripped
06 [c14d1a08] (005/124) Accurately ripped
07 [0f6f76aa] (005/125) Accurately ripped
08 [3977cd2c] (004/123) Accurately ripped
09 [1986e0b2] (004/119) Accurately ripped
Offsetted by -1318:
01 [50a4dcb9] (006/123) Accurately ripped
02 [3714e586] (006/124) Accurately ripped
03 [37e37123] (006/124) Accurately ripped
04 [a217d007] (006/125) Accurately ripped
05 [d02bbcba] (006/124) Accurately ripped
06 [8a14e1f0] (006/124) Accurately ripped
07 [57074aa2] (006/125) Accurately ripped
08 [5ac238fc] (006/123) Accurately ripped
09 [17954e82] (006/119) Accurately ripped
Offsetted by -654:
01 [a28fd7f9] (003/123) Accurately ripped
02 [350cc386] (003/124) Accurately ripped
03 [9fed39cb] (003/124) Accurately ripped
04 [125d4017] (003/125) Accurately ripped
05 [8e000ada] (003/124) Accurately ripped
06 [52dca9d8] (003/124) Accurately ripped
07 [9e9f1e9a] (003/125) Accurately ripped
08 [7c0ca4cc] (002/123) Accurately ripped
09 [15a3bc52] (002/119) Accurately ripped
Offsetted by -2641:
01 [389b1411] (002/123) Accurately ripped
02 [1efc3bc6] (002/124) Accurately ripped
03 [4d9b83a6] (002/124) Accurately ripped
04 [482dd875] (002/125) Accurately ripped
05 [6fc5e1d6] (000/124) No match (V2 was not tested)
06 [ae77674b] (002/124) Accurately ripped
07 [1c0b48eb] (002/125) Accurately ripped
08 [c2d66c32] (002/123) Accurately ripped
09 [38c1cf78] (002/119) Accurately ripped
Offsetted by -1977:
01 [8a860f51] (009/123) Accurately ripped
02 [1cf419c6] (009/124) Accurately ripped
03 [b5a54c4e] (009/124) Accurately ripped
04 [b8734885] (009/125) Accurately ripped
05 [2d9a2ff6] (000/124) No match (V2 was not tested)
06 [773f2f33] (009/124) Accurately ripped
07 [63a31ce3] (009/125) Accurately ripped
08 [e420d802] (009/123) Accurately ripped
09 [36d03d48] (009/119) Accurately ripped
Offsetted by -66:
01 [745b4d99] (000/123) No match (V2 was not tested)
02 [78a5f286] (000/124) No match (V2 was not tested)
03 [9646151f] (000/124) No match (V2 was not tested)
04 [1de1ae1f] (000/125) No match (V2 was not tested)
05 [4710ddea] (000/124) No match (V2 was not tested)
06 [b477fccc] (000/124) No match (V2 was not tested)
07 [7ff2ad96] (000/125) No match (V2 was not tested)
08 [14e738b4] (000/123) No match (V2 was not tested)
09 [2357113a] (000/119) No match (V2 was not tested)

Track Peak [ CRC32 ] [W/O NULL] [ LOG ]
– 98,8 [627DE56E] [C1DFD4B3] CRC32
01 98,8 [880CA38F] [7ACCC36B]
02 97,5 [E9610047] [C45A5D60]
03 93,0 [19A080AA] [C90F4271]
04 76,4 [28CCD167] [5B9F567C]
05 98,8 [8AFF8E14] [DE2FB834]
06 97,5 [3FD8FDC2] [501BEDED]
07 88,5 [9CD6315F] [494ADC2D]
08 98,8 [222A75FD] [C99EE116]
09 98,8 [187DBEBF] [A9EDC3B6]

Ozric Tentacles - 9 Studio Albums (1993-2011) (Repost)

Ozric Tentacles - Become The Other (1995) [Reissue 1999]
EAC Rip | FLAC (image+.cue+log) - 371 MB | MP3 CBR 320 kbps (LAME 3.93) - 129 MB | Covers - 21 MB
Genre: Psychedelic/Space Rock | RAR 3% Rec. | Label: Snapper Music (SMM CD 593)

Tracklist:
01. Cat DNA
02. Ahu Belahu
03. Ghedengi
04. Wob Glass
05. Neurochasm
06. Become The Other
07. Vibuthi
08. Plurnstyle

Total time: 54:49

Exact Audio Copy V0.99 prebeta 4 from 23. January 2008

EAC extraction logfile from 10. February 2008, 18:44

Ozric Tentacles / Become The Other

Used drive : PLEXTOR CD-R PX-W5224A Adapter: 1 ID: 1

Read mode : Secure
Utilize accurate stream : Yes
Defeat audio cache : Yes
Make use of C2 pointers : No

Read offset correction : 30
Overread into Lead-In and Lead-Out : Yes
Fill up missing offset samples with silence : Yes
Delete leading and trailing silent blocks : No
Null samples used in CRC calculations : Yes
Used interface : Installed external ASPI interface

Used output format : Internal WAV Routines
Sample format : 44.100 Hz; 16 Bit; Stereo


TOC of the extracted CD

Track | Start | Length | Start sector | End sector
––––––––––––––––––––––––––––-
1 | 0:00.32 | 6:30.58 | 32 | 29339
2 | 6:31.15 | 2:52.65 | 29340 | 42304
3 | 9:24.05 | 5:41.22 | 42305 | 67901
4 | 15:05.27 | 7:52.05 | 67902 | 103306
5 | 22:57.32 | 6:47.28 | 103307 | 133859
6 | 29:44.60 | 6:25.17 | 133860 | 162751
7 | 36:10.02 | 10:50.70 | 162752 | 211571
8 | 47:00.72 | 7:48.03 | 211572 | 246674


Range status and errors

Selected range

Filename C:\DAE\Ozric Tentacles - Become The Other\Ozric Tentacles - Become The Other.wav

Peak level 98.8 %
Range quality 100.0 %
Test CRC 2E8A3C7D
Copy CRC 2E8A3C7D
Copy OK

No errors occurred

End of status report

[CUETools log; Date: 25.05.2018 16:51:48; Version: 2.1.4]
Pregap length 00:00:32.
[CTDB TOCID: 09a.dlQN5LWMzYWPU9SO7N0WgFc-] found.
Track | CTDB Status
1 | (52/57) Accurately ripped
2 | (53/57) Accurately ripped
3 | (52/57) Accurately ripped
4 | (53/57) Accurately ripped
5 | (53/57) Accurately ripped
6 | (55/57) Accurately ripped
7 | (53/57) Accurately ripped
8 | (51/57) Accurately ripped
[AccurateRip ID: 000f3971-0068332d-760cd908] found.
Track [ CRC | V2 ] Status
01 [3ce6fdac|5d599dff] (11+10/92) Accurately ripped
02 [306334dc|61c10676] (11+10/95) Accurately ripped
03 [8087632a|4d1e2e27] (11+10/93) Accurately ripped
04 [e6362a2d|7174ee86] (11+10/95) Accurately ripped
05 [84bde378|69da34d3] (11+10/93) Accurately ripped
06 [5933a417|b96d281d] (11+10/95) Accurately ripped
07 [ba914fba|9af69fc3] (11+10/94) Accurately ripped
08 [316fc9e8|767e55bd] (11+10/95) Accurately ripped
Offsetted by -2058:
01 [63237989] (02/92) Accurately ripped
02 [6114cf08] (02/95) Accurately ripped
03 [262de872] (02/93) Accurately ripped
04 [91bd7599] (02/95) Accurately ripped
05 [8a571de8] (02/93) Accurately ripped
06 [5441c2fc] (02/95) Accurately ripped
07 [9d9bce1b] (02/94) Accurately ripped
08 [639526f9] (02/95) Accurately ripped
Offsetted by -2048:
01 [dc3659e4] (07/92) Accurately ripped
02 [7fb55133] (07/95) Accurately ripped
03 [8cd4dbee] (07/93) Accurately ripped
04 [8f533948] (07/95) Accurately ripped
05 [47136263] (07/93) Accurately ripped
06 [f7ac26c1] (07/95) Accurately ripped
07 [45d6be49] (07/94) Accurately ripped
08 [615ae1ba] (07/95) Accurately ripped
Offsetted by -1394:
01 [a4cfc4c8] (04/92) Accurately ripped
02 [c7c78425] (04/95) Accurately ripped
03 [7b7537a1] (04/93) Accurately ripped
04 [376aa200] (04/95) Accurately ripped
05 [c404120a] (04/93) Accurately ripped
06 [05604bc6] (04/95) Accurately ripped
07 [6d59c2ec] (04/94) Accurately ripped
08 [c2e29392] (04/95) Accurately ripped
Offsetted by -735:
01 [679304c4] (02/92) Accurately ripped
02 [0e3cae12] (02/95) Accurately ripped
03 [49c4e581] (02/93) Accurately ripped
04 [5f4c2ced] (02/95) Accurately ripped
05 [b56226aa] (02/93) Accurately ripped
06 [2825ef24] (02/95) Accurately ripped
07 [f6d83bcc] (02/94) Accurately ripped
08 [df75b348] (02/95) Accurately ripped
Offsetted by -71:
01 [92ccaec6] (03/92) Accurately ripped
02 [1ccdb3d6] (03/95) Accurately ripped
03 [3d57b7ca] (03/93) Accurately ripped
04 [cd829e02] (03/95) Accurately ripped
05 [88d5eb84] (03/93) Accurately ripped
06 [f2e1e724] (03/95) Accurately ripped
07 [e23ddc04] (03/94) Accurately ripped
08 [82ac4dca] (03/95) Accurately ripped
Offsetted by 920:
01 [e3c71627] (14/92) Accurately ripped
02 [a6923e9f] (15/95) Accurately ripped
03 [c12f024c] (14/93) Accurately ripped
04 [4667ad5e] (15/95) Accurately ripped
05 [f0fd867a] (15/93) Accurately ripped
06 [0e7fe048] (15/95) Accurately ripped
07 [9977af20] (14/94) Accurately ripped
08 [a9a2a8a6] (15/95) Accurately ripped
Offsetted by -659:
01 [2bb20c4c] (00/92) No match (V2 was not tested)
02 [748c0507] (00/95) No match (V2 was not tested)
03 [112c0f39] (00/93) No match (V2 was not tested)
04 [5565533d] (00/95) No match (V2 was not tested)
05 [9d54c488] (00/93) No match (V2 was not tested)
06 [f303fdba] (00/95) No match (V2 was not tested)
07 [23dc5ade] (00/94) No match (V2 was not tested)
08 [733eb6e9] (00/95) No match (V2 was not tested)

Track Peak [ CRC32 ] [W/O NULL] [ LOG ]
– 98,8 [2E8A3C7D] [2D7C7147] CRC32
01 98,8 [3A0F61E4] [CD7EE890]
02 98,8 [07396788] [915ECA64]
03 98,8 [8D5B3575] [712899AF]
04 98,8 [4EBAEA36] [83A5ED72]
05 98,8 [52C36CED] [8C001154]
06 98,8 [84AB0520] [D950925A]
07 98,8 [CD402306] [7F7A76D6]
08 98,8 [CCC3D321] [300CF32E]

Ozric Tentacles - 9 Studio Albums (1993-2011) (Repost)

Ozric Tentacles - Curious Corn (1997)
EAC Rip | FLAC (image+.cue+log) - 333 MB | MP3 CBR 320 kbps (LAME 3.93) - 109 MB | Covers - 25 MB
Genre: Psychedelic/Space Rock | RAR 3% Rec. | Label: Snapper Music (SMACD 502)

Tracklist:
01. Spyroid
02. Oolite Grove
03. Afroclonk
04. Curious Corn
05. Oddentity
06. Papyrus
07. Meander

Total time: 46:36

EAC extraction logfile from 16. August 2005, 11:38 for CD
Ozric Tentacles / Curious Corn

Used drive : PLEXTOR DVDR PX-708A Adapter: 1 ID: 0
Read mode : Secure with NO C2, accurate stream, disable cache
Read offset correction : 30
Overread into Lead-In and Lead-Out : Yes

Used output format : Internal WAV Routines
44.100 Hz; 16 Bit; Stereo

Other options :
Fill up missing offset samples with silence : Yes
Delete leading and trailing silent blocks : No
Installed external ASPI interface


Range status and errors
Selected range
Filename C:\DAE\Ozric Tentacles\Curious Corn\CDImage.wav

Peak level 100.0 %
Range quality 100.0 %
CRC 67AB0535
Copy OK

No errors occured

End of status report

[CUETools log; Date: 25.05.2018 16:52:28; Version: 2.1.4]
[CTDB TOCID: ZuEasXTaAFpd2SRab5v_U3aIbOA-] found.
Track | CTDB Status
1 | (48/49) Accurately ripped
2 | (48/49) Accurately ripped
3 | (47/49) Accurately ripped
4 | (48/49) Accurately ripped
5 | (48/49) Accurately ripped
6 | (46/49) Accurately ripped
7 | (48/49) Accurately ripped
[AccurateRip ID: 000ca301-004d92bf-550aeb07] found.
Track [ CRC | V2 ] Status
01 [e28a5a36|e8c61cbc] (26+31/57) Accurately ripped
02 [2e7406cd|50db47f3] (29+31/60) Accurately ripped
03 [ac9450f3|2e5cdec4] (28+32/60) Accurately ripped
04 [c3838de4|a54ae11a] (28+31/59) Accurately ripped
05 [d673d26f|3927d496] (29+32/61) Accurately ripped
06 [aa986468|95608a4b] (28+32/60) Accurately ripped
07 [d9425e4a|3400e0fb] (28+32/60) Accurately ripped

Track Peak [ CRC32 ] [W/O NULL] [ LOG ]
– 100,0 [67AB0535] [B9DF583B] CRC32
01 100,0 [4B92FC9E] [29C7716A]
02 100,0 [50371AF1] [57CB3FCB]
03 100,0 [EA1103DA] [D66AF810]
04 100,0 [8FEB3E60] [55D6AF41]
05 100,0 [167BD543] [C37CCF20]
06 100,0 [75183BC9] [5F0369CF]
07 100,0 [458DDA5F] [A0DF02FA]

Ozric Tentacles - 9 Studio Albums (1993-2011) (Repost)

Ozric Tentacles - Waterfall Cities (1999)
EAC Rip | FLAC (image+.cue+log) - 429 MB | MP3 CBR 320 kbps (LAME 3.93) - 135 MB | Covers - 17 MB
Genre: Psychedelic/Space Rock | RAR 3% Rec. | Label: Phoenix Rising (2005)

Tracklist:
01. Coily
02. Xingu
03. Waterfall City
04. Ch'ai
05. Spiralmind
06. Sultana Detrii
07. Aura Borealis

Total time: 57:35

EAC extraction logfile from 3. December 2006, 10:04 for CD
Ozric Tentacles / Waterfall Cities

Used drive : PLEXTOR CD-R PX-W5224A Adapter: 1 ID: 1
Read mode : Secure with NO C2, accurate stream, disable cache
Read offset correction : 30
Overread into Lead-In and Lead-Out : Yes

Used output format : Internal WAV Routines
44.100 Hz; 16 Bit; Stereo

Other options :
Fill up missing offset samples with silence : Yes
Delete leading and trailing silent blocks : No
Installed external ASPI interface


Range status and errors
Selected range
Filename C:\DAE\Ozric Tentacles\Waterfall Cities\cdimage.wav

Peak level 100.0 %
Range quality 99.9 %
CRC 84BF08F5
Copy OK

No errors occured

End of status report

[CUETools log; Date: 25.05.2018 16:58:33; Version: 2.1.4]
[CTDB TOCID: EwCDpdKoBElpMR75GqYaq3g.81I-] found.
Track | CTDB Status
1 | (18/21) Accurately ripped
2 | (17/21) Accurately ripped
3 | (17/21) Accurately ripped
4 | (18/21) Accurately ripped
5 | (17/21) Accurately ripped
6 | (19/21) Accurately ripped
7 | (17/21) Accurately ripped
[AccurateRip ID: 000fe01b-005ff678-690d7f07] found.
Track [ CRC | V2 ] Status
01 [1f86fb3e|c900818a] (21+17/38) Accurately ripped
02 [a44e0c52|64f54c38] (22+17/39) Accurately ripped
03 [44a3ebc1|31a99c75] (22+16/38) Accurately ripped
04 [22cc669f|98bd145d] (22+16/38) Accurately ripped
05 [63598e5f|def59a5b] (21+13/36) Accurately ripped
06 [677cdd13|34065be1] (22+17/39) Accurately ripped
07 [fb616f3a|390b3649] (21+16/37) Accurately ripped

Track Peak [ CRC32 ] [W/O NULL] [ LOG ]
– 100,0 [84BF08F5] [E8FC2F0E] CRC32
01 100,0 [8259A1A8] [57DF0A73]
02 100,0 [8220B9EB] [68FCE430]
03 100,0 [7DDB4A72] [7643707B]
04 100,0 [0BA03369] [E396C8D9]
05 100,0 [4E943D95] [09AC4018]
06 100,0 [89F0F47A] [17727C74]
07 100,0 [751DF678] [78424438]

Ozric Tentacles - 9 Studio Albums (1993-2011) (Repost)

Ozric Tentacles - The Hidden Step (2000)
EAC Rip | FLAC (image+.cue+log) - 292 MB | MP3 CBR 320 kbps (LAME 3.93) - 112 MB | Covers - 24 MB
Genre: Psychedelic/Space Rock | RAR 3% Rec. | Label: Stretchy Records (STRETCHYCD3)

Tracklist:
01. Holohedron
02. The Hidden Step
03. Ashlandi Bol
04. Aramanu
05. Pixel Dream
06. Tight Spin
07. Ta Khut

Total time: 47:54

EAC extraction logfile from 16. August 2005, 12:59 for CD
Ozric Tentacles / The Hidden Step

Used drive : PLEXTOR DVDR PX-708A Adapter: 1 ID: 0
Read mode : Secure with NO C2, accurate stream, disable cache
Read offset correction : 30
Overread into Lead-In and Lead-Out : Yes

Used output format : Internal WAV Routines
44.100 Hz; 16 Bit; Stereo

Other options :
Fill up missing offset samples with silence : Yes
Delete leading and trailing silent blocks : No
Installed external ASPI interface


Range status and errors
Selected range
Filename C:\DAE\Ozric Tentacles\The Hidden Step\CDImage.wav

Peak level 98.8 %
Range quality 100.0 %
CRC 8062F5E3
Copy OK

No errors occured

End of status report

[CUETools log; Date: 25.05.2018 16:56:56; Version: 2.1.4]
[CTDB TOCID: WUP2x0hdW62VwIA9yyLZnuJiZh4-] found.
Track | CTDB Status
1 | (30/31) Accurately ripped
2 | (30/31) Accurately ripped
3 | (30/31) Accurately ripped
4 | (30/31) Accurately ripped
5 | (30/31) Accurately ripped
6 | (30/31) Accurately ripped
7 | (30/31) Accurately ripped
[AccurateRip ID: 000cbd7a-004cf2e0-580b3907] found.
Track [ CRC | V2 ] Status
01 [dd502c30|1a53c785] (18+22/40) Accurately ripped
02 [9fc58dbe|b9281b39] (17+22/39) Accurately ripped
03 [92468746|ebcf375b] (16+22/38) Accurately ripped
04 [7a0c0595|bec0e391] (16+22/38) Accurately ripped
05 [df862995|7d9e08ae] (17+22/39) Accurately ripped
06 [3f680d9d|b3c74437] (18+22/40) Accurately ripped
07 [61624497|d08bc568] (16+22/38) Accurately ripped
Offsetted by -66:
01 [7513b69c] (00/40) No match (V2 was not tested)
02 [a3f00e27] (00/39) No match (V2 was not tested)
03 [6d2cb20a] (00/38) No match (V2 was not tested)
04 [f8876cb9] (00/38) No match (V2 was not tested)
05 [aeff8f51] (00/39) No match (V2 was not tested)
06 [3f41d6cb] (00/40) No match (V2 was not tested)
07 [23979d3c] (00/38) No match (V2 was not tested)

Track Peak [ CRC32 ] [W/O NULL] [ LOG ]
– 98,8 [8062F5E3] [75FD1388] CRC32
01 98,8 [668A499F] [B27F1E03]
02 98,8 [413616D7] [EE4E8076]
03 98,8 [5D6043C8] [1BB2FE00]
04 98,8 [4F91481F] [F2991466]
05 98,8 [6FBD9E97] [D92FDD7C]
06 98,8 [F56BDC5B] [55B0702D]
07 98,8 [5D68AF89] [66532090]

Ozric Tentacles - 9 Studio Albums (1993-2011) (Repost)

Ozric Tentacles - Swirly Termination (2000)
EAC Rip | FLAC (image+.cue+log) - 339 MB | MP3 CBR 320 kbps (LAME 3.93) - 107 MB | Covers - 13 MB
Genre: Psychedelic/Space Rock | RAR 3% Rec. | Label: Snapper Music (SMA CD 821)

Tracklist:
01. Steep
02. Space Out
03. Pyoing
04. Far Dreaming
05. Waldorfdub
06. Kick 98
07. Voy Mandala

Total time: 45:44

EAC extraction logfile from 16. August 2005, 13:47 for CD
Ozric Tentacles / Swirly Termination

Used drive : PLEXTOR DVDR PX-708A Adapter: 1 ID: 0
Read mode : Secure with NO C2, accurate stream, disable cache
Read offset correction : 30
Overread into Lead-In and Lead-Out : Yes

Used output format : Internal WAV Routines
44.100 Hz; 16 Bit; Stereo

Other options :
Fill up missing offset samples with silence : Yes
Delete leading and trailing silent blocks : No
Installed external ASPI interface


Range status and errors
Selected range
Filename C:\DAE\Ozric Tentacles\Swirly Termination\CDImage.wav

Peak level 100.0 %
Range quality 100.0 %
CRC 3AC84DB4
Copy OK

No errors occured

End of status report

[CUETools log; Date: 25.05.2018 16:56:15; Version: 2.1.4]
[CTDB TOCID: GMmP6lBW_oDvwx2W8BwlNT8vtCk-] found.
Track | CTDB Status
1 | (33/34) Accurately ripped
2 | (33/34) Accurately ripped
3 | (33/34) Accurately ripped
4 | (33/34) Accurately ripped
5 | (32/34) Accurately ripped
6 | (32/34) Accurately ripped
7 | (33/34) Accurately ripped
[AccurateRip ID: 000afc3b-004389ff-4f0ab707] found.
Track [ CRC | V2 ] Status
01 [6b2be0ee|b6e5d255] (15+23/63) Accurately ripped
02 [4e7542f7|db8a6a98] (15+23/62) Accurately ripped
03 [de254b73|83b4ada0] (15+23/63) Accurately ripped
04 [871a2265|94d005b6] (15+23/63) Accurately ripped
05 [d58a4179|632dfd5f] (15+22/62) Accurately ripped
06 [923300a9|4af2fd25] (15+22/62) Accurately ripped
07 [f4d60bac|f5cd57be] (14+23/62) Accurately ripped
Offsetted by -1328:
01 [a7880aa5] (02/63) Accurately ripped
02 [65522bcb] (02/62) Accurately ripped
03 [7334f2d5] (02/63) Accurately ripped
04 [8e0f2a4c] (02/63) Accurately ripped
05 [725eed82] (02/62) Accurately ripped
06 [9edf2cd5] (02/62) Accurately ripped
07 [3e6e8b25] (02/62) Accurately ripped
Offsetted by -664:
01 [85226f20] (11/63) Accurately ripped
02 [3c187607] (11/62) Accurately ripped
03 [873efa6d] (11/63) Accurately ripped
04 [356cfb98] (11/63) Accurately ripped
05 [0d455214] (11/62) Accurately ripped
06 [2847415a] (11/62) Accurately ripped
07 [ef3f3814] (11/62) Accurately ripped
Offsetted by -659:
01 [dba1f39a] (03/63) Accurately ripped
02 [3aaf1962] (02/62) Accurately ripped
03 [4367c8b6] (03/63) Accurately ripped
04 [e65f4a19] (03/63) Accurately ripped
05 [e3a57695] (03/62) Accurately ripped
06 [c2916968] (03/62) Accurately ripped
07 [ab34d857] (03/62) Accurately ripped

Track Peak [ CRC32 ] [W/O NULL] [ LOG ]
– 100,0 [3AC84DB4] [03EB1182] CRC32
01 100,0 [20DBAFE5] [1093EBD9]
02 100,0 [610BE58A] [0F70B8E4]
03 100,0 [46432FF3] [4D6E6E03]
04 100,0 [D480D038] [5FFA4D2B]
05 100,0 [3D1172F0] [76C79C0E]
06 100,0 [0CA35220] [F2897720]
07 100,0 [30A9D142] [879BB663]

Ozric Tentacles - 9 Studio Albums (1993-2011) (Repost)

Ozric Tentacles - Spirals in Hyperspace (2004)
EAC Rip | FLAC (image+.cue+log) - 499 MB | MP3 CBR 320 kbps (LAME 3.93) - 164 MB | Covers - 50 MB
Genre: Psychedelic/Space Rock | RAR 3% Rec. | Label: Magna Carta (MAX-9067-2)

Tracklist:
01. Chewier
02. Spirals In Hyperspace
03. Slinky
04. Toka Tola
05. Plasmoid
06. Oakum
07. Akasha
08. Psychic Chasm
09. Zoemetra

Total time: 01:09:39

EAC extraction logfile from 18. November 2004, 15:46 for CD
Ozric Tentacles / Spirals In Hyperspace

Used drive : MATSHITADVD-ROM SR-8583 Adapter: 1 ID: 1
Read mode : Secure with NO C2, accurate stream, disable cache
Read offset correction : 691
Overread into Lead-In and Lead-Out : No

Used output format : Internal WAV Routines
44.100 Hz; 16 Bit; Stereo

Other options :
Fill up missing offset samples with silence : Yes
Delete leading and trailing silent blocks : No
Installed external ASPI interface


Range status and errors
Selected range
Filename D:\DAE\Spirals In Hyperspace\CDImage.wav

Peak level 98.8 %
Range quality 100.0 %
CRC A4227083
Copy OK

No errors occured

End of status report

[CUETools log; Date: 25.05.2018 16:55:38; Version: 2.1.4]
[CTDB TOCID: vLFRmwpsXf0EVf1dVoqdq_BHPkc-] found.
Track | CTDB Status
1 | (58/59) Accurately ripped
2 | (58/59) Accurately ripped
3 | (58/59) Accurately ripped
4 | (58/59) Accurately ripped
5 | (57/59) Accurately ripped
6 | (58/59) Accurately ripped
7 | (58/59) Accurately ripped
8 | (58/59) Accurately ripped
9 | (56/59) Accurately ripped
[AccurateRip ID: 0017af9a-00ae78c6-7d105309] found.
Track [ CRC | V2 ] Status
01 [ef519ed7|21f044c3] (29+32/77) Accurately ripped
02 [d37cc581|2c6b8722] (29+32/78) Accurately ripped
03 [f3bf2444|e9232fff] (30+32/79) Accurately ripped
04 [9b306834|c6ec6e93] (29+32/78) Accurately ripped
05 [b8b5b276|a707d655] (29+30/76) Accurately ripped
06 [139de1fd|05f9e842] (29+30/76) Accurately ripped
07 [3098929b|372835f2] (29+32/78) Accurately ripped
08 [89ab1548|9c67b663] (27+32/76) Accurately ripped
09 [02fa13ab|a19a4874] (27+32/76) Accurately ripped
Offsetted by -664:
01 [c05e64e3] (05/77) Accurately ripped
02 [aa768759] (05/78) Accurately ripped
03 [d24c1d34] (05/79) Accurately ripped
04 [8278264f] (05/78) Accurately ripped
05 [24ae867b] (05/76) Accurately ripped
06 [02500981] (05/76) Accurately ripped
07 [21856371] (05/78) Accurately ripped
08 [d78d240e] (05/76) Accurately ripped
09 [c0c5ca20] (05/76) Accurately ripped
Offsetted by 6:
01 [66a21d64] (00/77) No match
02 [c9d580ab] (00/78) No match
03 [f5975048] (00/79) No match
04 [5cdb4c7a] (00/78) No match
05 [28e46a87] (00/76) No match (V2 was not tested)
06 [090b4424] (00/76) No match (V2 was not tested)
07 [f0c72f4c] (00/78) No match
08 [0c29d573] (00/76) No match
09 [20d2f889] (00/76) No match
Offsetted by 572:
01 [310d8f48] (00/77) No match (V2 was not tested)
02 [e5dd2325] (00/78) No match (V2 was not tested)
03 [4e3f886c] (00/79) No match (V2 was not tested)
04 [8b6fca92] (00/78) No match (V2 was not tested)
05 [b1852fd6] (00/76) No match (V2 was not tested)
06 [4f69e503] (00/76) No match (V2 was not tested)
07 [f3eef819] (00/78) No match (V2 was not tested)
08 [d74ee912] (00/76) No match (V2 was not tested)
09 [c0fdc489] (00/76) No match (V2 was not tested)

Track Peak [ CRC32 ] [W/O NULL] [ LOG ]
– 98,8 [A4227083] [B17C7DB6] CRC32
01 98,8 [02575C30] [BF11E618]
02 98,8 [D6736816] [6EF342E7]
03 98,8 [F5366BE0] [AE141689]
04 98,8 [0E2B8F37] [43D6C40F]
05 98,8 [2975B080] [515ACED6]
06 98,8 [FA40F26E] [99BEDDF6]
07 98,8 [9F17218F] [EB4B87EE]
08 98,8 [DC0FA54B] [FC84E0FF]
09 98,8 [B6BC2430] [6A04A463]

Ozric Tentacles - 9 Studio Albums (1993-2011) (Repost)

Ozric Tentacles - The Yumyum Tree (2009)
EAC Rip | FLAC (image+.cue+log) - 378 MB | MP3 CBR 320 kbps (LAME 3.93) - 125 MB | Covers - 28 MB
Genre: Psychedelic/Space Rock | RAR 3% Rec. | Label: Snapper Music (SMACD958)

Tracklist:
01. Magick Valley
02. Oddweird
03. Mooncalf
04. Oolong Oolong
05. Yumyum Tree
06. Plant Music
07. Nakuru
08. San Pedro

Total time: 53:10

Exact Audio Copy V0.99 prebeta 4 from 23. January 2008

EAC extraction logfile from 10. June 2009, 9:07

Ozric Tentacles / The Yumyum Tree

Used drive : PLEXTOR CD-R PREMIUM2 Adapter: 1 ID: 0

Read mode : Secure
Utilize accurate stream : Yes
Defeat audio cache : Yes
Make use of C2 pointers : No

Read offset correction : 30
Overread into Lead-In and Lead-Out : Yes
Fill up missing offset samples with silence : Yes
Delete leading and trailing silent blocks : No
Null samples used in CRC calculations : Yes
Used interface : Native Win32 interface for Win NT & 2000

Used output format : Internal WAV Routines
Sample format : 44.100 Hz; 16 Bit; Stereo


TOC of the extracted CD

Track | Start | Length | Start sector | End sector
––––––––––––––––––––––––––––-
1 | 0:00.00 | 6:42.54 | 0 | 30203
2 | 6:42.54 | 6:14.37 | 30204 | 58290
3 | 12:57.16 | 7:41.17 | 58291 | 92882
4 | 20:38.33 | 5:54.21 | 92883 | 119453
5 | 26:32.54 | 9:07.73 | 119454 | 160551
6 | 35:40.52 | 5:28.09 | 160552 | 185160
7 | 41:08.61 | 5:39.10 | 185161 | 210595
8 | 46:47.71 | 6:21.68 | 210596 | 239238


Range status and errors

Selected range

Filename C:\DAE\Ozric Tentacles - The Yumyum Tree\Ozric Tentacles - The Yumyum Tree.wav

Peak level 100.0 %
Range quality 100.0 %
Test CRC DCEE7A7D
Copy CRC DCEE7A7D
Copy OK

No errors occurred


AccurateRip summary

Track 1 not present in database
Track 2 not present in database
Track 3 not present in database
Track 4 not present in database
Track 5 not present in database
Track 6 not present in database
Track 7 not present in database
Track 8 not present in database

None of the tracks are present in the AccurateRip database

End of status report

[CUETools log; Date: 25.05.2018 16:57:41; Version: 2.1.4]
[CTDB TOCID: gteVWbBHR.TeBHRTL6TKmJUbKfY-] found.
Track | CTDB Status
1 | (62/62) Accurately ripped
2 | (62/62) Accurately ripped
3 | (62/62) Accurately ripped
4 | (62/62) Accurately ripped
5 | (59/62) Accurately ripped
6 | (62/62) Accurately ripped
7 | (62/62) Accurately ripped
8 | (62/62) Accurately ripped
[AccurateRip ID: 0010babc-006f6942-640c7508] found.
Track [ CRC | V2 ] Status
01 [b01eaee5|90051922] (27+22/69) Accurately ripped
02 [47102034|a627d77d] (27+22/69) Accurately ripped
03 [8a11130b|6b664001] (27+22/69) Accurately ripped
04 [cf21c024|27724600] (27+22/69) Accurately ripped
05 [f92a53ce|77c5441d] (27+22/69) Accurately ripped
06 [5320cad4|0badb82a] (27+22/69) Accurately ripped
07 [c31909d2|7f8aabf9] (27+22/69) Accurately ripped
08 [62b93005|358e0875] (28+22/70) Accurately ripped
Offsetted by -676:
01 [b9b24f7d] (05/69) Accurately ripped
02 [530bc5d2] (05/69) Accurately ripped
03 [2aa7f6d9] (05/69) Accurately ripped
04 [ab6cabbe] (05/69) Accurately ripped
05 [5cd763a8] (05/69) Accurately ripped
06 [313f2805] (05/69) Accurately ripped
07 [cf6dade5] (05/69) Accurately ripped
08 [a824d859] (05/70) Accurately ripped
Offsetted by -732:
01 [04b6f74d] (00/69) No match (V2 was not tested)
02 [caea8565] (00/69) No match (V2 was not tested)
03 [56465792] (00/69) No match (V2 was not tested)
04 [e5354587] (00/69) No match (V2 was not tested)
05 [7df038ab] (00/69) No match
06 [56f622d8] (00/69) No match (V2 was not tested)
07 [5d35e0ce] (00/69) No match (V2 was not tested)
08 [0a4c0f31] (00/70) No match (V2 was not tested)
Offsetted by -670:
01 [71a8ab39] (00/69) No match (V2 was not tested)
02 [4dd19fb9] (00/69) No match (V2 was not tested)
03 [d6c8470c] (00/69) No match (V2 was not tested)
04 [56562495] (00/69) No match (V2 was not tested)
05 [77fef795] (00/69) No match (V2 was not tested)
06 [ff5d62fe] (00/69) No match (V2 was not tested)
07 [22b3da64] (00/69) No match (V2 was not tested)
08 [26c5370b] (00/70) No match (V2 was not tested)
Offsetted by -144:
01 [71061545] (00/69) No match
02 [cea628e3] (00/69) No match
03 [3f5ed844] (00/69) No match
04 [d3fb8461] (00/69) No match
05 [05284369] (00/69) No match (V2 was not tested)
06 [ee810c59] (00/69) No match
07 [c0491d21] (00/69) No match
08 [83b04f55] (00/70) No match

Track Peak [ CRC32 ] [W/O NULL] [ LOG ]
– 100,0 [DCEE7A7D] [54AE27AC] CRC32
01 100,0 [9F515308] [ACF56F7F]
02 100,0 [2B03C1D2] [2D0DF6FE]
03 100,0 [8E2AC62D] [F027FB34]
04 100,0 [E0856A99] [CE1D615A]
05 100,0 [170995F8] [5BBBBED7]
06 100,0 [EA459F00] [809640F3]
07 100,0 [F4A11D3D] [CEA3CB4A]
08 100,0 [A3959C20] [855AE687]

Ozric Tentacles - 9 Studio Albums (1993-2011) (Repost)

Ozric Tentacles - Paper Monkeys (2011)
EAC Rip | WavPack (image+.cue+log) - 434 MB | MP3 CBR 320 kbps (LAME 3.93) - 144 MB | Covers - 124 MB
Genre: Psychedelic/Space Rock | RAR 3% Rec. | Label: Snapper Music (SMACD979)

Tracklist:
01. Attack of the Vapours
02. Lemon Kush
03. Flying Machines
04. Knurl
05. Lost in the Sky
06. Paper Monkeys
07. Plowm
08. Will of the Wisps
09. Air City

Total time: 01:01:20

Exact Audio Copy V1.0 beta 3 from 29. August 2011

EAC extraction logfile from 21. October 2011, 20:48

Ozric Tentacles / Paper Monkeys

Used drive : PLEXTOR DVDR PX-820SA Adapter: 3 ID: 0

Read mode : Secure
Utilize accurate stream : Yes
Defeat audio cache : Yes
Make use of C2 pointers : No

Read offset correction : 48
Overread into Lead-In and Lead-Out : No
Fill up missing offset samples with silence : Yes
Delete leading and trailing silent blocks : No
Null samples used in CRC calculations : Yes
Used interface : Installed external ASPI interface

Used output format : Internal WAV Routines
Sample format : 44.100 Hz; 16 Bit; Stereo


TOC of the extracted CD

Track | Start | Length | Start sector | End sector
––––––––––––––––––––––––––––-
1 | 0:00.00 | 5:22.16 | 0 | 24165
2 | 5:22.16 | 6:15.56 | 24166 | 52346
3 | 11:37.72 | 6:26.45 | 52347 | 81341
4 | 18:04.42 | 6:08.41 | 81342 | 108982
5 | 24:13.08 | 7:20.57 | 108983 | 142039
6 | 31:33.65 | 7:17.18 | 142040 | 174832
7 | 38:51.08 | 7:52.14 | 174833 | 210246
8 | 46:43.22 | 10:42.73 | 210247 | 258469
9 | 57:26.20 | 3:53.19 | 258470 | 275963


Range status and errors

Selected range

Filename C:\supang\Ozric Tentacles -2011- Paper Monkeys {Madfish SMACD979}\Ozric Tentacles - Paper Monkeys.wav

Peak level 96.8 %
Extraction speed 4.0 X
Range quality 99.9 %
Test CRC F9B1239B
Copy CRC F9B1239B
Copy OK

No errors occurred


AccurateRip summary

Track 1 not present in database
Track 2 not present in database
Track 3 not present in database
Track 4 not present in database
Track 5 not present in database
Track 6 not present in database
Track 7 not present in database
Track 8 not present in database
Track 9 not present in database

None of the tracks are present in the AccurateRip database

End of status report

==== Log checksum A9CE2BF6FE2B1F0601027E95D713DC3605ED81EF7BB01265AE4F110613BC2BB3 ====

[CUETools log; Date: 25.05.2018 16:54:43; Version: 2.1.4]
[CTDB TOCID: T.3vD.O9UKkDuokA5IrUdD.Q10o-] found.
Track | CTDB Status
1 | (67/67) Accurately ripped
2 | (67/67) Accurately ripped
3 | (67/67) Accurately ripped
4 | (67/67) Accurately ripped
5 | (67/67) Accurately ripped
6 | (67/67) Accurately ripped
7 | (67/67) Accurately ripped
8 | (67/67) Accurately ripped
9 | (67/67) Accurately ripped
[AccurateRip ID: 00144508-00975c56-850e5f09] found.
Track [ CRC | V2 ] Status
01 [4a78e91e|5dbfc9d2] (08+44/56) Accurately ripped
02 [a14fe59a|d3ecfac7] (08+44/56) Accurately ripped
03 [48245d93|943c49ab] (08+44/57) Accurately ripped
04 [971944ba|a9a3b436] (08+43/56) Accurately ripped
05 [aec3c9a5|34112f1f] (08+43/58) Accurately ripped
06 [c89aeb35|04b7b9a2] (08+43/58) Accurately ripped
07 [2545d528|056fc4f9] (08+43/58) Accurately ripped
08 [74350f7a|90057c45] (08+43/53) Accurately ripped
09 [0c679e00|5983f66e] (08+43/56) Accurately ripped
Offsetted by -48:
01 [2996c72b] (00/56) No match (V2 was not tested)
02 [4cccb9d6] (00/56) No match (V2 was not tested)
03 [5398076b] (00/57) No match (V2 was not tested)
04 [5b0ca0da] (00/56) No match (V2 was not tested)
05 [ed663105] (00/58) No match (V2 was not tested)
06 [5352b675] (00/58) No match (V2 was not tested)
07 [25c1095b] (00/58) No match (V2 was not tested)
08 [65664670] (00/53) No match (V2 was not tested)
09 [1a228a9b] (00/56) No match (V2 was not tested)
Offsetted by -6:
01 [46e6f79b] (00/56) No match (V2 was not tested)
02 [d6243e54] (00/56) No match (V2 was not tested)
03 [442b08e8] (00/57) No match (V2 was not tested)
04 [6ea255cf] (00/56) No match (V2 was not tested)
05 [36981691] (00/58) No match (V2 was not tested)
06 [d9f1e49d] (00/58) No match (V2 was not tested)
07 [4d5b7ca9] (00/58) No match (V2 was not tested)
08 [458483bd] (00/53) No match (V2 was not tested)
09 [2f9c9dde] (00/56) No match (V2 was not tested)
Offsetted by 6:
01 [377bd65d] (00/56) No match
02 [8078766a] (00/56) No match
03 [65294290] (00/57) No match
04 [bfeb31f3] (00/56) No match
05 [26ef7cb9] (00/58) No match (V2 was not tested)
06 [b743f1cd] (00/58) No match (V2 was not tested)
07 [62e983fb] (00/58) No match (V2 was not tested)
08 [ad5c405c] (00/53) No match (V2 was not tested)
09 [e87b9d85] (00/56) No match

Track Peak [ CRC32 ] [W/O NULL] [ LOG ]
– 96,8 [F9B1239B] [00BCDAE4] CRC32
01 96,6 [873A0E8C] [0411EB2B]
02 96,6 [779462F6] [0D2AC357]
03 96,6 [71486C1B] [674CF45E]
04 96,6 [98090E05] [4B6D6375]
05 96,6 [BFB46BBE] [45ECC519]
06 96,7 [8F49587A] [F0C04751]
07 96,6 [D2978AAA] [BE388D6A]
08 96,8 [49F65D0D] [99E78A7E]
09 96,5 [916C5FCA] [2B75AED4]

Thanks to supang

See also:
Ozric Tentacles - Vitamin Enhanced [6CD Box Set] (1994) [Reissue 2013]
Ozric Tentacles - Erpland (1990) [CD+DVD, 2010]
Ozric Tentacles - Strangeitude (1991) [2CD Reissue 2010]
Ozric Tentacles - Jurassic Shift (2008) [Bonus DVD]