Subcategories

Ozric Tentacles - Vitamin Enhanced [6CD Box Set] (1994) [Reissue 2013]

Posted By: gribovar
Ozric Tentacles - Vitamin Enhanced [6CD Box Set] (1994) [Reissue 2013]

Ozric Tentacles - Vitamin Enhanced [6CD Box Set] (1994) [Reissue 2013]
EAC Rip | WavPack (image+.cue+log) - 2,32 GB | MP3 CBR 320 kbps (LAME 3.93) - 897 MB | Covers - 1,26 GB
Genre: Psychedelic/Space Rock | RAR 3% Rec. | Label: Snapper Music (SMABX1009)

Vitamin Enhanced is a 6-disc box set by English psychedelic rock band Ozric Tentacles. It compiles the band's six first recordings, originally released in the 1980s. The first six albums were originally released on cassette, handmade by the band, and only sold at festivals and concerts. In 1993, the albums were transferred to CD, and the compiling box set was first released in November 1994 through the band's independent record label, Dovetail Records. The original pressing was limited to 5,000 copies. Not much later, the box set was withdrawn due to complaints from food company Kellogg’s, since they alleged the design of the box was too similar to their Corn Flakes one. It remains unknown how many box sets were sold before the withdrawal, but since then, the original 1994 box set has become a rare collectors' object. All six albums were re-released as independent CD copies in 2000 by Snapper Music, going quickly out of print. In 2013, to celebrate the band's 30th anniversary, the original six albums were remastered for the reissue of the Vitamin Enhanced box set, released through Snapper Music.

Ozric Tentacles - Vitamin Enhanced [6CD Box Set] (1994) [Reissue 2013]

Ozric Tentacles - ERP Songs (1985)
EAC Rip | WavPack (image+.cue+log) - 346 MB | MP3 CBR 320 kbps (LAME 3.93) - 145 MB | Covers - 81 MB
Genre: Psychedelic/Space Rock | RAR 3% Rec. | Label: Snapper Music (SMABX1009)

Tracklist:
01. Velmwend
02. Fast Dots
03. Thyroid
04. Spiral Mind
05. Synth On A Plinth
06. Dharma Reggae
07. Tidal Otherness
08. Erp Riff
09. Descension
10. Misty Gliss
11. Dots Thots
12. Clock Drops
13. Five Jam
14. Oddhamshaw

Total time: 01:01:37

Exact Audio Copy V1.0 beta 3 from 29. August 2011

EAC extraction logfile from 9. May 2014, 13:04

Ozric Tentacles / Erpsongs

Used drive : MATSHITADVD-RAM UJ-860H Adapter: 2 ID: 0

Read mode : Secure
Utilize accurate stream : Yes
Defeat audio cache : Yes
Make use of C2 pointers : No

Read offset correction : 102
Overread into Lead-In and Lead-Out : No
Fill up missing offset samples with silence : Yes
Delete leading and trailing silent blocks : No
Null samples used in CRC calculations : Yes
Used interface : Native Win32 interface for Win NT & 2000

Used output format : User Defined Encoder
Selected bitrate : 768 kBit/s
Quality : High
Add ID3 tag : No
Command line compressor : C:\Program Files (x86)\Exact Audio Copy\FLAC\wavpack.exe
Additional command line options : -hm -w "Year=%year%" -w "Genre=%genre%" %source% %dest%


TOC of the extracted CD

Track | Start | Length | Start sector | End sector
––––––––––––––––––––––––––––-
1 | 0:00.00 | 4:39.38 | 0 | 20962
2 | 4:39.38 | 3:47.71 | 20963 | 38058
3 | 8:27.34 | 5:07.60 | 38059 | 61143
4 | 13:35.19 | 3:35.56 | 61144 | 77324
5 | 17:11.00 | 2:00.73 | 77325 | 86397
6 | 19:11.73 | 4:58.15 | 86398 | 108762
7 | 24:10.13 | 5:40.25 | 108763 | 134287
8 | 29:50.38 | 1:38.22 | 134288 | 141659
9 | 31:28.60 | 5:02.43 | 141660 | 164352
10 | 36:31.28 | 4:34.46 | 164353 | 184948
11 | 41:05.74 | 4:30.65 | 184949 | 205263
12 | 45:36.64 | 2:48.45 | 205264 | 217908
13 | 48:25.34 | 6:55.54 | 217909 | 249087
14 | 55:21.13 | 6:16.06 | 249088 | 277293


Range status and errors

Selected range

Filename C:\MUSIC\CD4\Ozric Tentacles - Erpsongs.wav

Peak level 92.2 %
Extraction speed 2.5 X
Range quality 100.0 %
Test CRC 8DDBFE23
Copy CRC 8DDBFE23
Copy OK

No errors occurred


AccurateRip summary

Track 1 accurately ripped (confidence 2) [55C06061] (AR v2)
Track 2 accurately ripped (confidence 2) [6A05A8E2] (AR v2)
Track 3 accurately ripped (confidence 2) [9C437088] (AR v2)
Track 4 accurately ripped (confidence 2) [6B3FBDF5] (AR v2)
Track 5 accurately ripped (confidence 2) [78E89A92] (AR v2)
Track 6 accurately ripped (confidence 2) [3AF957ED] (AR v2)
Track 7 accurately ripped (confidence 2) [5CDAA292] (AR v2)
Track 8 accurately ripped (confidence 2) [50697A76] (AR v2)
Track 9 accurately ripped (confidence 2) [C42D022E] (AR v2)
Track 10 accurately ripped (confidence 2) [1DB5BA53] (AR v2)
Track 11 accurately ripped (confidence 2) [08DD18E2] (AR v2)
Track 12 accurately ripped (confidence 2) [035EE94C] (AR v2)
Track 13 accurately ripped (confidence 2) [596B55C5] (AR v2)
Track 14 accurately ripped (confidence 2) [E9979588] (AR v2)

All tracks accurately ripped

End of status report

==== Log checksum 653FEA2B3BC8DC272F3C118B7D09834E10628B4547F67F420329E2FE5A2EB55C ====

[CUETools log; Date: 04.01.2015 15:06:37; Version: 2.1.4]
[CTDB TOCID: hgL6zD8rDIZlMe0F2st5aeUOvzI-] found.
Track | CTDB Status
1 | (4/4) Accurately ripped
2 | (4/4) Accurately ripped
3 | (4/4) Accurately ripped
4 | (4/4) Accurately ripped
5 | (4/4) Accurately ripped
6 | (4/4) Accurately ripped
7 | (4/4) Accurately ripped
8 | (4/4) Accurately ripped
9 | (4/4) Accurately ripped
10 | (4/4) Accurately ripped
11 | (4/4) Accurately ripped
12 | (4/4) Accurately ripped
13 | (4/4) Accurately ripped
14 | (4/4) Accurately ripped
[AccurateRip ID: 001e0561-0140ff4a-c00e710e] found.
Track [ CRC | V2 ] Status
01 [4fe5e8b9|55c06061] (2+5/7) Accurately ripped
02 [e0de982a|6a05a8e2] (2+5/7) Accurately ripped
03 [4e9d432d|9c437088] (2+5/7) Accurately ripped
04 [59b0737c|6b3fbdf5] (2+5/7) Accurately ripped
05 [777f27d6|78e89a92] (2+5/7) Accurately ripped
06 [e4de2a06|3af957ed] (2+5/7) Accurately ripped
07 [051ff1f6|5cdaa292] (2+5/7) Accurately ripped
08 [9ee62c78|50697a76] (2+6/8) Accurately ripped
09 [424ed041|c42d022e] (2+6/8) Accurately ripped
10 [209cb18d|1db5ba53] (2+6/8) Accurately ripped
11 [1c703d15|08dd18e2] (2+6/8) Accurately ripped
12 [93027a38|035ee94c] (2+6/8) Accurately ripped
13 [5776bab8|596b55c5] (2+6/8) Accurately ripped
14 [5ced1b97|e9979588] (2+6/8) Accurately ripped

Track Peak [ CRC32 ] [W/O NULL] [ LOG ]
– 92,2 [8DDBFE23] [07069748] CRC32
01 92,2 [142FFAAF] [752D22AE]
02 92,2 [F9F8F38C] [CE877320]
03 92,2 [8EBF3BEB] [45C2BFA6]
04 92,2 [74518F29] [9D1B2686]
05 34,3 [CDC678DE] [0AF3F881]
06 92,2 [0B80A058] [0C93D83D]
07 89,1 [2102F245] [94026772]
08 92,2 [FE6B3949] [62284693]
09 92,2 [A6E30383] [381257EA]
10 89,3 [DEF45985] [0FBCF14D]
11 92,2 [5684423F] [66EAEF74]
12 92,2 [2ACC79E6] [34E3952D]
13 92,2 [BF84E199] [D5FFB258]
14 92,2 [6F03FA05] [C94ED175]

Ozric Tentacles - Vitamin Enhanced [6CD Box Set] (1994) [Reissue 2013]

Ozric Tentacles - Tantric Obstacles (1985)
EAC Rip | WavPack (image+.cue+log) - 386 MB | MP3 CBR 320 kbps (LAME 3.93) - 144 MB | Covers - 79 MB
Genre: Psychedelic/Space Rock | RAR 3% Rec. | Label: Snapper Music (SMABX1009)

Tracklist:
01. Og-Ha-Be
02. Shards Of Ice
03. Sniffing Dog
04. Music To Gargle At
05. Ethereal Cereal
06. Atmosphear
07. Ullular Gate
08. Tentacles Of Erpmind
09. Trees Of Eternity
10. Mescalito
11. Oddhamshaw Style
12. Become The Otter
13. Gnuthlia
14. Sorry Style
15. The Aum Shuffle

Total time: 01:01:03

Exact Audio Copy V1.0 beta 3 from 29. August 2011

EAC extraction logfile from 9. May 2014, 14:59

Ozric Tentacles / Tantric Obstacles

Used drive : MATSHITADVD-RAM UJ-860H Adapter: 2 ID: 0

Read mode : Secure
Utilize accurate stream : Yes
Defeat audio cache : Yes
Make use of C2 pointers : No

Read offset correction : 102
Overread into Lead-In and Lead-Out : No
Fill up missing offset samples with silence : Yes
Delete leading and trailing silent blocks : No
Null samples used in CRC calculations : Yes
Used interface : Native Win32 interface for Win NT & 2000

Used output format : User Defined Encoder
Selected bitrate : 768 kBit/s
Quality : High
Add ID3 tag : No
Command line compressor : C:\Program Files (x86)\Exact Audio Copy\FLAC\wavpack.exe
Additional command line options : -hm -w "Year=%year%" -w "Genre=%genre%" %source% %dest%


TOC of the extracted CD

Track | Start | Length | Start sector | End sector
––––––––––––––––––––––––––––-
1 | 0:00.00 | 4:41.69 | 0 | 21143
2 | 4:41.69 | 3:50.38 | 21144 | 38431
3 | 8:32.32 | 6:32.05 | 38432 | 67836
4 | 15:04.37 | 3:30.16 | 67837 | 83602
5 | 18:34.53 | 2:15.33 | 83603 | 93760
6 | 20:50.11 | 4:32.41 | 93761 | 114201
7 | 25:22.52 | 4:27.02 | 114202 | 134228
8 | 29:49.54 | 0:37.01 | 134229 | 137004
9 | 30:26.55 | 7:21.73 | 137005 | 170152
10 | 37:48.53 | 4:04.19 | 170153 | 188471
11 | 41:52.72 | 1:53.26 | 188472 | 196972
12 | 43:46.23 | 5:01.05 | 196973 | 219552
13 | 48:47.28 | 5:26.64 | 219553 | 244066
14 | 54:14.17 | 3:45.57 | 244067 | 260998
15 | 57:59.74 | 3:03.28 | 260999 | 274751


Range status and errors

Selected range

Filename C:\MUSIC\CD6\Ozric Tentacles - Tantric Obstacles.wav

Peak level 92.2 %
Extraction speed 2.5 X
Range quality 100.0 %
Test CRC 8B904D3D
Copy CRC 8B904D3D
Copy OK

No errors occurred


AccurateRip summary

Track 1 accurately ripped (confidence 2) [4CA10385] (AR v2)
Track 2 accurately ripped (confidence 2) [6A9F544B] (AR v2)
Track 3 accurately ripped (confidence 2) [5E33865C] (AR v2)
Track 4 accurately ripped (confidence 2) [E94C2C1F] (AR v2)
Track 5 accurately ripped (confidence 2) [7759CFD1] (AR v2)
Track 6 accurately ripped (confidence 2) [99CADE46] (AR v2)
Track 7 accurately ripped (confidence 2) [43DE07EE] (AR v2)
Track 8 accurately ripped (confidence 2) [1EF120B6] (AR v2)
Track 9 accurately ripped (confidence 2) [DE39874E] (AR v2)
Track 10 accurately ripped (confidence 2) [DD89A997] (AR v2)
Track 11 accurately ripped (confidence 2) [D3720D77] (AR v2)
Track 12 accurately ripped (confidence 2) [CA1662F2] (AR v2)
Track 13 accurately ripped (confidence 2) [A1720927] (AR v2)
Track 14 accurately ripped (confidence 2) [E63B159B] (AR v2)
Track 15 accurately ripped (confidence 2) [1EA0399C] (AR v2)

All tracks accurately ripped

End of status report

==== Log checksum FFE45598C39D8D3F2FFAD502F564EA13E0D342A8EB8A62AB8B506DC5BA066146 ====

[CUETools log; Date: 04.01.2015 15:05:16; Version: 2.1.4]
[CTDB TOCID: kn6xVdl1k4WLdcHprXWeFX5eY8w-] found.
Track | CTDB Status
1 | (5/5) Accurately ripped
2 | (5/5) Accurately ripped
3 | (5/5) Accurately ripped
4 | (5/5) Accurately ripped
5 | (5/5) Accurately ripped
6 | (5/5) Accurately ripped
7 | (5/5) Accurately ripped
8 | (5/5) Accurately ripped
9 | (5/5) Accurately ripped
10 | (5/5) Accurately ripped
11 | (5/5) Accurately ripped
12 | (5/5) Accurately ripped
13 | (5/5) Accurately ripped
14 | (5/5) Accurately ripped
15 | (5/5) Accurately ripped
[AccurateRip ID: 0022423e-0181137b-cb0e4f0f] found.
Track [ CRC | V2 ] Status
01 [13814e8a|4ca10385] (2+6/8) Accurately ripped
02 [a3e79f91|6a9f544b] (2+6/8) Accurately ripped
03 [48ca3cbd|5e33865c] (2+6/8) Accurately ripped
04 [d37b952d|e94c2c1f] (2+6/8) Accurately ripped
05 [39062429|7759cfd1] (2+6/8) Accurately ripped
06 [6a3efb16|99cade46] (2+6/8) Accurately ripped
07 [5cfef091|43de07ee] (2+6/8) Accurately ripped
08 [6584b95c|1ef120b6] (2+6/8) Accurately ripped
09 [8fbeea70|de39874e] (2+6/8) Accurately ripped
10 [c106de3f|dd89a997] (2+6/8) Accurately ripped
11 [46240e99|d3720d77] (2+6/8) Accurately ripped
12 [3758c62c|ca1662f2] (2+6/8) Accurately ripped
13 [a83b3c49|a1720927] (2+6/8) Accurately ripped
14 [e7ff688b|e63b159b] (2+6/8) Accurately ripped
15 [cd47b838|1ea0399c] (2+6/8) Accurately ripped

Track Peak [ CRC32 ] [W/O NULL] [ LOG ]
– 92,2 [8B904D3D] [4B39D799] CRC32
01 92,2 [65C05804] [A1B5CEFF]
02 92,2 [04D6CE4A] [DBA6697A]
03 92,2 [730C48D9] [4871C4BD]
04 92,2 [4E93D622] [D7AC08C7]
05 92,2 [A15A943E] [ED10EC45]
06 92,2 [1EDB1317] [36B3EF8F]
07 92,2 [AF2EEFDA] [342EB470]
08 92,2 [2E1F857B] [248795DA]
09 92,2 [81B62C88] [0027718E]
10 92,2 [5BC7C117] [82FF0220]
11 92,2 [E3971852] [BCDBFA8E]
12 92,2 [25973156] [7006A466]
13 92,2 [24A14A68] [ECCC0818]
14 92,2 [22120283] [5588EC62]
15 92,2 [92A321A1] [04EABE47]

Ozric Tentacles - Vitamin Enhanced [6CD Box Set] (1994) [Reissue 2013]

Ozric Tentacles - Live Ethereal Cereal (1986)
EAC Rip | WavPack (image+.cue+log) - 381 MB | MP3 CBR 320 kbps (LAME 3.93) - 144 MB | Covers - 58 MB
Genre: Psychedelic/Space Rock | RAR 3% Rec. | Label: Snapper Music (SMABX1009)

Tracklist:
01. Erpriff
02. Tentacular Explosion
03. Stupid Reggae
04. Om Riff Gong
05. Obstacular Explosion
06. Og-Ha-Be
07. Dots Thots
08. Erpitaph

Total time: 01:01:13

Exact Audio Copy V1.0 beta 3 from 29. August 2011

EAC extraction logfile from 9. May 2014, 13:58

Ozric Tentacles / Ethereal Cereal

Used drive : MATSHITADVD-RAM UJ-860H Adapter: 2 ID: 0

Read mode : Secure
Utilize accurate stream : Yes
Defeat audio cache : Yes
Make use of C2 pointers : No

Read offset correction : 102
Overread into Lead-In and Lead-Out : No
Fill up missing offset samples with silence : Yes
Delete leading and trailing silent blocks : No
Null samples used in CRC calculations : Yes
Used interface : Native Win32 interface for Win NT & 2000

Used output format : User Defined Encoder
Selected bitrate : 768 kBit/s
Quality : High
Add ID3 tag : No
Command line compressor : C:\Program Files (x86)\Exact Audio Copy\FLAC\wavpack.exe
Additional command line options : -hm -w "Year=%year%" -w "Genre=%genre%" %source% %dest%


TOC of the extracted CD

Track | Start | Length | Start sector | End sector
––––––––––––––––––––––––––––-
1 | 0:00.00 | 9:27.00 | 0 | 42524
2 | 9:27.00 | 10:06.36 | 42525 | 88010
3 | 19:33.36 | 6:16.26 | 88011 | 116236
4 | 25:49.62 | 4:35.10 | 116237 | 136871
5 | 30:24.72 | 13:43.34 | 136872 | 198630
6 | 44:08.31 | 8:37.30 | 198631 | 237435
7 | 52:45.61 | 4:41.53 | 237436 | 258563
8 | 57:27.39 | 3:45.66 | 258564 | 275504


Range status and errors

Selected range

Filename C:\MUSIC\CD5\Ozric Tentacles - Ethereal Cereal.wav

Peak level 94.3 %
Extraction speed 2.5 X
Range quality 100.0 %
Test CRC 18CCD93E
Copy CRC 18CCD93E
Copy OK

No errors occurred


AccurateRip summary

Track 1 accurately ripped (confidence 2) [4CD4CD29] (AR v2)
Track 2 accurately ripped (confidence 2) [7B648CB7] (AR v2)
Track 3 accurately ripped (confidence 2) [217F5294] (AR v2)
Track 4 accurately ripped (confidence 2) [ED44EDF7] (AR v2)
Track 5 accurately ripped (confidence 2) [FFBC0571] (AR v2)
Track 6 accurately ripped (confidence 2) [34647A1E] (AR v2)
Track 7 accurately ripped (confidence 2) [61897371] (AR v2)
Track 8 accurately ripped (confidence 2) [1C524E30] (AR v2)

All tracks accurately ripped

End of status report

==== Log checksum 33B137DD21F55AD83157D07DF594208694C5C8E2B2B1E64208A1918B8F1013C3 ====

[CUETools log; Date: 04.01.2015 15:06:07; Version: 2.1.4]
[CTDB TOCID: GbhiOwKem76jDgAuXX6psd42UM8-] found.
Track | CTDB Status
1 | (4/4) Accurately ripped
2 | (4/4) Accurately ripped
3 | (4/4) Accurately ripped
4 | (4/4) Accurately ripped
5 | (4/4) Accurately ripped
6 | (4/4) Accurately ripped
7 | (4/4) Accurately ripped
8 | (4/4) Accurately ripped
[AccurateRip ID: 0014a835-0087cebf-730e5908] found.
Track [ CRC | V2 ] Status
01 [b536b012|4cd4cd29] (2+6/8) Accurately ripped
02 [5600a10b|7b648cb7] (2+6/8) Accurately ripped
03 [c8406dc4|217f5294] (2+6/8) Accurately ripped
04 [cab9fa71|ed44edf7] (2+6/8) Accurately ripped
05 [37da45fc|ffbc0571] (2+6/8) Accurately ripped
06 [abc6417e|34647a1e] (2+6/8) Accurately ripped
07 [6f917555|61897371] (2+6/8) Accurately ripped
08 [b692de1b|1c524e30] (0+6/6) Accurately ripped

Track Peak [ CRC32 ] [W/O NULL] [ LOG ]
– 94,3 [18CCD93E] [C0CDE0FB] CRC32
01 92,2 [9411C8D4] [DD426D67]
02 92,2 [C3EBFB77] [41A7C1B6]
03 92,2 [44732614] [63FAC029]
04 90,0 [F325DE08] [F49CCF5B]
05 92,2 [CBD269EC] [3338C669]
06 92,2 [5A3E2285] [DA78C1B5]
07 92,2 [4EF46F0D] [F225D725]
08 94,3 [B2B79514] [C2FAF6D7]

Ozric Tentacles - Vitamin Enhanced [6CD Box Set] (1994) [Reissue 2013]

Ozric Tentacles - There Is Nothing (1986)
EAC Rip | WavPack (image+.cue+log) - 434 MB | MP3 CBR 320 kbps (LAME 3.93) - 170 MB | Covers - 89 MB
Genre: Psychedelic/Space Rock | RAR 3% Rec. | Label: Snapper Music (SMABX1009)

Tracklist:
01. The Sacred Turf
02. O-I
03. Jabular
04. Staring At The Moon
05. Airy Area
06. Travelling The Great Circle
07. Imhotep
08. Thrashing Breath Texture
09. Crab Nebula
10. Lull Your Skull
11. Invisible Carpet
12. The Eternal Wheel
13. Kola B'Pep
14. There Is Nothing

Total time: 01:12:11

Exact Audio Copy V1.0 beta 3 from 29. August 2011

EAC extraction logfile from 9. May 2014, 12:10

Ozric Tentacles / There Is Nothing

Used drive : MATSHITADVD-RAM UJ-860H Adapter: 2 ID: 0

Read mode : Secure
Utilize accurate stream : Yes
Defeat audio cache : Yes
Make use of C2 pointers : No

Read offset correction : 102
Overread into Lead-In and Lead-Out : No
Fill up missing offset samples with silence : Yes
Delete leading and trailing silent blocks : No
Null samples used in CRC calculations : Yes
Used interface : Native Win32 interface for Win NT & 2000

Used output format : User Defined Encoder
Selected bitrate : 768 kBit/s
Quality : High
Add ID3 tag : No
Command line compressor : C:\Program Files (x86)\Exact Audio Copy\FLAC\wavpack.exe
Additional command line options : -hm -w "Year=%year%" -w "Genre=%genre%" %source% %dest%


TOC of the extracted CD

Track | Start | Length | Start sector | End sector
––––––––––––––––––––––––––––-
1 | 0:00.00 | 3:10.34 | 0 | 14283
2 | 3:10.34 | 4:45.17 | 14284 | 35675
3 | 7:55.51 | 3:53.66 | 35676 | 53216
4 | 11:49.42 | 4:47.50 | 53217 | 74791
5 | 16:37.17 | 3:42.60 | 74792 | 91501
6 | 20:20.02 | 4:06.02 | 91502 | 109953
7 | 24:26.04 | 11:56.50 | 109954 | 163703
8 | 36:22.54 | 3:31.05 | 163704 | 179533
9 | 39:53.59 | 5:39.60 | 179534 | 205018
10 | 45:33.44 | 3:01.39 | 205019 | 218632
11 | 48:35.08 | 5:48.56 | 218633 | 244788
12 | 54:23.64 | 9:53.24 | 244789 | 289287
13 | 64:17.13 | 6:36.72 | 289288 | 319059
14 | 70:54.10 | 1:16.48 | 319060 | 324807


Range status and errors

Selected range

Filename C:\MUSIC\CD3\Ozric Tentacles - There Is Nothing.wav

Peak level 92.2 %
Extraction speed 2.7 X
Range quality 100.0 %
Test CRC 697F71FF
Copy CRC 697F71FF
Copy OK

No errors occurred


AccurateRip summary

Track 1 accurately ripped (confidence 2) [5B6EBED2] (AR v2)
Track 2 accurately ripped (confidence 2) [2CD8B3EA] (AR v2)
Track 3 accurately ripped (confidence 2) [D71162F1] (AR v2)
Track 4 accurately ripped (confidence 2) [D74E82BE] (AR v2)
Track 5 accurately ripped (confidence 2) [E81CDD3E] (AR v2)
Track 6 accurately ripped (confidence 2) [3EE547E0] (AR v2)
Track 7 accurately ripped (confidence 2) [09D64429] (AR v2)
Track 8 accurately ripped (confidence 2) [DBB0EBD7] (AR v2)
Track 9 accurately ripped (confidence 2) [029E4979] (AR v2)
Track 10 accurately ripped (confidence 2) [B5371279] (AR v2)
Track 11 accurately ripped (confidence 2) [7C35F754] (AR v2)
Track 12 accurately ripped (confidence 2) [83632180] (AR v2)
Track 13 accurately ripped (confidence 2) [71D203A4] (AR v2)
Track 14 accurately ripped (confidence 2) [FC032D1F] (AR v2)

All tracks accurately ripped

End of status report

==== Log checksum 607BC654FC83E22BA37243A9CC574ED16AE7F7DA48C48FEA9A74F44639D60C6D ====

[CUETools log; Date: 04.01.2015 15:07:34; Version: 2.1.4]
[CTDB TOCID: 98dY0O_yGxl8OTcEBuhvHWhcYzE-] found.
Track | CTDB Status
1 | (4/4) Accurately ripped
2 | (4/4) Accurately ripped
3 | (4/4) Accurately ripped
4 | (4/4) Accurately ripped
5 | (4/4) Accurately ripped
6 | (4/4) Accurately ripped
7 | (4/4) Accurately ripped
8 | (4/4) Accurately ripped
9 | (4/4) Accurately ripped
10 | (4/4) Accurately ripped
11 | (4/4) Accurately ripped
12 | (4/4) Accurately ripped
13 | (4/4) Accurately ripped
14 | (4/4) Accurately ripped
[AccurateRip ID: 00237724-018478be-de10ea0e] found.
Track [ CRC | V2 ] Status
01 [28b8b236|5b6ebed2] (2+6/8) Accurately ripped
02 [ff612c09|2cd8b3ea] (2+6/8) Accurately ripped
03 [88cc34af|d71162f1] (2+6/8) Accurately ripped
04 [938410bc|d74e82be] (2+6/8) Accurately ripped
05 [83a211e8|e81cdd3e] (2+6/8) Accurately ripped
06 [f0766bd7|3ee547e0] (2+6/8) Accurately ripped
07 [e61fb1ff|09d64429] (2+6/8) Accurately ripped
08 [90226382|dbb0ebd7] (2+6/8) Accurately ripped
09 [012d3bec|029e4979] (0+6/6) Accurately ripped
10 [9d3e65f6|b5371279] (0+6/6) Accurately ripped
11 [07d96659|7c35f754] (0+6/6) Accurately ripped
12 [0ed26168|83632180] (0+6/6) Accurately ripped
13 [6eed38d0|71d203a4] (0+6/6) Accurately ripped
14 [0f58b19f|fc032d1f] (0+6/6) Accurately ripped

Track Peak [ CRC32 ] [W/O NULL] [ LOG ]
– 92,2 [697F71FF] [25C5B0AE] CRC32
01 92,2 [F977EC88] [0F6F17C3]
02 92,2 [5F623481] [FDC9918D]
03 92,2 [777ECE8F] [0FE4EFF1]
04 92,2 [0A81E975] [10C78FBA]
05 61,8 [0D76CCB1] [A0F86C4B]
06 92,2 [520C8E94] [CC13BE8D]
07 92,2 [73EA1ED1] [55836078]
08 92,2 [449FEE35] [10994293]
09 85,6 [43957F62] [816EA99F]
10 92,2 [23000D6F] [951BD7A5]
11 92,2 [3C670A4C] [A24C3216]
12 92,2 [75A58851] [BF44BE30]
13 92,2 [521F5BB0] [55BB20B9]
14 92,2 [0D83FD8D] [F567E6D8]

Ozric Tentacles - Vitamin Enhanced [6CD Box Set] (1994) [Reissue 2013]

Ozric Tentacles - Sliding Gliding Worlds (1988)
EAC Rip | WavPack (image+.cue+log) - 375 MB | MP3 CBR 320 kbps (LAME 3.93) - 147 MB | Covers - 76 MB
Genre: Psychedelic/Space Rock | RAR 3% Rec. | Label: Snapper Music (SMABX1009)

Tracklist:
01. Yaboop
02. Soda Water
03. The Code For Chickendon
04. Guzzard
05. The Dusty Pouch
06. Sliding And Gliding
07. Kick Muck
08. It's A Hup Ho World
09. Atmospheric Underslunky
10. (Omnidirectional) Bhadra
11. Fetch Me The Pongmaster
12. Mae Hong Song
13. White Rhino Tea
14. Loaf Jaw
15. The Green Island

Total time: 01:02:27

Exact Audio Copy V1.0 beta 3 from 29. August 2011

EAC extraction logfile from 9. May 2014, 19:41

Ozric Tentacles / Sliding Gliding Worlds

Used drive : PIONEER DVD-RW DVR-220RS Adapter: 0 ID: 0

Read mode : Secure
Utilize accurate stream : Yes
Defeat audio cache : Yes
Make use of C2 pointers : No

Read offset correction : 6
Overread into Lead-In and Lead-Out : No
Fill up missing offset samples with silence : Yes
Delete leading and trailing silent blocks : No
Null samples used in CRC calculations : Yes
Used interface : Native Win32 interface for Win NT & 2000

Used output format : User Defined Encoder
Selected bitrate : 128 kBit/s
Quality : High
Add ID3 tag : No
Command line compressor : C:\Program Files (x86)\Exact Audio Copy\Wavpack\wavpack.exe
Additional command line options : -hlm %source% %dest%


TOC of the extracted CD

Track | Start | Length | Start sector | End sector
––––––––––––––––––––––––––––-
1 | 0:00.00 | 5:25.32 | 0 | 24406
2 | 5:25.32 | 4:09.66 | 24407 | 43147
3 | 9:35.23 | 4:59.57 | 43148 | 65629
4 | 14:35.05 | 2:04.68 | 65630 | 74997
5 | 16:39.73 | 4:21.67 | 74998 | 94639
6 | 21:01.65 | 4:53.60 | 94640 | 116674
7 | 25:55.50 | 5:29.10 | 116675 | 141359
8 | 31:24.60 | 6:41.51 | 141360 | 171485
9 | 38:06.36 | 3:32.51 | 171486 | 187436
10 | 41:39.12 | 2:58.32 | 187437 | 200818
11 | 44:37.44 | 6:11.73 | 200819 | 228716
12 | 50:49.42 | 3:18.59 | 228717 | 243625
13 | 54:08.26 | 4:05.07 | 243626 | 262007
14 | 58:13.33 | 1:10.72 | 262008 | 267329
15 | 59:24.30 | 3:02.17 | 267330 | 280996


Range status and errors

Selected range

Filename C:\NL+\CD80\Ozric Tentacles - Sliding Gliding Worlds.wav

Peak level 92.2 %
Extraction speed 1.9 X
Range quality 99.9 %
Test CRC 6AAD7C57
Copy CRC 6AAD7C57
Copy OK

No errors occurred


AccurateRip summary

Track 1 accurately ripped (confidence 2) [8380896F] (AR v2)
Track 2 accurately ripped (confidence 2) [5E5F943D] (AR v2)
Track 3 accurately ripped (confidence 2) [AC16BAEE] (AR v2)
Track 4 accurately ripped (confidence 2) [AA6C1C51] (AR v2)
Track 5 accurately ripped (confidence 2) [01E9BEC7] (AR v2)
Track 6 accurately ripped (confidence 2) [43AFBFAC] (AR v2)
Track 7 accurately ripped (confidence 2) [9DB0DCB1] (AR v2)
Track 8 accurately ripped (confidence 2) [E36CC8DC] (AR v2)
Track 9 accurately ripped (confidence 2) [AF380F37] (AR v2)
Track 10 accurately ripped (confidence 2) [82097889] (AR v2)
Track 11 accurately ripped (confidence 2) [08B9E549] (AR v2)
Track 12 accurately ripped (confidence 2) [B536CFCE] (AR v2)
Track 13 accurately ripped (confidence 2) [53CCED4D] (AR v2)
Track 14 accurately ripped (confidence 2) [93F2C49C] (AR v2)
Track 15 accurately ripped (confidence 2) [0E05EBFE] (AR v2)

All tracks accurately ripped

End of status report

–– CUETools DB Plugin V2.1.3

[CTDB TOCID: .AraTY_fdY0bSstNRahxz.0wvOY-] found, Submit result: .AraTY_fdY0bSstNRahxz.0wvOY- has been confirmed
[0da3d92d] (3/3) Accurately ripped


==== Log checksum C13473C40105A6878BC0711E1ADFF09F3EFC9C5B35DBC6D1A4646551D3020175 ====

[CUETools log; Date: 04.01.2015 15:08:25; Version: 2.1.4]
[CTDB TOCID: .AraTY_fdY0bSstNRahxz.0wvOY-] found.
Track | CTDB Status
1 | (5/5) Accurately ripped
2 | (5/5) Accurately ripped
3 | (5/5) Accurately ripped
4 | (5/5) Accurately ripped
5 | (5/5) Accurately ripped
6 | (5/5) Accurately ripped
7 | (5/5) Accurately ripped
8 | (5/5) Accurately ripped
9 | (5/5) Accurately ripped
10 | (5/5) Accurately ripped
11 | (5/5) Accurately ripped
12 | (5/5) Accurately ripped
13 | (5/5) Accurately ripped
14 | (5/5) Accurately ripped
15 | (5/5) Accurately ripped
[AccurateRip ID: 0024abce-019ca78b-de0ea20f] found.
Track [ CRC | V2 ] Status
01 [819ac0c5|8380896f] (2+6/8) Accurately ripped
02 [e3c1a791|5e5f943d] (2+6/8) Accurately ripped
03 [1073945a|ac16baee] (2+6/8) Accurately ripped
04 [5317285e|aa6c1c51] (2+6/8) Accurately ripped
05 [48afcc77|01e9bec7] (2+6/8) Accurately ripped
06 [9f8cb227|43afbfac] (2+6/8) Accurately ripped
07 [e050514a|9db0dcb1] (2+6/8) Accurately ripped
08 [e1890d5b|e36cc8dc] (2+6/8) Accurately ripped
09 [1ba4671a|af380f37] (2+6/8) Accurately ripped
10 [211fbf24|82097889] (2+6/8) Accurately ripped
11 [f6346501|08b9e549] (2+6/8) Accurately ripped
12 [60a00fd2|b536cfce] (2+6/8) Accurately ripped
13 [c10c0732|53cced4d] (2+6/8) Accurately ripped
14 [6548bff8|93f2c49c] (2+6/8) Accurately ripped
15 [c0072ab6|0e05ebfe] (2+6/8) Accurately ripped

Track Peak [ CRC32 ] [W/O NULL] [ LOG ]
– 92,2 [6AAD7C57] [449EB3A8] CRC32
01 92,2 [39CE9924] [198B4D07]
02 92,2 [60BFADDE] [5D6C7F12]
03 92,2 [0F0CA784] [03F5E94B]
04 92,2 [27F52397] [34A71EF9]
05 92,2 [C3861A9B] [16D3896C]
06 92,2 [DF07A61B] [7C6D7575]
07 92,2 [024C958B] [B1251577]
08 92,2 [0D4A40C5] [640CE324]
09 92,2 [74C1F8FF] [D96A8FFC]
10 92,2 [2D94D44A] [B8985394]
11 92,2 [CF5D6308] [8BCA486F]
12 92,2 [1B814DC4] [801945A1]
13 92,2 [06E6B7D3] [7394BA61]
14 92,2 [514D3265] [352595DA]
15 70,8 [6D10DC1C] [5BA3F1FA]

Ozric Tentacles - Vitamin Enhanced [6CD Box Set] (1994) [Reissue 2013]

Ozric Tentacles - Bits Between The Bits (1989)
EAC Rip | WavPack (image+.cue+log) - 399 MB | MP3 CBR 320 kbps (LAME 3.93) - 147 MB | Covers - 78 MB
Genre: Psychedelic/Space Rock | RAR 3% Rec. | Label: Snapper Music (SMABX1009)

Tracklist:
01. Eye Of Adia
02. Fragmentary Aura
03. Sparkling Oasis
04. Tidal Otherness
05. Secret Names
06. Symetricum
07. Floating Seeds
08. Ozrosis
09. Wreltch
10. Afterswish
11. Koh Phangan
12. The Cave Of Aeolas
13. Puff Puff On A Chuff Chuff
14. Health Music

Total time: 01:02:27

Exact Audio Copy V1.0 beta 3 from 29. August 2011

EAC extraction logfile from 9. May 2014, 10:30

Ozric Tentacles / Bits Between The Bits

Used drive : MATSHITADVD-RAM UJ-860H Adapter: 2 ID: 0

Read mode : Secure
Utilize accurate stream : Yes
Defeat audio cache : Yes
Make use of C2 pointers : No

Read offset correction : 102
Overread into Lead-In and Lead-Out : No
Fill up missing offset samples with silence : Yes
Delete leading and trailing silent blocks : No
Null samples used in CRC calculations : Yes
Used interface : Native Win32 interface for Win NT & 2000

Used output format : User Defined Encoder
Selected bitrate : 768 kBit/s
Quality : High
Add ID3 tag : No
Command line compressor : C:\Program Files (x86)\Exact Audio Copy\FLAC\wavpack.exe
Additional command line options : -hm -w "Year=%year%" -w "Genre=%genre%" %source% %dest%


TOC of the extracted CD

Track | Start | Length | Start sector | End sector
––––––––––––––––––––––––––––-
1 | 0:00.00 | 4:23.31 | 0 | 19755
2 | 4:23.31 | 3:10.04 | 19756 | 34009
3 | 7:33.35 | 4:30.42 | 34010 | 54301
4 | 12:04.02 | 0:59.01 | 54302 | 58727
5 | 13:03.03 | 5:23.38 | 58728 | 82990
6 | 18:26.41 | 4:37.38 | 82991 | 103803
7 | 23:04.04 | 5:40.13 | 103804 | 129316
8 | 28:44.17 | 2:31.45 | 129317 | 140686
9 | 31:15.62 | 8:29.65 | 140687 | 178926
10 | 39:45.52 | 2:41.02 | 178927 | 191003
11 | 42:26.54 | 7:09.26 | 191004 | 223204
12 | 49:36.05 | 5:52.18 | 223205 | 249622
13 | 55:28.23 | 2:13.35 | 249623 | 259632
14 | 57:41.58 | 4:44.64 | 259633 | 280996


Range status and errors

Selected range

Filename C:\MUSIC\CD2\Ozric Tentacles - Bits Between The Bits.wav

Peak level 92.2 %
Extraction speed 2.5 X
Range quality 99.9 %
Test CRC CFD7E381
Copy CRC CFD7E381
Copy OK

No errors occurred


AccurateRip summary

Track 1 accurately ripped (confidence 2) [8B79390B] (AR v2)
Track 2 accurately ripped (confidence 2) [282343D9] (AR v2)
Track 3 accurately ripped (confidence 2) [41C3C059] (AR v2)
Track 4 accurately ripped (confidence 2) [6BCABDA5] (AR v2)
Track 5 accurately ripped (confidence 2) [3C24E6D8] (AR v2)
Track 6 accurately ripped (confidence 2) [BE8E7E45] (AR v2)
Track 7 accurately ripped (confidence 2) [30321005] (AR v2)
Track 8 accurately ripped (confidence 2) [2A14E169] (AR v2)
Track 9 accurately ripped (confidence 2) [2AF1952C] (AR v2)
Track 10 accurately ripped (confidence 2) [AFEC768C] (AR v2)
Track 11 accurately ripped (confidence 2) [88567D08] (AR v2)
Track 12 accurately ripped (confidence 2) [9E454965] (AR v2)
Track 13 accurately ripped (confidence 2) [223B85DC] (AR v2)
Track 14 accurately ripped (confidence 2) [75267516] (AR v2)

All tracks accurately ripped

End of status report

==== Log checksum 5F55521BEA459BE4BAE3979F827FA3BAD59A20CAFCD0766DD3659E4164D02A42 ====

[CUETools log; Date: 04.01.2015 15:09:28; Version: 2.1.4]
[CTDB TOCID: cex3PIWpjjIUZyzeZ3oXIyRqz9Q-] found.
Track | CTDB Status
1 | (4/4) Accurately ripped
2 | (4/4) Accurately ripped
3 | (4/4) Accurately ripped
4 | (4/4) Accurately ripped
5 | (4/4) Accurately ripped
6 | (4/4) Accurately ripped
7 | (4/4) Accurately ripped
8 | (4/4) Accurately ripped
9 | (4/4) Accurately ripped
10 | (4/4) Accurately ripped
11 | (4/4) Accurately ripped
12 | (4/4) Accurately ripped
13 | (4/4) Accurately ripped
14 | (4/4) Accurately ripped
[AccurateRip ID: 001e9fc8-014d45de-dd0ea20e] found.
Track [ CRC | V2 ] Status
01 [cfbc94ee|8b79390b] (2+6/8) Accurately ripped
02 [49805cb2|282343d9] (2+6/8) Accurately ripped
03 [33a4c2c2|41c3c059] (2+6/8) Accurately ripped
04 [3e3dc54c|6bcabda5] (2+6/8) Accurately ripped
05 [cd5221ec|3c24e6d8] (2+6/8) Accurately ripped
06 [84912571|be8e7e45] (2+6/8) Accurately ripped
07 [ef72662c|30321005] (2+6/8) Accurately ripped
08 [f8f86f2b|2a14e169] (2+6/8) Accurately ripped
09 [1aaf6750|2af1952c] (2+6/8) Accurately ripped
10 [06de110a|afec768c] (2+6/8) Accurately ripped
11 [cd759a10|88567d08] (2+6/8) Accurately ripped
12 [fe23ebe1|9e454965] (2+6/8) Accurately ripped
13 [2dd716ec|223b85dc] (2+6/8) Accurately ripped
14 [8a20155c|75267516] (2+6/8) Accurately ripped

Track Peak [ CRC32 ] [W/O NULL] [ LOG ]
– 92,2 [CFD7E381] [14A71AFD] CRC32
01 92,2 [4A8B674E] [E5517960]
02 92,2 [BB819776] [07D7EC3A]
03 92,2 [A1918A46] [62A31DC3]
04 86,0 [CF0D25D9] [54954D56]
05 92,2 [8D752940] [C4AA872B]
06 92,2 [993A02CD] [24740DEA]
07 92,2 [FD412400] [544ECCB6]
08 92,2 [ECA2B08E] [DE7EB746]
09 92,2 [1AEA42AF] [C3687DC8]
10 92,2 [89EC74A2] [1BEAEB77]
11 92,2 [F66E3BEC] [38B7FB20]
12 92,2 [C2081F5F] [79FC55E9]
13 92,2 [293ADF0E] [F9123A89]
14 92,2 [0E0E26DE] [2B054AF2]

Thanks to tatuk