Subcategories

Ozzy Osbourne - Two Original Albums (2009) [2CD Box Set]

Posted By: v3122
Ozzy Osbourne - Two Original Albums (2009) [2CD Box Set]

Ozzy Osbourne - Two Original Albums (2009)
EAC | Flac(Image) + Cue + Log & MP3 CBR 320Kbps
2CD | Sony, 88697593572 | ~ 875 or 278 Mb | Scans(jpg) -> 202 Mb
Hard Rock, Heavy Metal

~ No More Tears 1991 & Diary Of A Madman 1981 ~

Ozzy Osbourne - Two Original Albums (2009):

Ozzy Osbourne - Two Original Albums (2009) [2CD Box Set]

Tracklist CD1 - No More Tears:

01. Mr. Tinkertrain 5:57
02. I Don't Want To Change The World 4:06
03. Mama, I'm Coming Home 4:12
04. Desire 5:45
05. No More Tears 7:24
06. S.I.N. 4:47
07. Hellraiser 4:53
08. Time After Time 4:20
09. Zombie Stomp 6:13
10. A.V.H. 4:13
11. Road To Nowhere 5:12
12. Don't Blame Me 5:07
13. Party With The Animals 4:18

Exact Audio Copy V1.3 from 2. September 2016

EAC extraction logfile from 3. June 2017, 8:48

Ozzy Osbourne / No More Tears (Disc 1)

Used drive : PLEXTOR DVDR PX-891SA Adapter: 1 ID: 0

Read mode : Secure
Utilize accurate stream : Yes
Defeat audio cache : Yes
Make use of C2 pointers : No

Read offset correction : 6
Overread into Lead-In and Lead-Out : No
Fill up missing offset samples with silence : Yes
Delete leading and trailing silent blocks : No
Null samples used in CRC calculations : Yes
Used interface : Native Win32 interface for Win NT & 2000

Used output format : User Defined Encoder
Selected bitrate : 128 kBit/s
Quality : High
Add ID3 tag : No
Command line compressor : C:\Program Files (x86)\Exact Audio Copy\Flac\flac.exe
Additional command line options : -V -8 -T "Genre=%genre%" -T "Artist=%artist%" -T "Title=%title%" -T "Album=%albumtitle%" -T "Date=%year%" -T "Tracknumber=%tracknr%" -T "Comment=%comment%" %source%


TOC of the extracted CD

Track | Start | Length | Start sector | End sector
––––––––––––––––––––––––––––-
1 | 0:00.00 | 5:56.63 | 0 | 26762
2 | 5:56.63 | 4:05.45 | 26763 | 45182
3 | 10:02.33 | 4:11.47 | 45183 | 64054
4 | 14:14.05 | 5:45.33 | 64055 | 89962
5 | 19:59.38 | 7:24.30 | 89963 | 123292
6 | 27:23.68 | 4:47.10 | 123293 | 144827
7 | 32:11.03 | 4:52.50 | 144828 | 166777
8 | 37:03.53 | 4:20.02 | 166778 | 186279
9 | 41:23.55 | 6:13.20 | 186280 | 214274
10 | 47:37.00 | 4:12.58 | 214275 | 233232
11 | 51:49.58 | 5:12.22 | 233233 | 256654
12 | 57:02.05 | 5:06.63 | 256655 | 279667
13 | 62:08.68 | 4:17.47 | 279668 | 298989


Range status and errors

Selected range

Filename H:\dafnaplus\Disc 1 - No More Tears\Ozzy Osbourne - No More Tears (Disc 1).wav

Peak level 100.0 %
Extraction speed 8.4 X
Range quality 100.0 %
Test CRC 33B9F03B
Copy CRC 33B9F03B
Copy OK

No errors occurred


AccurateRip summary

Track 1 accurately ripped (confidence 9) [919D7E65] (AR v2)
Track 2 accurately ripped (confidence 8) [6CDDEE06] (AR v2)
Track 3 accurately ripped (confidence 8) [3A003F21] (AR v2)
Track 4 accurately ripped (confidence 8) [57512F10] (AR v2)
Track 5 accurately ripped (confidence 8) [2A5CD3F7] (AR v2)
Track 6 accurately ripped (confidence 8) [79D4A051] (AR v2)
Track 7 accurately ripped (confidence 8) [7B9EB9C2] (AR v2)
Track 8 accurately ripped (confidence 8) [689E12EF] (AR v2)
Track 9 accurately ripped (confidence 8) [D4F9F20B] (AR v2)
Track 10 accurately ripped (confidence 8) [6093E922] (AR v2)
Track 11 accurately ripped (confidence 8) [E0EBB1F2] (AR v2)
Track 12 accurately ripped (confidence 8) [BE76C8C7] (AR v2)
Track 13 accurately ripped (confidence 8) [C7A9794A] (AR v2)

All tracks accurately ripped

End of status report

–– CUETools DB Plugin V2.1.6

[CTDB TOCID: NjjecnsgWmkoQHI9EAKa4IRgrJE-] found
Submit result: NjjecnsgWmkoQHI9EAKa4IRgrJE- has been confirmed
Track | CTDB Status
1 | (67/67) Accurately ripped
2 | (67/67) Accurately ripped
3 | (67/67) Accurately ripped
4 | (67/67) Accurately ripped
5 | (67/67) Accurately ripped
6 | (67/67) Accurately ripped
7 | (67/67) Accurately ripped
8 | (67/67) Accurately ripped
9 | (67/67) Accurately ripped
10 | (67/67) Accurately ripped
11 | (67/67) Accurately ripped
12 | (67/67) Accurately ripped
13 | (67/67) Accurately ripped


==== Log checksum 2B32CDDB1A106CBD1E6C420D69AAAE125DA3FD4D90B1BD8591968EF5FE68EC8E ====


[CUETools log; Date: 03.06.2018 15:53:20; Version: 2.1.5]
[CTDB TOCID: NjjecnsgWmkoQHI9EAKa4IRgrJE-] found.
Track | CTDB Status
1 | (100/100) Accurately ripped
2 | (100/100) Accurately ripped
3 | (100/100) Accurately ripped
4 | ( 99/100) Accurately ripped
5 | (100/100) Accurately ripped
6 | (100/100) Accurately ripped
7 | (100/100) Accurately ripped
8 | (100/100) Accurately ripped
9 | (100/100) Accurately ripped
10 | (100/100) Accurately ripped
11 | (100/100) Accurately ripped
12 | (100/100) Accurately ripped
13 | (100/100) Accurately ripped
[AccurateRip ID: 0020802c-01448a86-a90f920d] found.
Track [ CRC | V2 ] Status
01 [4af7c33b|919d7e65] (07+10/60) Accurately ripped
02 [d235afd7|6cddee06] (07+09/60) Accurately ripped
03 [406cbbfa|3a003f21] (07+09/60) Accurately ripped
04 [7d4ac59d|57512f10] (07+09/60) Accurately ripped
05 [e9f2bb71|2a5cd3f7] (07+09/60) Accurately ripped
06 [89a3e77b|79d4a051] (07+09/60) Accurately ripped
07 [0bf492c2|7b9eb9c2] (07+09/60) Accurately ripped
08 [963908ea|689e12ef] (07+09/60) Accurately ripped
09 [97beb860|d4f9f20b] (07+09/59) Accurately ripped
10 [d7c920e5|6093e922] (07+09/59) Accurately ripped
11 [6cb8ff54|e0ebb1f2] (07+09/60) Accurately ripped
12 [207cdb81|be76c8c7] (07+09/58) Accurately ripped
13 [e23b76ff|c7a9794a] (07+09/59) Accurately ripped
Offsetted by -883:
01 [a6bf5aa5] (03/60) Accurately ripped
02 [5833a073] (03/60) Accurately ripped
03 [ddd5456b] (03/60) Accurately ripped
04 [8fdcbc7a] (03/60) Accurately ripped
05 [65c29221] (03/60) Accurately ripped
06 [ae0024c1] (03/60) Accurately ripped
07 [97ccb1a1] (03/60) Accurately ripped
08 [197b726a] (03/60) Accurately ripped
09 [d445bfe9] (03/59) Accurately ripped
10 [e6339e4d] (03/59) Accurately ripped
11 [98f3b7f6] (03/60) Accurately ripped
12 [34bb8924] (03/58) Accurately ripped
13 [e88d2620] (03/59) Accurately ripped

Track Peak [ CRC32 ] [W/O NULL] [ LOG ]
– 99,9 [33B9F03B] [01173CF5] CRC32
01 99,9 [C119546D] [68331F68]
02 99,9 [CEBA946B] [090486E5]
03 99,9 [1310D96D] [AB910769]
04 99,9 [D4044772] [5CDE268B]
05 99,9 [A05CB512] [9D0DA682]
06 99,9 [0ECEC636] [708C96CA]
07 99,9 [B0A00492] [E5E3514D]
08 99,9 [B3089C99] [75AB6992]
09 99,9 [7F7CBE4A] [C0F285BD]
10 99,9 [35A3CAB9] [FD02BF6D]
11 99,9 [B538499F] [09D75D12]
12 99,9 [F43C80DD] [3FF1FBD7]
13 99,9 [E4848421] [4BAC2069]


Ozzy Osbourne - Two Original Albums (2009) [2CD Box Set]

Tracklist CD2 - Diary Of A Madman:

01. Over The Mountain 4:31
02. Flying High Again 4:40
03. You Can't Kill Rock And Roll 6:46
04. Believer 5:15
05. Little Dolls 5:36
06. Tonight 5:44
07. S.A.T.O. 4:07
08. Diary Of A Madman 6:15
09. I Don't Know (Live) (Bonus Track) 4:57

Exact Audio Copy V1.3 from 2. September 2016

EAC extraction logfile from 3. June 2017, 9:10

Ozzy Osbourne / Diary Of A Madman (Disc 2)

Used drive : PLEXTOR DVDR PX-891SA Adapter: 1 ID: 0

Read mode : Secure
Utilize accurate stream : Yes
Defeat audio cache : Yes
Make use of C2 pointers : No

Read offset correction : 6
Overread into Lead-In and Lead-Out : No
Fill up missing offset samples with silence : Yes
Delete leading and trailing silent blocks : No
Null samples used in CRC calculations : Yes
Used interface : Native Win32 interface for Win NT & 2000

Used output format : User Defined Encoder
Selected bitrate : 128 kBit/s
Quality : High
Add ID3 tag : No
Command line compressor : C:\Program Files (x86)\Exact Audio Copy\Flac\flac.exe
Additional command line options : -V -8 -T "Genre=%genre%" -T "Artist=%artist%" -T "Title=%title%" -T "Album=%albumtitle%" -T "Date=%year%" -T "Tracknumber=%tracknr%" -T "Comment=%comment%" %source%


TOC of the extracted CD

Track | Start | Length | Start sector | End sector
––––––––––––––––––––––––––––-
1 | 0:00.00 | 4:31.25 | 0 | 20349
2 | 4:31.25 | 4:40.12 | 20350 | 41361
3 | 9:11.37 | 6:46.23 | 41362 | 71834
4 | 15:57.60 | 5:14.60 | 71835 | 95444
5 | 21:12.45 | 5:36.12 | 95445 | 120656
6 | 26:48.57 | 5:43.53 | 120657 | 146434
7 | 32:32.35 | 4:06.47 | 146435 | 164931
8 | 36:39.07 | 6:15.20 | 164932 | 193076
9 | 42:54.27 | 4:56.55 | 193077 | 215331


Range status and errors

Selected range

Filename H:\dafnaplus\Disc 2 - Diary Of A Madman\Ozzy Osbourne - Diary Of A Madman (Disc 2).wav

Peak level 99.8 %
Extraction speed 7.4 X
Range quality 100.0 %
Test CRC D4A6153D
Copy CRC D4A6153D
Copy OK

No errors occurred


AccurateRip summary

Track 1 cannot be verified as accurate (confidence 28) [43DD6DF9], AccurateRip returned [8EFA791A] (AR v2)
Track 2 cannot be verified as accurate (confidence 29) [94F06C9E], AccurateRip returned [5662A852] (AR v2)
Track 3 cannot be verified as accurate (confidence 29) [1675F56A], AccurateRip returned [12A4D139] (AR v2)
Track 4 cannot be verified as accurate (confidence 28) [2587FA81], AccurateRip returned [52E76975] (AR v2)
Track 5 cannot be verified as accurate (confidence 28) [B4D4CE20], AccurateRip returned [F137557A] (AR v2)
Track 6 cannot be verified as accurate (confidence 28) [D7BF1A2D], AccurateRip returned [B28BA0B1] (AR v2)
Track 7 cannot be verified as accurate (confidence 28) [DFAD82C8], AccurateRip returned [E7CB225C] (AR v2)
Track 8 cannot be verified as accurate (confidence 27) [05C74CB1], AccurateRip returned [C63DBDBD] (AR v2)
Track 9 cannot be verified as accurate (confidence 29) [9B5F7F07], AccurateRip returned [23C81874] (AR v2)

No tracks could be verified as accurate
You may have a different pressing from the one(s) in the database

End of status report

–– CUETools DB Plugin V2.1.6

[CTDB TOCID: AqSGZQj9vHRvQ0JAG86V.eYaN4k-] found
Submit result: AqSGZQj9vHRvQ0JAG86V.eYaN4k- has been confirmed
Track | CTDB Status
1 | ( 88/137) Accurately ripped
2 | ( 88/137) Accurately ripped
3 | ( 88/137) Accurately ripped
4 | ( 88/137) Accurately ripped
5 | ( 88/137) Accurately ripped
6 | ( 88/137) Accurately ripped
7 | ( 88/137) Accurately ripped
8 | ( 87/137) Accurately ripped
9 | ( 85/137) Accurately ripped


==== Log checksum C98505261C00D8C69B7C16D7B145741B6BBDB857E98DBDE33B5D1822ADFABD92 ====


[CUETools log; Date: 03.06.2018 15:53:48; Version: 2.1.5]
[CTDB TOCID: AqSGZQj9vHRvQ0JAG86V.eYaN4k-] found.
Track | CTDB Status
1 | (112/173) Accurately ripped
2 | (112/173) Accurately ripped
3 | (112/173) Accurately ripped
4 | (112/173) Accurately ripped
5 | (112/173) Accurately ripped
6 | (112/173) Accurately ripped
7 | (112/173) Accurately ripped
8 | (111/173) Accurately ripped
9 | (109/173) Accurately ripped
[AccurateRip ID: 00105171-00785fa8-740b3709] found.
Track [ CRC | V2 ] Status
01 [5426177b|43dd6df9] (000+000/193) No match
02 [827a7ff1|94f06c9e] (000+000/195) No match
03 [004624bc|1675f56a] (000+000/193) No match
04 [5cadee76|2587fa81] (000+000/192) No match
05 [5395bd9b|b4d4ce20] (000+000/191) No match
06 [85a019e1|d7bf1a2d] (000+000/191) No match
07 [9da5809f|dfad82c8] (000+000/191) No match
08 [87866d33|05c74cb1] (000+000/193) No match
09 [00a1339e|9b5f7f07] (000+000/191) No match
Offsetted by 48:
01 [891ae72a] (022/193) Accurately ripped
02 [a2f09568] (022/195) Accurately ripped
03 [c9e68a6c] (022/193) Accurately ripped
04 [dbfc4d63] (022/192) Accurately ripped
05 [56ea5403] (022/191) Accurately ripped
06 [fbfe95fa] (022/191) Accurately ripped
07 [8f3d6259] (022/191) Accurately ripped
08 [12c30218] (022/193) Accurately ripped
09 [c7dc4706] (020/191) Accurately ripped
Offsetted by 584:
01 [90e9acf1] (002/193) Accurately ripped
02 [b454d9ca] (002/195) Accurately ripped
03 [db888dba] (002/193) Accurately ripped
04 [59334ed3] (002/192) Accurately ripped
05 [a96c23dd] (002/191) Accurately ripped
06 [f18a10d0] (002/191) Accurately ripped
07 [4c3d3f37] (002/191) Accurately ripped
08 [7de49733] (002/193) Accurately ripped
09 [8091c5cb] (002/191) Accurately ripped
Offsetted by 593:
01 [3ac0cd67] (002/193) Accurately ripped
02 [cabd7875] (003/195) Accurately ripped
03 [1491a2e6] (003/193) Accurately ripped
04 [7b482eb0] (003/192) Accurately ripped
05 [9a7d1a15] (003/191) Accurately ripped
06 [808f5033] (003/191) Accurately ripped
07 [8e7df900] (003/191) Accurately ripped
08 [d6fc39a1] (003/193) Accurately ripped
09 [5518be72] (003/191) Accurately ripped
Offsetted by 647:
01 [368203d1] (017/193) Accurately ripped
02 [5074aa64] (017/195) Accurately ripped
03 [f6ce4dde] (017/193) Accurately ripped
04 [4d06ef88] (017/192) Accurately ripped
05 [3c77d78b] (017/191) Accurately ripped
06 [ca439db4] (017/191) Accurately ripped
07 [a1ad0d8e] (017/191) Accurately ripped
08 [44baa7a0] (016/193) Accurately ripped
09 [52997719] (017/191) Accurately ripped
Offsetted by -1344:
01 [60b4778e] (000/193) No match (V2 was not tested)
02 [8b84d30b] (000/195) No match (V2 was not tested)
03 [a339ba4f] (000/193) No match (V2 was not tested)
04 [d1a6e982] (000/192) No match (V2 was not tested)
05 [f7377ff4] (000/191) No match (V2 was not tested)
06 [f9d80f79] (000/191) No match (V2 was not tested)
07 [67c45f4e] (000/191) No match (V2 was not tested)
08 [7dd655e7] (000/193) No match (V2 was not tested)
09 [76e447e1] (000/191) No match (V2 was not tested)
Offsetted by -616:
01 [42c2156e] (000/193) No match (V2 was not tested)
02 [2d7bdd97] (000/195) No match (V2 was not tested)
03 [e4b05ba4] (000/193) No match (V2 was not tested)
04 [ac1a48a0] (000/192) No match (V2 was not tested)
05 [546508f5] (000/191) No match (V2 was not tested)
06 [d6ad5190] (000/191) No match (V2 was not tested)
07 [0a29f4b9] (000/191) No match (V2 was not tested)
08 [2faad872] (002/193) Accurately ripped
09 [4bbe7b5f] (000/191) No match (V2 was not tested)
Offsetted by -22:
01 [2750f543] (000/193) No match (V2 was not tested)
02 [11e9adf7] (000/195) No match (V2 was not tested)
03 [be59127b] (000/193) No match (V2 was not tested)
04 [c3824cc8] (000/192) No match (V2 was not tested)
05 [5cb9a329] (000/191) No match (V2 was not tested)
06 [2e272c23] (000/191) No match (V2 was not tested)
07 [583b7869] (000/191) No match (V2 was not tested)
08 [441d62f2] (000/193) No match (V2 was not tested)
09 [31d594e3] (000/191) No match (V2 was not tested)

Track Peak [ CRC32 ] [W/O NULL] [ LOG ]
– 99,8 [D4A6153D] [B4C42163] CRC32
01 99,1 [3819542B] [78EAD97B]
02 99,8 [86AD1262] [052CD392]
03 99,8 [3A63387A] [B11DEE67]
04 99,8 [AD0160A9] [E9C87AA1]
05 99,8 [C566B3F0] [EC8F6B97]
06 99,7 [D5A093E6] [662A5D52]
07 99,8 [55AFF786] [6285EBC6]
08 99,8 [1CC6C64E] [08F9E627]
09 98,6 [29E99EEF] [256B2013]


Ozzy Osbourne - Two Original Albums (2009) [2CD Box Set]

All thanks go to dafnaplus

Ozzy Osbourne or Ozzy Osbourne in my Blog

Download Ozzy Osbourne - Two Original Albums (2009):