Subcategories

Paul Lansky - Music Box (2006) {Bridge} **[RE-UP]**

Posted By: TestTickles
Paul Lansky - Music Box (2006) {Bridge} **[RE-UP]**

Paul Lansky - Music Box (2006) {Bridge}
EAC Rip | FLAC with CUE and log | scans | 271 mb
MP3 CBR 320kbps | RAR | 137 mb
Genre: contemporary classical, electronic

Music Box is the 2006 CD by classical composer Paul Lansky. It's a mixture of contemporary classical pieces with electronic textures.
This CD, like much of Lansky's music, sounds nothing like what one would expect from a senior member of the composition faculty at Princeton. Lansky draws freely on music outside of academia, and many of the pieces here are clearly derived from popular styles, including hip-hop, rap, and techno. Even when the surface of the music sounds like something that could be heard on AM radio or a new age program, or uses rhythm tracks, Lansky's formidle compositional technique and restless inventiveness keep the music from being predictable.

The 10 pieces here show wide stylistic and emotional range, from the serene to the frenetic, but with more frenzy than serenity overall. In Wordless, one of the most striking pieces on the CD, nervous ostinatos alternate with broad calm melodies that are overlaid with sparkling, brittle, metallic arpeggios. Pavane Noir and Two by Two are gentle, elegiac meditations. B-O-B-O is a genuinely funny lop-sided dance with a whacked-out Nancarrow-like piano part. This collection should be of strong interest to fans of new music and electronic music, as well as anyone interested in the cross-pollination of new classical music with popular music, in which pop holds the upper hand.

Paul Lansky - Music Box (2006) {Bridge} **[RE-UP]**

1. Wordless (2:58)
2. Chatter Of Pins (11:20)
3. Pavanne Noir (4:08)
4. On F (5:51)
5. Two By Two (4:13)
6. Composition Project For Seniors (8:59)
7. B-O-B-O (3:05)
8. The Joy Of F# Minor (10:01)
9. PassaKaglia (4:56)
10. Music Box (3:47)

Exact Audio Copy V1.1 from 23. June 2015

EAC extraction logfile from 22. November 2015, 12:08

Paul Lansky / Music Box

Used drive : TEAC DVD-ROM DV-28SW Adapter: 1 ID: 0

Read mode : Secure
Utilize accurate stream : Yes
Defeat audio cache : Yes
Make use of C2 pointers : No

Read offset correction : 6
Overread into Lead-In and Lead-Out : No
Fill up missing offset samples with silence : Yes
Delete leading and trailing silent blocks : No
Null samples used in CRC calculations : Yes
Used interface : Native Win32 interface for Win NT & 2000
Gap handling : Left out

Used output format : Internal WAV Routines
Sample format : 44.100 Hz; 16 Bit; Stereo


TOC of the extracted CD

Track | Start | Length | Start sector | End sector
––––––––––––––––––––––––––––-
1 | 0:00.00 | 2:57.62 | 0 | 13336
2 | 2:57.62 | 11:20.00 | 13337 | 64336
3 | 14:17.62 | 4:08.01 | 64337 | 82937
4 | 18:25.63 | 5:51.25 | 82938 | 109287
5 | 24:17.13 | 4:13.01 | 109288 | 128263
6 | 28:30.14 | 8:59.10 | 128264 | 168698
7 | 37:29.24 | 3:05.01 | 168699 | 182574
8 | 40:34.25 | 10:01.06 | 182575 | 227655
9 | 50:35.31 | 4:56.01 | 227656 | 249856
10 | 55:31.32 | 3:46.61 | 249857 | 266867


Track 1

Filename C:\My Documents\My FLAC\Paul Lansky - Music Box (2006) [FLAC] {Bridge}\01 - Wordless.wav

Pre-gap length 0:00:02.00

Peak level 100.0 %
Extraction speed 2.6 X
Track quality 100.0 %
Test CRC 211ECF01
Copy CRC 211ECF01
Track not fully ripped for AccurateRip lookup
Copy OK

Track 2

Filename C:\My Documents\My FLAC\Paul Lansky - Music Box (2006) [FLAC] {Bridge}\02 - Chatter Of Pins.wav

Pre-gap length 0:00:02.00

Peak level 100.0 %
Extraction speed 3.7 X
Track quality 100.0 %
Test CRC BF7A73B1
Copy CRC BF7A73B1
Track not fully ripped for AccurateRip lookup
Copy OK

Track 3

Filename C:\My Documents\My FLAC\Paul Lansky - Music Box (2006) [FLAC] {Bridge}\03 - Pavane Noir.wav

Pre-gap length 0:00:02.00

Peak level 100.0 %
Extraction speed 3.3 X
Track quality 99.9 %
Test CRC F8AE6416
Copy CRC F8AE6416
Track not fully ripped for AccurateRip lookup
Copy OK

Track 4

Filename C:\My Documents\My FLAC\Paul Lansky - Music Box (2006) [FLAC] {Bridge}\04 - On F.wav

Pre-gap length 0:00:02.00

Peak level 100.0 %
Extraction speed 4.3 X
Track quality 100.0 %
Test CRC DBC3D7CD
Copy CRC DBC3D7CD
Track not fully ripped for AccurateRip lookup
Copy OK

Track 5

Filename C:\My Documents\My FLAC\Paul Lansky - Music Box (2006) [FLAC] {Bridge}\05 - Two By Two.wav

Pre-gap length 0:00:02.00

Peak level 99.9 %
Extraction speed 3.8 X
Track quality 99.9 %
Test CRC 85E7D5DB
Copy CRC 85E7D5DB
Track not fully ripped for AccurateRip lookup
Copy OK

Track 6

Filename C:\My Documents\My FLAC\Paul Lansky - Music Box (2006) [FLAC] {Bridge}\06 - Conposition Project For Seniors.wav

Pre-gap length 0:00:02.00

Peak level 100.0 %
Extraction speed 5.0 X
Track quality 100.0 %
Test CRC ABB7D70D
Copy CRC ABB7D70D
Track not fully ripped for AccurateRip lookup
Copy OK

Track 7

Filename C:\My Documents\My FLAC\Paul Lansky - Music Box (2006) [FLAC] {Bridge}\07 - B-O-B-O.wav

Pre-gap length 0:00:02.00

Peak level 100.0 %
Extraction speed 4.8 X
Track quality 100.0 %
Test CRC 50D31B0E
Copy CRC 50D31B0E
Track not fully ripped for AccurateRip lookup
Copy OK

Track 8

Filename C:\My Documents\My FLAC\Paul Lansky - Music Box (2006) [FLAC] {Bridge}\08 - The Joy Of F# Minor.wav

Pre-gap length 0:00:02.00

Peak level 100.0 %
Extraction speed 5.4 X
Track quality 100.0 %
Test CRC 96BF144E
Copy CRC 96BF144E
Track not fully ripped for AccurateRip lookup
Copy OK

Track 9

Filename C:\My Documents\My FLAC\Paul Lansky - Music Box (2006) [FLAC] {Bridge}\09 - Passa Kaglia.wav

Pre-gap length 0:00:02.00

Peak level 100.0 %
Extraction speed 5.4 X
Track quality 100.0 %
Test CRC F2D7B45A
Copy CRC F2D7B45A
Track not fully ripped for AccurateRip lookup
Copy OK

Track 10

Filename C:\My Documents\My FLAC\Paul Lansky - Music Box (2006) [FLAC] {Bridge}\10 - Music Box.wav

Pre-gap length 0:00:02.00

Peak level 99.0 %
Extraction speed 5.6 X
Track quality 100.0 %
Test CRC 7D06AD05
Copy CRC 7D06AD05
Accurately ripped (confidence 1) [A1AAB22F] (AR v2)
Copy OK


1 track(s) accurately ripped
9 track(s) not fully ripped for AccurateRip lookup

Some tracks could not be verified as accurate

No errors occurred

End of status report

==== Log checksum 7147900A248F547F7783EB621AE69F8C4F5DA53496A52B1D0EFE8EDDBDD25037 ====


Paul Lansky - Music Box (2006) {Bridge} **[RE-UP]**