Subcategories

PJ Harvey - 4-Track Demos (1993)

Posted By: v3122
PJ Harvey - 4-Track Demos (1993)

PJ Harvey - 4-Track Demos (1993)
Alternative Rock / Indie | EAC Rip | Flac(Image) + Cue + Log & MP3 CBR 320Kbps
2005 | Island / Ukrainian Records, IMCD 170 / 518 450-2 | ~ 293 or 115 Mb
Scans (JPG) Included | Scans (600dpi, png) -> 103 Mb

Since Steve Albini gave Rid of Me such an uncompromisingly noisy finish, it may have made sense for Polly Harvey to release her original demos, augmented by several unreleased songs, six months later as an album. After all, the initial British pressings of Dry came with a bonus disc of her demos. Still, the official, independent release of 4-Track Demos suggests that Harvey wanted to give these songs another chance for listeners who found Rid of Me too abrasive. Even for those who enjoyed Rid of Me, 4-Track Demos is a revelatory experience, since it arguably captures the raw emotion of the songs better the official record. A handful of songs from the record aren't repeated in demo form – namely "Missed," "Man-Size," "Highway 61 Revisited," "Dry," and "Me-Jane" – but they're replaced by the previously unreleased "Reeling," "Driving," "Hardly Wait," "Easy," "M-Bike," and "Goodnight," most of which are easily the equal of the songs that were actually released, and that's what makes 4-Track Demos necessary for every Harvey fan, not just collectors.

~ Stephen Thomas Erlewine, All Music Guide
PJ Harvey - 4-Track Demos (1993):

PJ Harvey - 4-Track Demos (1993)

Tracklist:

01. Rid of Me [3:42]
02. Legs [3:50]
03. Reeling [2:59]
04. Snake [1:58]
05. Hook [4:32]
06. 50 ft Queenie [2:48]
07. Driving [2:39]
08. Ecstasy [2:58]
09. Hardly Wait [2:48]
10. Rub 'Til It Bleeds [5:12]
11. Easy [3:16]
12. M-Bike [2:43]
13. Yuri-G [3:53]
14. Goodnight [4:18]

Exact Audio Copy V1.0 beta 4 from 7. December 2014

EAC extraction logfile from 27. January 2015, 7:26

P J Harvey / 4-Track Demos

Used drive : PIONEER DVD-RW DVR-220L Adapter: 1 ID: 0

Read mode : Secure
Utilize accurate stream : Yes
Defeat audio cache : Yes
Make use of C2 pointers : No

Read offset correction : 6
Overread into Lead-In and Lead-Out : No
Fill up missing offset samples with silence : Yes
Delete leading and trailing silent blocks : No
Null samples used in CRC calculations : Yes
Used interface : Native Win32 interface for Win NT & 2000

Used output format : User Defined Encoder
Selected bitrate : 768 kBit/s
Quality : High
Add ID3 tag : No
Command line compressor : D:\Exact Audio Copy\Flac\flac.exe
Additional command line options : -V -8 -T "Date=%year%" -T "Genre=%genre%" %source%


TOC of the extracted CD

Track | Start | Length | Start sector | End sector
––––––––––––––––––––––––––––-
1 | 0:00.00 | 3:42.30 | 0 | 16679
2 | 3:42.30 | 3:50.12 | 16680 | 33941
3 | 7:32.42 | 2:59.23 | 33942 | 47389
4 | 10:31.65 | 1:57.70 | 47390 | 56234
5 | 12:29.60 | 4:31.72 | 56235 | 76631
6 | 17:01.57 | 2:48.38 | 76632 | 89269
7 | 19:50.20 | 2:39.10 | 89270 | 101204
8 | 22:29.30 | 2:58.25 | 101205 | 114579
9 | 25:27.55 | 2:48.00 | 114580 | 127179
10 | 28:15.55 | 5:12.25 | 127180 | 150604
11 | 33:28.05 | 3:16.20 | 150605 | 165324
12 | 36:44.25 | 2:43.30 | 165325 | 177579
13 | 39:27.55 | 3:52.62 | 177580 | 195041
14 | 43:20.42 | 4:18.25 | 195042 | 214416


Range status and errors

Selected range

Filename D:\New Rips\P J Harvey - 4-Track Demos\P J Harvey - 4-Track Demos.wav

Peak level 91.2 %
Extraction speed 6.9 X
Range quality 100.0 %
Test CRC C4BD3A6E
Copy CRC C4BD3A6E
Copy OK

No errors occurred


AccurateRip summary

Track 1 cannot be verified as accurate (confidence 70) [94168A1F], AccurateRip returned [205F3A5E] (AR v2)
Track 2 cannot be verified as accurate (confidence 71) [2A8CE4E6], AccurateRip returned [F81B8D89] (AR v2)
Track 3 cannot be verified as accurate (confidence 72) [C94675CD], AccurateRip returned [536C8DAD] (AR v2)
Track 4 cannot be verified as accurate (confidence 72) [78EA4C04], AccurateRip returned [E5A8BF14] (AR v2)
Track 5 cannot be verified as accurate (confidence 72) [13B8BB9B], AccurateRip returned [C05239B6] (AR v2)
Track 6 cannot be verified as accurate (confidence 73) [87D15141], AccurateRip returned [D5598C1B] (AR v2)
Track 7 cannot be verified as accurate (confidence 71) [866CA168], AccurateRip returned [20D1381A] (AR v2)
Track 8 cannot be verified as accurate (confidence 70) [7E6914DF], AccurateRip returned [BD4EED64] (AR v2)
Track 9 cannot be verified as accurate (confidence 71) [42C50555], AccurateRip returned [30FD0A7D] (AR v2)
Track 10 cannot be verified as accurate (confidence 71) [C3769713], AccurateRip returned [41963BF4] (AR v2)
Track 11 cannot be verified as accurate (confidence 72) [316A9104], AccurateRip returned [CF51BE81] (AR v2)
Track 12 cannot be verified as accurate (confidence 72) [3AE6A898], AccurateRip returned [FBCFB53A] (AR v2)
Track 13 cannot be verified as accurate (confidence 72) [5E4D82A8], AccurateRip returned [0AC41C3D] (AR v2)
Track 14 cannot be verified as accurate (confidence 70) [DABD8A08], AccurateRip returned [7527107F] (AR v2)

No tracks could be verified as accurate
You may have a different pressing from the one(s) in the database

End of status report

–– CUETools DB Plugin V2.1.4

[CTDB TOCID: pcEq7Zls_JCq7YEscBNRBanRoxs-] found
Submit result: pcEq7Zls_JCq7YEscBNRBanRoxs- has been confirmed
Track | CTDB Status
1 | (47/47) Accurately ripped
2 | (47/47) Accurately ripped
3 | (47/47) Accurately ripped
4 | (47/47) Accurately ripped
5 | (47/47) Accurately ripped
6 | (47/47) Accurately ripped
7 | (47/47) Accurately ripped
8 | (46/47) Accurately ripped
9 | (47/47) Accurately ripped
10 | (47/47) Accurately ripped
11 | (47/47) Accurately ripped
12 | (47/47) Accurately ripped
13 | (46/47) Accurately ripped
14 | (46/47) Accurately ripped


==== Log checksum E4D7BB47FCDE31FDE265309BB5B9908E8936263FA493160AEA43B68C1030B435 ====

foobar2000 1.2.9 / Dynamic Range Meter 1.1.1
log date: 2015-02-03 01:17:40

––––––––––––––––––––––––––––––––––––––––
Analyzed: P J Harvey / 4-Track Demos
––––––––––––––––––––––––––––––––––––––––

DR Peak RMS Duration Track
––––––––––––––––––––––––––––––––––––––––
DR10 -0.79 dB -16.56 dB 3:42 01-Rid Of Me
DR10 -3.22 dB -17.16 dB 3:50 02-Legs
DR10 -1.05 dB -13.84 dB 2:59 03-Reeling
DR9 -5.00 dB -16.38 dB 1:58 04-Snake
DR11 -1.86 dB -15.82 dB 4:32 05-Hook
DR9 -3.14 dB -14.20 dB 2:49 06-50ft Queenie
DR9 -3.00 dB -17.50 dB 2:39 07-Driving
DR9 -4.47 dB -17.41 dB 2:58 08-Ecstasy
DR12 -1.14 dB -17.33 dB 2:48 09-Hardly Wait
DR9 -1.70 dB -16.77 dB 5:12 10-Rub 'Til It Bleeds
DR9 -4.18 dB -15.83 dB 3:16 11-Easy
DR10 -3.26 dB -18.11 dB 2:43 12-M-Bike
DR9 -4.38 dB -17.57 dB 3:53 13-Yuri-G
DR10 -2.35 dB -15.93 dB 4:18 14-Goodnight
––––––––––––––––––––––––––––––––––––––––

Number of tracks: 14
Official DR value: DR10

Samplerate: 44100 Hz
Channels: 2
Bits per sample: 16
Bitrate: 830 kbps
Codec: FLAC
================================================================================

[CUETools log; Date: 03.02.2015 1:18:01; Version: 2.1.4]
[CTDB TOCID: pcEq7Zls_JCq7YEscBNRBanRoxs-] found.
Track | CTDB Status
1 | (48/48) Accurately ripped
2 | (48/48) Accurately ripped
3 | (48/48) Accurately ripped
4 | (48/48) Accurately ripped
5 | (48/48) Accurately ripped
6 | (48/48) Accurately ripped
7 | (48/48) Accurately ripped
8 | (47/48) Accurately ripped
9 | (48/48) Accurately ripped
10 | (48/48) Accurately ripped
11 | (48/48) Accurately ripped
12 | (48/48) Accurately ripped
13 | (47/48) Accurately ripped
14 | (47/48) Accurately ripped
[AccurateRip ID: 0017e583-00fecf42-a00b2a0e] found.
Track [ CRC | V2 ] Status
01 [0fa9183d|94168a1f] (000+000/165) No match
02 [d037fbb2|2a8ce4e6] (000+000/167) No match
03 [20d4eca3|c94675cd] (000+000/168) No match
04 [7271e7af|78ea4c04] (000+000/168) No match
05 [a53ced3f|13b8bb9b] (000+000/168) No match
06 [695f2867|87d15141] (000+000/169) No match
07 [28da8bde|866ca168] (000+000/167) No match
08 [24e8b619|7e6914df] (000+000/165) No match
09 [f338dcb3|42c50555] (000+000/166) No match
10 [0b210110|c3769713] (000+000/166) No match
11 [a1a82cd9|316a9104] (000+000/168) No match
12 [5658fd14|3ae6a898] (000+000/168) No match
13 [816d4b55|5e4d82a8] (000+000/167) No match
14 [4bed9d9c|dabd8a08] (000+000/165) No match
Offsetted by -3:
01 [02fc455b] (022/165) Accurately ripped
02 [2dd0feea] (022/167) Accurately ripped
03 [06b42932] (022/168) Accurately ripped
04 [0c66df59] (022/168) Accurately ripped
05 [09e9a35a] (022/168) Accurately ripped
06 [a668cb40] (022/169) Accurately ripped
07 [d221b70b] (022/167) Accurately ripped
08 [dd9aa93e] (022/165) Accurately ripped
09 [77edba37] (022/166) Accurately ripped
10 [397e0690] (022/166) Accurately ripped
11 [bf9abfa3] (022/168) Accurately ripped
12 [c5a9a6bb] (022/168) Accurately ripped
13 [dbbe3c67] (022/167) Accurately ripped
14 [fd7d5b83] (022/165) Accurately ripped
Offsetted by 664:
01 [205f3a5e] (070/165) Accurately ripped
02 [f81b8d89] (071/167) Accurately ripped
03 [536c8dad] (072/168) Accurately ripped
04 [e5a8bf14] (072/168) Accurately ripped
05 [c05239b6] (072/168) Accurately ripped
06 [d5598c1b] (073/169) Accurately ripped
07 [20d1381a] (071/167) Accurately ripped
08 [bd4eed64] (070/165) Accurately ripped
09 [30fd0a7d] (071/166) Accurately ripped
10 [41963bf4] (071/166) Accurately ripped
11 [cf51be81] (072/168) Accurately ripped
12 [fbcfb53a] (072/168) Accurately ripped
13 [0ac41c3d] (072/167) Accurately ripped
14 [7527107f] (070/165) Accurately ripped

Track Peak [ CRC32 ] [W/O NULL] [ LOG ]
– 91,2 [C4BD3A6E] [A7A84460] CRC32
01 91,2 [8D415921] [09C8177F]
02 69,0 [76E58510] [40F00BC8]
03 88,6 [C40E7677] [F53423F5]
04 56,2 [476AEAC9] [47CC86FB]
05 80,7 [B3FD2D07] [A1C4D4B7]
06 69,6 [F0DFFB13] [6E5FB2C2]
07 70,8 [6E98830E] [3C85125A]
08 59,7 [B042E631] [6EC64BF5]
09 87,6 [31DE792E] [6DAB7AD7]
10 82,2 [91988414] [D0F5BFC8]
11 61,8 [29740369] [265716F4]
12 68,6 [78667D40] [B1746025]
13 60,3 [59C38564] [AE495770]
14 76,3 [942DD891] [37705C41]

PJ Harvey - 4-Track Demos (1993)

Download PJ Harvey - 4-Track Demos (1993):