Subcategories

Primus - Green Naugahyde (2011) {Prawn Song/ATO}

Posted By: TestTickles
Primus - Green Naugahyde (2011) {Prawn Song/ATO}

Primus - Green Naugahyde (2011) {Prawn Song/ATO}
EAC Rip | FLAC with CUE and LOG | scans | 501 mb
MP3 CBR 320 kbps | RAR | 258 mb
Genre: indie rock, funk rock

Green Naugahyde is the 2011 album by Bay Area funk rock trio Primus. This was released on their own Prawn Song record label for the fans and is distributed by ATO.

Primus - Green Naugahyde (2011) {Prawn Song/ATO}

01. Prelude To A Crawl (1:20)
02. Hennepin Crawler (3:59)
03. Last Salmon Man (6:15)
04. Eternal Consumption Engine (2:45)
05. Tragedy's A' Comin'(4:52)
06. Eyes Of The Squirrel (5:32)
07. Jilly's On Smack (6:37)
08. Lee Van Cleef (3:28)
09. Moron TV (4:38)
10. Green Ranger (2:03)
11. HOINFODAMAN (2:59)
12. Extinction Burst (5:20)
13. Salmon Men (0:58)

Exact Audio Copy V1.0 beta 3 from 29. August 2011

EAC extraction logfile from 14. January 2012, 11:22

Primus / Green Naugahyde

Used drive : Optiarc DVD RW AD-7710H Adapter: 0 ID: 1

Read mode : Secure
Utilize accurate stream : Yes
Defeat audio cache : Yes
Make use of C2 pointers : No

Read offset correction : 48
Overread into Lead-In and Lead-Out : No
Fill up missing offset samples with silence : Yes
Delete leading and trailing silent blocks : No
Null samples used in CRC calculations : Yes
Used interface : Native Win32 interface for Win NT & 2000
Gap handling : Appended to previous track

Used output format : Internal WAV Routines
Sample format : 44.100 Hz; 16 Bit; Stereo


TOC of the extracted CD

Track | Start | Length | Start sector | End sector
––––––––––––––––––––––––––––-
1 | 0:00.00 | 1:19.41 | 0 | 5965
2 | 1:19.41 | 3:59.02 | 5966 | 23892
3 | 5:18.43 | 6:15.02 | 23893 | 52019
4 | 11:33.45 | 2:44.70 | 52020 | 64389
5 | 14:18.40 | 4:52.27 | 64390 | 86316
6 | 19:10.67 | 5:32.21 | 86317 | 111237
7 | 24:43.13 | 6:37.00 | 111238 | 141012
8 | 31:20.13 | 3:28.24 | 141013 | 156636
9 | 34:48.37 | 4:37.61 | 156637 | 177472
10 | 39:26.23 | 2:02.56 | 177473 | 186678
11 | 41:29.04 | 2:58.47 | 186679 | 200075
12 | 44:27.51 | 5:20.02 | 200076 | 224077
13 | 49:47.53 | 0:58.18 | 224078 | 228445


Track 1

Filename C:\cuntfist\FLAC\Primus - Green Naugahyde (2011) [FLAC] {Prawn Song, ATO}\01 - Prelude To A Crawl.wav

Pre-gap length 0:00:02.00

Peak level 81.7 %
Extraction speed 2.3 X
Track quality 100.0 %
Test CRC 54403BF0
Copy CRC 54403BF0
Accurately ripped (confidence 1) [849871DE] (AR v1)
Copy OK

Track 2

Filename C:\cuntfist\FLAC\Primus - Green Naugahyde (2011) [FLAC] {Prawn Song, ATO}\02 - Hennepin Crawler.wav

Peak level 100.0 %
Extraction speed 2.6 X
Track quality 99.9 %
Test CRC A847FEAB
Copy CRC A847FEAB
Accurately ripped (confidence 1) [220510B7] (AR v1)
Copy OK

Track 3

Filename C:\cuntfist\FLAC\Primus - Green Naugahyde (2011) [FLAC] {Prawn Song, ATO}\03 - Last Salmon Man.wav

Pre-gap length 0:00:01.15

Peak level 98.8 %
Extraction speed 3.6 X
Track quality 100.0 %
Test CRC E70A9313
Copy CRC E70A9313
Accurately ripped (confidence 1) [20BC931A] (AR v1)
Copy OK

Track 4

Filename C:\cuntfist\FLAC\Primus - Green Naugahyde (2011) [FLAC] {Prawn Song, ATO}\04 - Eternal Consumption Engine.wav

Peak level 96.7 %
Extraction speed 3.5 X
Track quality 100.0 %
Test CRC 557408DC
Copy CRC 557408DC
Accurately ripped (confidence 1) [B2A1B0A3] (AR v1)
Copy OK

Track 5

Filename C:\cuntfist\FLAC\Primus - Green Naugahyde (2011) [FLAC] {Prawn Song, ATO}\05 - Tragedy's A' Comin'.wav

Peak level 98.6 %
Extraction speed 4.1 X
Track quality 100.0 %
Test CRC 3A3F90D1
Copy CRC 3A3F90D1
Accurately ripped (confidence 1) [47F89C65] (AR v1)
Copy OK

Track 6

Filename C:\cuntfist\FLAC\Primus - Green Naugahyde (2011) [FLAC] {Prawn Song, ATO}\06 - Eyes Of The Squirrel.wav

Pre-gap length 0:00:00.62

Peak level 98.8 %
Extraction speed 4.4 X
Track quality 100.0 %
Test CRC 0AB1882B
Copy CRC 0AB1882B
Accurately ripped (confidence 1) [71C571B7] (AR v1)
Copy OK

Track 7

Filename C:\cuntfist\FLAC\Primus - Green Naugahyde (2011) [FLAC] {Prawn Song, ATO}\07 - Jilly's On Smack.wav

Pre-gap length 0:00:01.04

Peak level 96.7 %
Extraction speed 4.8 X
Track quality 100.0 %
Test CRC AB49F919
Copy CRC AB49F919
Accurately ripped (confidence 1) [3AADF591] (AR v1)
Copy OK

Track 8

Filename C:\cuntfist\FLAC\Primus - Green Naugahyde (2011) [FLAC] {Prawn Song, ATO}\08 - Lee Van Cleef.wav

Peak level 96.7 %
Extraction speed 4.7 X
Track quality 100.0 %
Test CRC BFE45BF2
Copy CRC BFE45BF2
Accurately ripped (confidence 1) [84A50BD1] (AR v1)
Copy OK

Track 9

Filename C:\cuntfist\FLAC\Primus - Green Naugahyde (2011) [FLAC] {Prawn Song, ATO}\09 - Moron TV.wav

Peak level 98.6 %
Extraction speed 5.0 X
Track quality 100.0 %
Test CRC 775F7FA9
Copy CRC 775F7FA9
Accurately ripped (confidence 1) [BB73454C] (AR v1)
Copy OK

Track 10

Filename C:\cuntfist\FLAC\Primus - Green Naugahyde (2011) [FLAC] {Prawn Song, ATO}\10 - Green Ranger.wav

Pre-gap length 0:00:01.44

Peak level 98.8 %
Extraction speed 4.5 X
Track quality 100.0 %
Test CRC A5CA4ED0
Copy CRC A5CA4ED0
Accurately ripped (confidence 1) [F2DDE70F] (AR v1)
Copy OK

Track 11

Filename C:\cuntfist\FLAC\Primus - Green Naugahyde (2011) [FLAC] {Prawn Song, ATO}\11 - Hoinfodaman.wav

Pre-gap length 0:00:01.22

Peak level 98.0 %
Extraction speed 3.9 X
Track quality 99.9 %
Test CRC D2B4077D
Copy CRC D2B4077D
Accurately ripped (confidence 1) [0B78D6F0] (AR v1)
Copy OK

Track 12

Filename C:\cuntfist\FLAC\Primus - Green Naugahyde (2011) [FLAC] {Prawn Song, ATO}\12 - Extinction Burst.wav

Pre-gap length 0:00:01.47

Peak level 98.8 %
Extraction speed 4.8 X
Track quality 99.9 %
Test CRC 391AB82A
Copy CRC 391AB82A
Accurately ripped (confidence 1) [652DA62A] (AR v1)
Copy OK

Track 13

Filename C:\cuntfist\FLAC\Primus - Green Naugahyde (2011) [FLAC] {Prawn Song, ATO}\13 - Salmon Men.wav

Peak level 54.1 %
Extraction speed 4.0 X
Track quality 100.0 %
Test CRC E7432633
Copy CRC E7432633
Accurately ripped (confidence 1) [BF1A7637] (AR v1)
Copy OK


All tracks accurately ripped

No errors occurred

End of status report


Primus - Green Naugahyde (2011) {Prawn Song/ATO}


Thank you to the original uploader.