Subcategories

P.C.Kent - Upstairs Coming Down (1970) [Remastered 2015]

Posted By: hill0
P.C.Kent - Upstairs Coming Down (1970) [Remastered 2015]

P.C.Kent - Upstairs Coming Down (1970) [Remastered 2015]
EAC Rip | FLAC (image & cue & log) | 241 MB | MP3 CBR 320 kbps | 104 MB | Scans | 36:57
Genre: Pop Rock / Psychedelic Rock | Country: UK | Label: Big Pink | BIG PINK 363

Produced by Sandy Robertson, 1970's "P.C. Kent" featured all original material; Kent, Richards and Watson responsible for penning all eleven tracks. Musically the set's quite an early-1970s timepiece, bouncing all over the musical spectrum. As lead singer Kent had a likable and versatile voice, that displayed a bit more Cockney accent than normally encountered on Brit LPs. That Brit sense of humor was best displayed on the wild 'drunk driving' ode 'One for the Road'. In spite of the clumsy title 'Little Baby Won't You Please Come Home Honey Child Won't You Just Allow Me One More Chance, Please' started the set off on a commercial high note. A killer melody and performance would have made this a dandy single. Similarly, 'Sweet Suzie Brown Boots', 'I'm Hanging On' and 'After Dark' all had commercial potential.Like any early-1970s outfit these guys also felt the need to show off their blues chops. Judging by 'Please Please Time' and 'Blues Railway Field' the results were competent, though nowhere near as impressive as their pop moves. Elsewhere the weird hybrid of English music hall and experimental sound collage moves on 'We Are the Police' would not have sounded out of place on The Beatles' "White Album". (Kind of neat cover courtesy of Tony Bond.) Obscure yet commercial and strange enough that this one should appeal to quite a few folks …
P.C.Kent - Upstairs Coming Down (1970) [Remastered 2015]




Tracklist:

01. Little Baby Will not You Please Come Home, Honey-Child Will not You Just Allow Me One More Chance, Please - 2:32
02. Sweet Suzie Brown Boots - 3:13
03. Broadened - 1:36
04. Please Time Please - 3:29
05. I'm Hanging On - 3:03
06. We Are The Police - 5:04
07. Prelude To Brighton Rock - 1:33
08. One For The Road - 2:01
09. Suzy - 3:35
10. After Dark - 2:37
11. Blue Railway Fields - 3:23
12. Plastic Wedding - 4:18

Exact Audio Copy V1.1 from 23. June 2015

Отчёт EAC об извлечении, выполненном 10. февраля 2016, 19:18

P.C.Kent / Upstairs Coming Down

Дисковод: ASUS DRW-24B3ST Adapter: 0 ID: 0

Режим чтения : Достоверность
Использование точного потока : Да
Отключение кэша аудио : Да
Использование указателей C2 : Нет

Коррекция смещения при чтении : 6
Способность читать области Lead-in и Lead-out : Нет
Заполнение пропущенных сэмплов тишиной : Да
Удаление блоков с тишиной в начале и конце : Нет
При вычислениях CRC использовались нулевые сэмплы : Да
Интерфейс : Установленный внешний ASPI-интерфейс

Выходной формат : Пользовательский кодировщик
Выбранный битрейт : 1024 kBit/s
Качество : Высокий
Добавление ID3-тега : Нет
Утилита сжатия : C:\Program Files (x86)\Exact Audio Copy\FLAC\FLAC.EXE
Дополнительные параметры : -6 -V -T "ARTIST=%artist%" -T "TITLE=%title%" -T "ALBUM=%albumtitle%" -T "DATE=%year%" -T "TRACKNUMBER=%tracknr%" -T "GENRE=%genre%" -T "COMMENT=%comment%" -T "BAND=%albuminterpret%" -T "ALBUMARTIST=%albuminterpret%" -T "COMPOSER=%composer%" %haslyrics%–tag-from-file=LYRICS="%lyricsfile%"%haslyrics% -T "DISCNUMBER=%cdnumber%" -T "TOTALDISCS=%totalcds%" -T "TOTALTRACKS=%numtracks%" %hascover%–picture="%coverfile%"%hascover% %source% -o %dest%


TOC извлечённого CD

Трек | Старт | Длительность | Начальный сектор | Конечный сектор
––––––––––––––––––––––––––––––––––-
1 | 0:00.00 | 2:36.14 | 0 | 11713
2 | 2:36.14 | 3:15.40 | 11714 | 26378
3 | 5:51.54 | 1:36.72 | 26379 | 33650
4 | 7:28.51 | 3:31.64 | 33651 | 49539
5 | 11:00.40 | 3:05.37 | 49540 | 63451
6 | 14:06.02 | 5:07.17 | 63452 | 86493
7 | 19:13.19 | 1:34.46 | 86494 | 93589
8 | 20:47.65 | 2:03.36 | 93590 | 102850
9 | 22:51.26 | 3:37.49 | 102851 | 119174
10 | 26:29.00 | 2:41.07 | 119175 | 131256
11 | 29:10.07 | 3:25.52 | 131257 | 146683
12 | 32:35.59 | 4:20.45 | 146684 | 166228


Характеристики диапазона извлечения и сообщения об ошибках

Выбранный диапазон

Имя файла E:\Torrents\P.C.Kent - 1970 - P.C.Kent\P.C.Kent - Upstairs Coming Down.wav

Пиковый уровень 100.0 %
Скорость извлечения 7.6 X
Качество диапазона 100.0 %
CRC теста 786BA82E
CRC копии 786BA82E
Копирование… OK

Ошибок не произошло

Конец отчёта

==== Контрольная сумма отчёта 5D4E0A022B85A0ADDF8E0595C663AB215D12045E9DC68DBFB97B457B43D41D01 ====


Personnel

Paul Kent - Vocals, Electric Piano, Piano, Harpsichord
David Richards - Vocals, Piano, Harpsichord, Bass, Acoustic Guitar
Gavin Watson - Vocals, Bass, Lead Guitar, Acoustic Guitar
John Ward - Drums

All thanks to Копысов

P.C.Kent - Upstairs Coming Down (1970) [Remastered 2015]
P.C.Kent - Upstairs Coming Down (1970) [Remastered 2015]


=====