Subcategories

Paavali Jumppanen - Beethoven: Piano Sonatas Opp. 7, 13 "Pathetique", 109, 110 & 111 (2016)

Posted By: tirexiss
Paavali Jumppanen - Beethoven: Piano Sonatas Opp. 7, 13 "Pathetique", 109, 110 & 111 (2016)

Paavali Jumppanen - Beethoven: Piano Sonatas Opp. 7, 13 "Pathetique", 109, 110 & 111 (2016)
EAC | FLAC (image+.cue, log) | Covers Included | 01:58:42 | 350 MB
Genre: Classical | Label: Ondine | Catalog: ODE 1298-2D

The final volume of pianist Paavali Jumppanen’s acclaimed cycle of Beethoven piano sonatas.
This volume combines the early Op. 7 and the famous Pathétique sonata together with the Last Sonatas Opp. 109-111 written by Beethoven in the 1820s.
Jumppanen has collaborated with numerous contemporary composers and premiering many solo and chamber works for the piano. He has worked personally with esteemed composers including Pierre Boulez, William Duckworth, Henri Dutilleux, as well as composers of his native Finland. On the DG recording project of the complete works by Pierre Boulez, Jumppanen recorded the piano sonatas upon the composer’s request.
Paavali Jumppanen is an internationally esteemed pianist, a versatile performer equally at home as a concerto soloist, chamber musician, and a recitalist. His vast repertoire spans piano literature from Bach to the Avant-garde. Jumppanen has spent several years performing the works of Viennese Classics, in particular Beethoven. His performances of the complete cycles of Beethoven's and Mozart's Piano Sonatas as well as Beethoven's concertos and chamber music have won critical acclaim.

Paavali Jumppanen - Beethoven: Piano Sonatas Opp. 7, 13 "Pathetique", 109, 110 & 111 (2016)

Track List:

CD 1:
[1]-[4] Grand Sonata in E-flat major, Op. 7
[5]-[7] Grand Sonata in C minor, Op. 13 “Pathétique”

Exact Audio Copy V1.1 from 23. June 2015

EAC extraction logfile from 17. January 2017, 20:58

Paavali Jumppanen / Beethoven - Piano Sonatas, Opp. 7 & 13

Used drive : HL-DT-STDVDRAM GU70N Adapter: 1 ID: 0

Read mode : Secure
Utilize accurate stream : Yes
Defeat audio cache : Yes
Make use of C2 pointers : No

Read offset correction : 48
Overread into Lead-In and Lead-Out : No
Fill up missing offset samples with silence : Yes
Delete leading and trailing silent blocks : No
Null samples used in CRC calculations : Yes
Used interface : Native Win32 interface for Win NT & 2000

Used output format : User Defined Encoder
Selected bitrate : 128 kBit/s
Quality : High
Add ID3 tag : No
Command line compressor : C:\Program Files (x86)\Exact Audio Copy\Flac\flac.exe
Additional command line options : -V -8 -T "Date=%year%" -T "Genre=%genre%" %source%


TOC of the extracted CD

Track | Start | Length | Start sector | End sector
––––––––––––––––––––––––––––-
1 | 0:00.00 | 8:25.47 | 0 | 37921
2 | 8:25.47 | 9:34.12 | 37922 | 80983
3 | 17:59.59 | 6:54.62 | 80984 | 112095
4 | 24:54.46 | 7:16.53 | 112096 | 144848
5 | 32:11.24 | 8:58.50 | 144849 | 185248
6 | 41:09.74 | 4:32.29 | 185249 | 205677
7 | 45:42.28 | 4:36.57 | 205678 | 226434


Range status and errors

Selected range

Filename C:\temp\Beethoven - Piano Sonatas, Opp. 7, 13, 109, 110 & 111 - Jumppanen\CD1\Beethoven - Piano Sonatas, Opp. 7 & 13.wav

Peak level 89.1 %
Extraction speed 5.0 X
Range quality 100.0 %
Test CRC C892172C
Copy CRC C892172C
Copy OK

No errors occurred


AccurateRip summary

Track 1 not present in database
Track 2 not present in database
Track 3 not present in database
Track 4 not present in database
Track 5 not present in database
Track 6 not present in database
Track 7 not present in database

None of the tracks are present in the AccurateRip database

End of status report

==== Log checksum D0A7CA9E87E893E1A2F0B2083CBE0022DF17B3B8750DCC9A5818701498057A02 ====

CD 2:
[1]-[3] Sonata in E major, Op. 109
[4]-[6] Sonata in A-flat major, Op. 110
[7]-[8] Sonata in C minor, Op. 111

Exact Audio Copy V1.1 from 23. June 2015

EAC extraction logfile from 17. January 2017, 22:04

Paavali Jumppanen / Beethoven - Piano Sonatas, Opp. 109, 110 & 111

Used drive : HL-DT-STDVDRAM GU70N Adapter: 1 ID: 0

Read mode : Secure
Utilize accurate stream : Yes
Defeat audio cache : Yes
Make use of C2 pointers : No

Read offset correction : 48
Overread into Lead-In and Lead-Out : No
Fill up missing offset samples with silence : Yes
Delete leading and trailing silent blocks : No
Null samples used in CRC calculations : Yes
Used interface : Native Win32 interface for Win NT & 2000

Used output format : User Defined Encoder
Selected bitrate : 128 kBit/s
Quality : High
Add ID3 tag : No
Command line compressor : C:\Program Files (x86)\Exact Audio Copy\Flac\flac.exe
Additional command line options : -V -8 -T "Date=%year%" -T "Genre=%genre%" %source%


TOC of the extracted CD

Track | Start | Length | Start sector | End sector
––––––––––––––––––––––––––––-
1 | 0:00.00 | 4:22.65 | 0 | 19714
2 | 4:22.65 | 2:21.13 | 19715 | 30302
3 | 6:44.03 | 13:32.57 | 30303 | 91259
4 | 20:16.60 | 7:09.31 | 91260 | 123465
5 | 27:26.16 | 2:13.71 | 123466 | 133511
6 | 29:40.12 | 11:32.34 | 133512 | 185445
7 | 41:12.46 | 9:09.60 | 185446 | 226680
8 | 50:22.31 | 18:01.35 | 226681 | 307790


Range status and errors

Selected range

Filename C:\temp\Beethoven - Piano Sonatas, Opp. 7, 13, 109, 110 & 111 - Jumppanen\CD2\Beethoven - Piano Sonatas, Opp. 109, 110 & 111.wav

Peak level 89.1 %
Extraction speed 2.2 X
Range quality 99.9 %
Test CRC EBA1B489
Copy CRC EBA1B489
Copy OK

No errors occurred


AccurateRip summary

Track 1 not present in database
Track 2 not present in database
Track 3 not present in database
Track 4 not present in database
Track 5 not present in database
Track 6 not present in database
Track 7 not present in database
Track 8 not present in database

None of the tracks are present in the AccurateRip database

End of status report

==== Log checksum CB9F94E8E1BE373E0444CA323A28743135930CD47133D20B9EB05054631D7446 ====

Performers:
Paavali Jumppanen, piano

Thanks to the Original ripper A-Z!

Download: