Subcategories

Pain Of Salvation - Road Salt One & Two (2010-2011) [Limited Editions] (Repost)

Posted By: gribovar
Pain Of Salvation - Road Salt One & Two (2010-2011) [Limited Editions] (Repost)

Pain Of Salvation - Road Salt One & Two (2010-2011) [Limited Editions]
EAC Rip | WavPack/FLAC (image+.cue+log) - 756 MB | MP3 CBR 320 kbps (LAME 3.93) - 268 MB | Covers - 297 MB
Genre: Progressive Rock/Metal | RAR 3% Rec. | Label: InsideOut Music

Road Salt One (2010). There is no doubt that Pain of Salvation is one of the most unique and controversial bands in the progressive music genre. They have changed their sound with nearly every album they've released and have drawn both praise and anger for their ambitious lyrics and songwriting. Despite having gotten a preview of Road Salt One's sound with the release of the Linoleum EP in 2009, this effort still manages to be one of the biggest stylistic jumps in the band's twenty year career. As many listeners have pointed out, this release makes use of a more basic band approach and shows a lot of influence from 1970s rock music. In this sense, it shows several similarities to the band's 1997 debut. But while that album was driven by funk influence, this album features a bluesy feel that is especially apparent on songs such as "Tell Me You Don't Know".
Fortunately, the band continues to deal with the changes smoothly and puts on a great performance. The guitars aren't exactly aggressive on this release but still manage to shine in spite of sounding subdued. The keyboards and piano also stand out and end up leading the album on several occasions.
But like every other POS release, the vocals of bandleader Daniel Gildenlow are what stand out the most. Filled with charisma, Gildenlow shows off his signature wide range and manages to astound in places where others would've failed such as on the gospel-esque "Of Dust".
As expected, the songs on this album are varied and manage to flirt with a number of different genres.

Road Salt Two (2011). Pain of Salvation has proved to be a completely unpredictable band, and it seems like they've basically been taking a 180 degrees turn with every new album for some time now. Now, after looking at the entire society, illustrated by a very modern, dark and aggressive feel of the music on Scarsick, we go on a trip all the way back to the '70s rock. Fans of 70's heavy prog with unique Gildenlöw flavoring should be sure to check this one out - just don't expect anything even remotely close to "vanilla prog metal"!
As we're used to from Pain of Salvation, the musicianship is excellent across the board. Daniel Gildenlöw's expressive vocals are at the forefront of the music, but his work on the guitar and bass shouldn't go unnoticed either. Johan Hallgren's guitar playing is equally impressive, and Leo Margarit's drumming is not only technically demanding, but also emotionally impressive. Frederik Hermansson's eclectic choices of keyboard tones always suit the music perfectly, and even though he may not be the most prominent figure in the band's sound, no song would be complete without his tasteful additions.

Pain Of Salvation - Road Salt One & Two (2010-2011) [Limited Editions] (Repost)

Pain Of Salvation - Road Salt One (2010) [Limited Edition]
EAC Rip | WavPack (image+.cue+log) - 346 MB | MP3 CBR 320 kbps (LAME 3.93) - 130 MB | Covers - 45 MB
Genre: Progressive Rock/Metal | RAR 3% Rec. | Label: InsideOut Music (0505228)

Tracklist:
01. What She Means To Me (Bonus track)
02. No Way (Extended Version)
03. She Likes To Hide
04. Sisters
05. Of Dust
06. Tell Me You Don't Know
07. Sleeping Under The Stars
08. Darkness Of Mine
09. Linoleum
10. Curiosity
11. Where It Hurts
12. Road Salt (Extended Version)
13. Innocence

Total time: 55:32

Exact Audio Copy V0.99 prebeta 5 from 4. May 2009

EAC extraction logfile from 22. June 2010, 13:01

Pain Of Salvation / Road Salt One (Limited Edition)

Used drive : HL-DT-STDVD-RAM GH15L Adapter: 0 ID: 1

Read mode : Secure
Utilize accurate stream : Yes
Defeat audio cache : Yes
Make use of C2 pointers : No

Read offset correction : 667
Overread into Lead-In and Lead-Out : No
Fill up missing offset samples with silence : Yes
Delete leading and trailing silent blocks : No
Null samples used in CRC calculations : Yes
Used interface : Native Win32 interface for Win NT & 2000

Used output format : Internal WAV Routines
Sample format : 44.100 Hz; 16 Bit; Stereo


TOC of the extracted CD

Track | Start | Length | Start sector | End sector
––––––––––––––––––––––––––––-
1 | 0:00.00 | 0:49.55 | 0 | 3729
2 | 0:49.55 | 7:08.42 | 3730 | 35871
3 | 7:58.22 | 2:57.00 | 35872 | 49146
4 | 10:55.22 | 6:15.00 | 49147 | 77271
5 | 17:10.22 | 2:32.56 | 77272 | 88727
6 | 19:43.03 | 2:42.19 | 88728 | 100896
7 | 22:25.22 | 3:37.23 | 100897 | 117194
8 | 26:02.45 | 4:15.52 | 117195 | 136371
9 | 30:18.22 | 4:55.28 | 136372 | 158524
10 | 35:13.50 | 3:33.47 | 158525 | 174546
11 | 38:47.22 | 4:51.09 | 174547 | 196380
12 | 43:38.31 | 4:40.10 | 196381 | 217390
13 | 48:18.41 | 7:13.28 | 217391 | 249893


Range status and errors

Selected range

Filename D:\Pain Of Salvation [2010] [CD] Road Salt One (Ltd. Ed, Digipak) [EAC-WV] [HQShare.net]\Pain Of Salvation - Road Salt One (Limited Edition).wav

Peak level 96.4 %
Range quality 100.0 %
Test CRC 4E6BC2C6
Copy CRC 4E6BC2C6
Copy OK

No errors occurred


AccurateRip summary

Track 1 accurately ripped (confidence 7) [E8F620B8]
Track 2 accurately ripped (confidence 7) [867CA7AA]
Track 3 accurately ripped (confidence 7) [F3217226]
Track 4 accurately ripped (confidence 7) [35AB47CB]
Track 5 accurately ripped (confidence 7) [C255E285]
Track 6 accurately ripped (confidence 7) [A521CFA2]
Track 7 accurately ripped (confidence 7) [ACFE7EAB]
Track 8 accurately ripped (confidence 7) [768835D9]
Track 9 accurately ripped (confidence 7) [E420B390]
Track 10 accurately ripped (confidence 7) [254C1290]
Track 11 accurately ripped (confidence 7) [E297294A]
Track 12 accurately ripped (confidence 7) [B8AB9661]
Track 13 accurately ripped (confidence 7) [A281F07C]

All tracks accurately ripped

End of status report

[CUETools log; Date: 04.02.2017 22:19:56; Version: 2.1.4]
[CTDB TOCID: 4mdPDC0Rpz9ROx9_zbKcXH_qxNI-] found.
Track | CTDB Status
1 | (37/37) Accurately ripped
2 | (37/37) Accurately ripped
3 | (37/37) Accurately ripped
4 | (36/37) Accurately ripped
5 | (37/37) Accurately ripped
6 | (36/37) Accurately ripped
7 | (37/37) Accurately ripped
8 | (37/37) Accurately ripped
9 | (37/37) Accurately ripped
10 | (37/37) Accurately ripped
11 | (37/37) Accurately ripped
12 | (37/37) Accurately ripped
13 | (34/37) Accurately ripped, or (2/37) differs in 3 samples @06:45:59
[AccurateRip ID: 0018813f-00f88912-930d030d] found.
Track [ CRC | V2 ] Status
01 [e8f620b8|503efed0] (35+30/65) Accurately ripped
02 [867ca7aa|17dcdfca] (36+30/66) Accurately ripped
03 [f3217226|79f851c4] (36+30/66) Accurately ripped
04 [35ab47cb|22567e94] (36+29/65) Accurately ripped
05 [c255e285|714475bf] (36+30/66) Accurately ripped
06 [a521cfa2|75a176fd] (36+30/66) Accurately ripped
07 [acfe7eab|7e3ced02] (36+30/66) Accurately ripped
08 [768835d9|6e32dccb] (36+30/66) Accurately ripped
09 [e420b390|4f4f5419] (36+30/66) Accurately ripped
10 [254c1290|1e591ad3] (36+30/66) Accurately ripped
11 [e297294a|1f784033] (36+30/66) Accurately ripped
12 [b8ab9661|e8670d27] (36+30/66) Accurately ripped
13 [a281f07c|e8299013] (36+30/66) Accurately ripped

Track Peak [ CRC32 ] [W/O NULL] [ LOG ]
– 96,4 [4E6BC2C6] [0A1490CB] CRC32
01 91,0 [2196E3D0] [E9512B75]
02 96,4 [D3A474FB] [C44C86CA]
03 96,4 [E6DC5888] [6A83D467]
04 96,4 [76206DEF] [D2E92BDB]
05 96,4 [346BC36C] [51C1A1B1]
06 96,3 [97462D8F] [ED2C86EC]
07 96,4 [877A2FDA] [2A1BBC4F]
08 96,4 [65FA9E97] [B7B6586F]
09 96,4 [DA3E9EAD] [E85769B7]
10 96,4 [678C7838] [CBAB46AE]
11 96,2 [733009E9] [0B483C9F]
12 96,4 [81E5B0C5] [26A35644]
13 96,4 [72A3B813] [2903019F]

Pain Of Salvation - Road Salt One & Two (2010-2011) [Limited Editions] (Repost)

Pain Of Salvation - Road Salt Two (2011) [Limited Edition]
EAC Rip | FLAC (image+.cue+log) - 410 MB | MP3 CBR 320 kbps (LAME 3.93) - 138 MB | Covers - 252 MB
Genre: Progressive Rock/Metal | RAR 3% Rec. | Label: InsideOut Music (0505628)

Tracklist:
01. Road Salt Theme
02. Softly She Cries
03. Conditioned
04. Healing Now
05. To the Shoreline
06. Break Darling Break (Bonus track)
07. Eleven
08. 1979
09. Of Salt (Bonus track)
10. The Deeper Cut
11. Mortar Grind
12. Through the Distance
13. The Physics of Gridlock
14. End Credits

Total time: 58:41

Exact Audio Copy V1.0 beta 3 from 29. August 2011

EAC extraction logfile from 4. February 2017, 21:28

Pain of Salvation / Road Salt Two

Used drive : ASUS DRW-24B5ST Adapter: 0 ID: 1

Read mode : Secure
Utilize accurate stream : Yes
Defeat audio cache : Yes
Make use of C2 pointers : No

Read offset correction : 6
Overread into Lead-In and Lead-Out : No
Fill up missing offset samples with silence : Yes
Delete leading and trailing silent blocks : No
Null samples used in CRC calculations : Yes
Used interface : Native Win32 interface for Win NT & 2000

Used output format : Internal WAV Routines
Sample format : 44.100 Hz; 16 Bit; Stereo


TOC of the extracted CD

Track | Start | Length | Start sector | End sector
––––––––––––––––––––––––––––-
1 | 0:00.00 | 0:44.71 | 0 | 3370
2 | 0:44.71 | 4:16.24 | 3371 | 22594
3 | 5:01.20 | 4:15.33 | 22595 | 41752
4 | 9:16.53 | 4:29.03 | 41753 | 61930
5 | 13:45.56 | 3:03.59 | 61931 | 75714
6 | 16:49.40 | 2:22.16 | 75715 | 86380
7 | 19:11.56 | 6:55.02 | 86381 | 117507
8 | 26:06.58 | 2:52.72 | 117508 | 130479
9 | 28:59.55 | 2:36.14 | 130480 | 142193
10 | 31:35.69 | 6:07.20 | 142194 | 169738
11 | 37:43.14 | 5:46.65 | 169739 | 195753
12 | 43:30.04 | 2:56.10 | 195754 | 208963
13 | 46:26.14 | 8:43.20 | 208964 | 248208
14 | 55:09.34 | 3:31.05 | 248209 | 264038


Range status and errors

Selected range

Filename D:\Avaxhome\Pain of Salvation - Road Salt Two.wav

Peak level 100.0 %
Extraction speed 3.2 X
Range quality 99.9 %
Test CRC 24BED3AB
Copy CRC 24BED3AB
Copy OK

No errors occurred


AccurateRip summary

Track 1 accurately ripped (confidence 29) [3E258D79] (AR v2)
Track 2 accurately ripped (confidence 29) [DCECCA8B] (AR v2)
Track 3 accurately ripped (confidence 29) [934B7F21] (AR v2)
Track 4 accurately ripped (confidence 29) [A331299A] (AR v2)
Track 5 accurately ripped (confidence 29) [19356D1A] (AR v2)
Track 6 accurately ripped (confidence 29) [81DE2F67] (AR v2)
Track 7 accurately ripped (confidence 29) [B78DB91E] (AR v2)
Track 8 accurately ripped (confidence 29) [C542F44C] (AR v2)
Track 9 accurately ripped (confidence 29) [1DAC732C] (AR v2)
Track 10 accurately ripped (confidence 29) [523F1026] (AR v2)
Track 11 accurately ripped (confidence 29) [8933FD3F] (AR v2)
Track 12 accurately ripped (confidence 29) [E0FF2511] (AR v2)
Track 13 accurately ripped (confidence 29) [222154A1] (AR v2)
Track 14 accurately ripped (confidence 29) [7A8089EE] (AR v2)

All tracks accurately ripped

End of status report

==== Log checksum 1A5D5E926199472750818DC6CC97AEBB0BF702D053B2FE54CD1D008C50FEE844 ====

[CUETools log; Date: 04.02.2017 21:32:49; Version: 2.1.4]
[CTDB TOCID: otUe54BXI_fAjz_jDfGnOlPUuf4-] found.
Track | CTDB Status
1 | (41/42) Accurately ripped
2 | (41/42) Accurately ripped
3 | (41/42) Accurately ripped
4 | (41/42) Accurately ripped
5 | (41/42) Accurately ripped
6 | (42/42) Accurately ripped
7 | (40/42) Accurately ripped
8 | (41/42) Accurately ripped
9 | (41/42) Accurately ripped
10 | (41/42) Accurately ripped
11 | (40/42) Accurately ripped
12 | (42/42) Accurately ripped
13 | (41/42) Accurately ripped
14 | (42/42) Accurately ripped
[AccurateRip ID: 001afcb9-0129c548-b70dc00e] found.
Track [ CRC | V2 ] Status
01 [df2b48b7|3e258d79] (07+29/39) Accurately ripped
02 [f605f802|dcecca8b] (07+29/39) Accurately ripped
03 [e26d1fc3|934b7f21] (07+29/39) Accurately ripped
04 [c347840a|a331299a] (07+29/39) Accurately ripped
05 [9d9e547e|19356d1a] (07+29/39) Accurately ripped
06 [b273495c|81de2f67] (07+29/39) Accurately ripped
07 [128ea7ce|b78db91e] (07+29/39) Accurately ripped
08 [58e454ce|c542f44c] (07+29/39) Accurately ripped
09 [f7a04a55|1dac732c] (07+29/39) Accurately ripped
10 [51e12d25|523f1026] (07+29/39) Accurately ripped
11 [8f65e3a0|8933fd3f] (07+29/39) Accurately ripped
12 [6185dde6|e0ff2511] (07+29/39) Accurately ripped
13 [519e347f|222154a1] (07+29/39) Accurately ripped
14 [c008d960|7a8089ee] (07+29/39) Accurately ripped
Offsetted by -48:
01 [d3b5b64a] (00/39) No match (V2 was not tested)
02 [c86af83c] (00/39) No match (V2 was not tested)
03 [f66067da] (00/39) No match (V2 was not tested)
04 [3a53f14a] (00/39) No match (V2 was not tested)
05 [5aa2c10e] (00/39) No match (V2 was not tested)
06 [422dfaac] (00/39) No match (V2 was not tested)
07 [dfe5678e] (00/39) No match (V2 was not tested)
08 [efc13a20] (00/39) No match (V2 was not tested)
09 [8d33aca3] (00/39) No match (V2 was not tested)
10 [042874af] (00/39) No match (V2 was not tested)
11 [debaa39e] (00/39) No match (V2 was not tested)
12 [46268726] (00/39) No match (V2 was not tested)
13 [99a82847] (00/39) No match (V2 was not tested)
14 [77bc3490] (00/39) No match (V2 was not tested)

Track Peak [ CRC32 ] [W/O NULL] [ LOG ]
– 100,0 [24BED3AB] [601B2A7F] CRC32
01 100,0 [D38D2786] [A995D05D]
02 100,0 [A26CCE8A] [936ED875]
03 100,0 [ACCD3E37] [2C5CDA0D]
04 100,0 [7792E461] [40BFC29D]
05 100,0 [1E05D396] [358217CB]
06 100,0 [E278A7EC] [2CBF725A]
07 94,9 [8D3839A7] [4AF26FA7]
08 100,0 [52EF91FB] [F3C8A6A2]
09 94,7 [7E2C46BA] [AFA2B498]
10 100,0 [2F691BE0] [53F89D45]
11 100,0 [3646ACBB] [9BE612E9]
12 100,0 [CAFBCA13] [CF7D2DB4]
13 100,0 [F0F4E17B] [FE7383C8]
14 100,0 [9F9BFE61] [F27D8BA1]

2010 - thanks to alexander038; 2011 - my CD