Subcategories

Paisiello Giovanni - La Serva Padrona (Paolo Vaglieri, Anne Victoria Banks, Gian Luca Ricci) [2007 / 1991]

Posted By: Sowulo
Paisiello Giovanni - La Serva Padrona (Paolo Vaglieri, Anne Victoria Banks, Gian Luca Ricci) [2007 / 1991]

Paisiello Giovanni - La Serva Padrona (Paolo Vaglieri, Anne Victoria Banks, Gian Luca Ricci) [2007 / 1991]
EAC Rip | FLAC, IMG+CUE, LOG | Covers | 1cd, 270.62 MB
Classical | Nuova Era | 231726

The characters move in a musical setting which is perhaps less revolutionary than Pergolesi's had been, the scenic action moves at a slower pace, with longer arias. Pergolesi's means are certainly more limited than Paisiello's, his vocal styles more essential and specific — his Uberto is more desperate and his Serpina craftier, while in Paisiello's opera the characters take on a more worldly and fugy-rounded form. In Paisiello's work Uberto and Serpina sing with greater awareness of the fact that they are actors in an institutionalised theatre, and their arias could at times belong to a different text, as for example the splendid 'Donne Vaghe' with which Serpina opens the second act or the delightful duet 'Donne infeste', whose music sounds more like an act of love than the celebration of deep disagreement. These two episodes, whose pertinence to the development of the plot is quite questionable, do not appear in Pergolesi's text.

Performer:
Serpina - Anne Victoria Banks
Uberto - Gian Luca Ricci
Orchestra da Camera di Milano
Conductor - Paolo Vaglieri

Tracklisting:
01. Sinfonia
02. Atto I. Aspettare e non venire (Uberto)
03. Ma quando la finisci? (Serpina, Uberto)
04. Sempre in contrasti con te si stа (Uberto)
05. Stizzoso, mio stizzoso (Serpina)
06. Lo conosco a quegli occhietti (Serpina, Uberto)
07. Atto II. Donne vaghe i studi nostri (Serpina)
08. Donne infeste all'altrui bene (Uberto, Serpina)
09. A Serpina penserete (Serpina)
10. Ah! Poveretta lei! (Uberto)
11. Contento tu sarai (Serpina, Uberto)

Exact Audio Copy V1.0 beta 1 from 15. November 2010

EAC extraction logfile from 22. March 2012, 21:31

Paolo Vaglieri, Anne Victoria Banks, Gian Luca Ricci / Paisiello - La Serva Padrona

Used drive : PIONEER DVD-RW DVR-218L Adapter: 1 ID: 0

Read mode : Secure
Utilize accurate stream : Yes
Defeat audio cache : Yes
Make use of C2 pointers : No

Read offset correction : 6
Overread into Lead-In and Lead-Out : No
Fill up missing offset samples with silence : Yes
Delete leading and trailing silent blocks : No
Null samples used in CRC calculations : Yes
Used interface : Native Win32 interface for Win NT & 2000

Used output format : User Defined Encoder
Selected bitrate : 192 kBit/s
Quality : High
Add ID3 tag : No
Command line compressor : C:\Program Files\Exact Audio Copy\Flac\flac.exe
Additional command line options : -T "DATE=%y" -T "GENRE=%m" -8 -V %s


TOC of the extracted CD

Track | Start | Length | Start sector | End sector
––––––––––––––––––––––––––––-
1 | 0:00.00 | 3:49.24 | 0 | 17198
2 | 3:49.24 | 4:17.62 | 17199 | 36535
3 | 8:07.11 | 4:23.65 | 36536 | 56325
4 | 12:31.01 | 5:00.23 | 56326 | 78848
5 | 17:31.24 | 4:33.72 | 78849 | 99395
6 | 22:05.21 | 3:37.03 | 99396 | 115673
7 | 25:42.24 | 6:44.50 | 115674 | 146023
8 | 32:26.74 | 7:25.20 | 146024 | 179418
9 | 39:52.19 | 5:44.12 | 179419 | 205230
10 | 45:36.31 | 8:33.73 | 205231 | 243778
11 | 54:10.29 | 3:36.46 | 243779 | 260024


Range status and errors

Selected range

Filename C:\Paisiello - La Serva Padrona.wav

Peak level 97.9 %
Extraction speed 0.1 X
Range quality 100.0 %
Test CRC 1C4F1019
Copy CRC 1C4F1019
Copy OK

No errors occurred


AccurateRip summary

Track 1 not present in database
Track 2 not present in database
Track 3 not present in database
Track 4 not present in database
Track 5 not present in database
Track 6 not present in database
Track 7 not present in database
Track 8 not present in database
Track 9 not present in database
Track 10 not present in database
Track 11 not present in database

None of the tracks are present in the AccurateRip database

End of status report

==== Log checksum 088A8CF273E33D940D9385B7C760AA6409B07EF0088B2B917CE69CAB1CBE8859 ====