Subcategories

Pat Benatar - Tropico (1984)

Posted By: popsakov
Pat Benatar - Tropico (1984)

Pat Benatar - Tropico (1984)
EAC Rip | FLAC (Img) + Cue + Log ~ 243 Mb | MP3 CBR320 ~ 94 Mb
Scans (JPG, 400 dpi) ~ 28 Mb | RAR 5% Recovery
Rock, Soft Rock, Pop Rock | Chrysalis Records #VK 41471 / DIDX 80

Tropico is American rock singer Pat Benatar's fifth studio album, and sixth album overall, released in late 1984. It peaked at No. 14 on the U.S. Billboard 200 album chart and produced the Grammy-nominated Top Five Pop hit "We Belong". Other well-known songs from the album include "Painted Desert", "Outlaw Blues" and "Ooh Ooh Song" (also a Top 40 hit). A Spanish version "Ooh Ooh Song" was on the B-Side of the US single and appeared also on her 1999 compilation, Synchronistic Wanderings. Tropico was Benatar's sixth consecutive Platinum-certified album in the United States. This album is Benatar and Giraldo's first attempt to move away from Benatar's famed "hard rock" sound and start experimenting with new "gentler" styles and sounds.
~ Wiki

***************

Pat Benatar - Tropico (1984)

Track List:

01. Diamond Field [03:23]
02. We Belong [03:42]
03. Painted Desert [05:27]
04. Temporary Heroes [04:25]
05. Love In The Ice Age [04:06]
06. Ooh Ooh Song [04:09]
07. The Outlaw Blues [03:49]
08. Suburban King [01:48]
09. A Crazy World Like This [04:05]
10. Takin' It Back [04:08]

Exact Audio Copy V1.1 from 23. June 2015

EAC extraction logfile from 20. August 2016, 16:44

Pat Benatar / Tropico

Used drive : HL-DT-STDVDRAM GH22NS40 Adapter: 1 ID: 0

Read mode : Secure
Utilize accurate stream : Yes
Defeat audio cache : Yes
Make use of C2 pointers : No

Read offset correction : 667
Overread into Lead-In and Lead-Out : No
Fill up missing offset samples with silence : Yes
Delete leading and trailing silent blocks : No
Null samples used in CRC calculations : Yes
Used interface : Native Win32 interface for Win NT & 2000

Used output format : User Defined Encoder
Selected bitrate : 1024 kBit/s
Quality : High
Add ID3 tag : Yes
Command line compressor : C:\Program Files\Exact Audio Copy\Flac\flac.exe
Additional command line options : -V -8 -T "Date=%year%" -T "Genre=%genre%" %source%


TOC of the extracted CD

Track | Start | Length | Start sector | End sector
––––––––––––––––––––––––––––-
1 | 0:00.00 | 3:22.45 | 0 | 15194
2 | 3:22.45 | 3:41.10 | 15195 | 31779
3 | 7:03.55 | 5:26.40 | 31780 | 56269
4 | 12:30.20 | 4:24.72 | 56270 | 76141
5 | 16:55.17 | 4:06.00 | 76142 | 94591
6 | 21:01.17 | 4:08.28 | 94592 | 113219
7 | 25:09.45 | 3:48.17 | 113220 | 130336
8 | 28:57.62 | 1:47.48 | 130337 | 138409
9 | 30:45.35 | 4:04.55 | 138410 | 156764
10 | 34:50.15 | 4:07.17 | 156765 | 175306


Range status and errors

Selected range

Filename I:\Rips\Pat Benatar - Tropico.wav

Peak level 100.0 %
Extraction speed 1.7 X
Range quality 99.9 %
Test CRC 8137417D
Copy CRC 8137417D
Copy OK

No errors occurred


AccurateRip summary

Track 1 accurately ripped (confidence 24) [AF88E0BD] (AR v2)
Track 2 accurately ripped (confidence 24) [89591C13] (AR v2)
Track 3 accurately ripped (confidence 24) [4ED2A64C] (AR v2)
Track 4 accurately ripped (confidence 24) [692775FD] (AR v2)
Track 5 accurately ripped (confidence 24) [00F151E0] (AR v2)
Track 6 accurately ripped (confidence 24) [33B81617] (AR v2)
Track 7 accurately ripped (confidence 24) [3EC54447] (AR v2)
Track 8 accurately ripped (confidence 24) [A86DD008] (AR v2)
Track 9 accurately ripped (confidence 24) [BC9F30B2] (AR v2)
Track 10 accurately ripped (confidence 24) [51F255F0] (AR v2)

All tracks accurately ripped

End of status report

–– CUETools DB Plugin V2.1.6

[CTDB TOCID: Aen_TuGpZ2k0uozy4Z41Ry..B9w-] found
Submit result: already submitted
Track | CTDB Status
1 | (31/31) Accurately ripped
2 | (31/31) Accurately ripped
3 | (30/31) Accurately ripped
4 | (31/31) Accurately ripped
5 | (31/31) Accurately ripped
6 | (31/31) Accurately ripped
7 | (31/31) Accurately ripped
8 | (31/31) Accurately ripped
9 | (31/31) Accurately ripped
10 | (31/31) Accurately ripped


==== Log checksum 14D50C9B5F855C70E38D981B901491E6DA7B3F742716C5AC5350E04CF9743262 ====

foobar2000 1.2.6 / Dynamic Range Meter 1.1.1
log date: 2016-08-21 01:46:32

––––––––––––––––––––––––––––––––––––––––
Analyzed: Pat Benatar / Tropico
––––––––––––––––––––––––––––––––––––––––

DR Peak RMS Duration Track
––––––––––––––––––––––––––––––––––––––––
DR13 0.00 dB -14.79 dB 3:23 01-Diamond Field
DR14 0.00 dB -17.63 dB 3:41 02-We Belong
DR15 0.00 dB -16.99 dB 5:27 03-Painted Desert
DR13 -0.37 dB -16.37 dB 4:25 04-Temporary Heroes
DR12 0.00 dB -15.58 dB 4:06 05-Love In The Ice Age
DR12 -2.82 dB -16.62 dB 4:08 06-Ooh Ooh Song
DR14 -1.46 dB -18.82 dB 3:48 07-The Outlaw Blues
DR12 -7.36 dB -23.41 dB 1:48 08-Suburban King
DR13 -1.28 dB -17.41 dB 4:05 09-A Crazy World Like This
DR16 0.00 dB -19.04 dB 4:07 10-Takin' It Back
––––––––––––––––––––––––––––––––––––––––

Number of tracks: 10
Official DR value: DR13

Samplerate: 44100 Hz
Channels: 2
Bits per sample: 16
Bitrate: 831 kbps
Codec: FLAC
================================================================================

[CUETools log; Date: 21.08.2016 0:22:30; Version: 2.1.5]
[CTDB TOCID: Aen_TuGpZ2k0uozy4Z41Ry..B9w-] found.
Track | CTDB Status
1 | (31/31) Accurately ripped
2 | (31/31) Accurately ripped
3 | (30/31) Accurately ripped
4 | (31/31) Accurately ripped
5 | (31/31) Accurately ripped
6 | (31/31) Accurately ripped
7 | (31/31) Accurately ripped
8 | (31/31) Accurately ripped
9 | (31/31) Accurately ripped
10 | (31/31) Accurately ripped
[AccurateRip ID: 000f1372-00782dba-7309210a] found.
Track [ CRC | V2 ] Status
01 [0ac6784d|af88e0bd] (14+24/51) Accurately ripped
02 [813fc01d|89591c13] (15+24/52) Accurately ripped
03 [297e9e8b|4ed2a64c] (15+24/52) Accurately ripped
04 [c772e805|692775fd] (15+24/52) Accurately ripped
05 [3b4ac3ee|00f151e0] (15+24/52) Accurately ripped
06 [a229584e|33b81617] (16+24/53) Accurately ripped
07 [2f55b165|3ec54447] (15+24/52) Accurately ripped
08 [ca665aba|a86dd008] (15+24/52) Accurately ripped
09 [eb3425ea|bc9f30b2] (15+24/52) Accurately ripped
10 [94897468|51f255f0] (15+24/52) Accurately ripped
Offsetted by -82:
01 [b1f30ad9] (08/51) Accurately ripped
02 [eaa3d685] (08/52) Accurately ripped
03 [1410e74d] (08/52) Accurately ripped
04 [205efc2c] (08/52) Accurately ripped
05 [6944952f] (08/52) Accurately ripped
06 [f09ff423] (08/53) Accurately ripped
07 [96b5fce8] (08/52) Accurately ripped
08 [726b85dc] (08/52) Accurately ripped
09 [42af7b0e] (08/52) Accurately ripped
10 [7cc14460] (08/52) Accurately ripped
Offsetted by -203:
01 [3693834e] (00/51) No match (V2 was not tested)
02 [b7d784c7] (00/52) No match (V2 was not tested)
03 [59db4355] (00/52) No match (V2 was not tested)
04 [305a09c7] (00/52) No match (V2 was not tested)
05 [4e028ba3] (00/52) No match (V2 was not tested)
06 [4d8f5be1] (00/53) No match (V2 was not tested)
07 [ff98cc10] (00/52) No match (V2 was not tested)
08 [01ac88cd] (00/52) No match (V2 was not tested)
09 [df5d0ddc] (00/52) No match (V2 was not tested)
10 [017ed4ad] (00/52) No match (V2 was not tested)

Track Peak [ CRC32 ] [W/O NULL] [ LOG ]
– 100,0 [8137417D] [89D5F166] CRC32
01 100,0 [F4EB88DD] [1E54F48B]
02 100,0 [DD5A9E59] [5A1479C6]
03 100,0 [EA98DECE] [484BE8FC]
04 95,8 [3B7BAF84] [E353B64B]
05 100,0 [06B91D79] [37A1AD64]
06 72,2 [5DE21E31] [9153D1D1]
07 84,5 [BCB45C07] [870BC24A]
08 42,8 [7E49C13E] [B904D8F4]
09 86,2 [A7BFFDA6] [548BC331]
10 100,0 [750BDFA2] [FF1313AF]

Pat Benatar - Tropico (1984)

Pat Benatar - Tropico (1984)

See also:
Pat Benatar - Precious Time (1981/1984)
Pat Benatar - Get Nervous (1982/1984)
Pat Benatar - Seven The Hard Way (1985)

All thanks go to powermet

> Visit my blog <

Download: