Subcategories

Patrick Moraz / Bill Bruford - Flags (1985)

Posted By: tiburon
Patrick Moraz / Bill Bruford - Flags (1985)

Patrick Moraz / Bill Bruford - Flags (1985)
EAC 0.99pb4 | FLAC tracks level 8 | Cue+Log+M3U | Full Scans 300dpi | 322MB + 5% Recovery
Genre: Fusion

The follow-up to Music for Piano and Drums is more along the lines of what fans might have expected the first time around. Flags features Moraz's augmenting his piano work with his Kurzweil synthesizer; a fuller production with overdubbing, and more structure. Still, to contrast purely anthemic tracks like the opening "Temples of Joy," Bruford and Moraz offer moments of pure improvisations, including the driving "Split Seconds" and "Infra Dig," which is based around a challenging theme but ultimately evolves into a more free-flowing exploration, with Bruford's light cymbal work and strategically placed shots providing interesting counterpoint to Moraz's more flowing lines. Again the chemistry between the two is clearly evident.
Track List
01. Temples Of Joy 4:53
02. Split Seconds 4:39
03. Karu 3:45
04. Impromtu, Too! 3:33
05. Flags 4:30
06. Machine Programmed By Genes 5:14
07. The Drum Also Waltzes 2:52
08. Infra Dig 3:13
09. A Way With Words 1:36
10. Everything You've Heard Is True 6:04
11. Eastern Sundays (Bonus Track) 7:28
12. Children's Concerto (Bonus Track) 5:05
13. Galatea (Bonus Track) 6:35

musicians
Patrick Moraz - Steinway D concert grand, Kurzweil 250
Bill Bruford - acoustic and electronic drums, percussion

Produced by Bill Bruford and Patrick Moraz


Exact Audio Copy V0.99 prebeta 4 from 23. January 2008

EAC extraction logfile from 9. May 2008, 20:00

Patrick Moraz-Bill Bruford / Flags

Used drive : PLEXTOR CD-R PREMIUM2 Adapter: 1 ID: 1

Read mode : Secure
Utilize accurate stream : Yes
Defeat audio cache : Yes
Make use of C2 pointers : No

Read offset correction : 30
Overread into Lead-In and Lead-Out : No
Fill up missing offset samples with silence : Yes
Delete leading and trailing silent blocks : No
Null samples used in CRC calculations : Yes
Used interface : Installed external ASPI interface
Gap handling : Appended to previous track

Used output format : User Defined Encoder
Selected bitrate : 32 kBit/s
Quality : High
Add ID3 tag : No
Command line compressor : C:\Programmi\FLAC\flac.exe
Additional command line options : -8 -V -T "ARTIST=%a" -T "TITLE=%t" -T "ALBUM=%g" -T "DATE=%y" -T "TRACKNUMBER=%n" -T "GENRE=%m" -T "COMMENT=EAC FLAC -8" %s


TOC of the extracted CD

Track | Start | Length | Start sector | End sector
––––––––––––––––––––––––––––-
1 | 0:00.00 | 4:54.36 | 0 | 22085
2 | 4:54.36 | 4:42.52 | 22086 | 43287
3 | 9:37.13 | 3:47.51 | 43288 | 60363
4 | 13:24.64 | 3:37.12 | 60364 | 76650
5 | 17:02.01 | 4:30.50 | 76651 | 96950
6 | 21:32.51 | 5:17.63 | 96951 | 120788
7 | 26:50.39 | 2:55.00 | 120789 | 133913
8 | 29:45.39 | 3:15.35 | 133914 | 148573
9 | 33:00.74 | 1:36.07 | 148574 | 155780
10 | 34:37.06 | 6:17.02 | 155781 | 184057
11 | 40:54.08 | 7:28.11 | 184058 | 217668
12 | 48:22.19 | 5:05.19 | 217669 | 240562
13 | 53:27.38 | 6:34.72 | 240563 | 270184


Track 1

Filename C:\My Rip\01 - Temples Of Joy.wav

Pre-gap length 0:00:02.00

Peak level 76.5 %
Track quality 100.0 %
Test CRC 15E0D30B
Copy CRC 15E0D30B
Track not present in AccurateRip database
Copy OK

Track 2

Filename C:\My Rip\02 - Split Seconds.wav

Peak level 78.6 %
Track quality 100.0 %
Test CRC 861DCBBE
Copy CRC 861DCBBE
Track not present in AccurateRip database
Copy OK

Track 3

Filename C:\My Rip\03 - Karu.wav

Peak level 52.8 %
Track quality 100.0 %
Test CRC 22D1DB3B
Copy CRC 22D1DB3B
Track not present in AccurateRip database
Copy OK

Track 4

Filename C:\My Rip\04 - Impromtu, Too!.wav

Peak level 100.0 %
Track quality 99.9 %
Test CRC FE8A47B6
Copy CRC FE8A47B6
Track not present in AccurateRip database
Copy OK

Track 5

Filename C:\My Rip\05 - Flags.wav

Peak level 99.8 %
Track quality 100.0 %
Test CRC BCADA018
Copy CRC BCADA018
Track not present in AccurateRip database
Copy OK

Track 6

Filename C:\My Rip\06 - Machine Programmed By Genes.wav

Peak level 89.9 %
Track quality 100.0 %
Test CRC 9222ADE6
Copy CRC 9222ADE6
Track not present in AccurateRip database
Copy OK

Track 7

Filename C:\My Rip\07 - The Drum Also Waltzes.wav

Peak level 83.8 %
Track quality 99.9 %
Test CRC B5CC76A1
Copy CRC B5CC76A1
Track not present in AccurateRip database
Copy OK

Track 8

Filename C:\My Rip\08 - Infra Dig.wav

Peak level 100.0 %
Track quality 100.0 %
Test CRC 73E0ADBA
Copy CRC 73E0ADBA
Track not present in AccurateRip database
Copy OK

Track 9

Filename C:\My Rip\09 - A Way With Words.wav

Peak level 76.4 %
Track quality 100.0 %
Test CRC FE3962E1
Copy CRC FE3962E1
Track not present in AccurateRip database
Copy OK

Track 10

Filename C:\My Rip\10 - Everything You Heard Is True.wav

Peak level 94.5 %
Track quality 100.0 %
Test CRC 07497E85
Copy CRC 07497E85
Track not present in AccurateRip database
Copy OK

Track 11

Filename C:\My Rip\11 - Eastern Sundays (Bonus Track).wav

Pre-gap length 0:00:11.96

Peak level 88.3 %
Track quality 100.0 %
Test CRC 3CEA81D7
Copy CRC 3CEA81D7
Track not present in AccurateRip database
Copy OK

Track 12

Filename C:\My Rip\12 - Children's Concerto (Bonus Track).wav

Peak level 79.9 %
Track quality 100.0 %
Test CRC 3E1BBE19
Copy CRC 3E1BBE19
Track not present in AccurateRip database
Copy OK

Track 13

Filename C:\My Rip\13 - Galatea (Bonus Track).wav

Peak level 88.3 %
Track quality 100.0 %
Test CRC 4BAF5F07
Copy CRC 4BAF5F07
Track not present in AccurateRip database
Copy OK


None of the tracks are present in the AccurateRip database

No errors occurred

End of status report


––––––––––––––––––––––––––––––––––––––––
Analyzed: Patrick Moraz-Bill Bruford / Flags
––––––––––––––––––––––––––––––––––––––––

DR Peak RMS Duration Track
––––––––––––––––––––––––––––––––––––––––
DR13 -2.32 dB -17.48 dB 4:54 01-Temples Of Joy
DR17 -2.09 dB -22.80 dB 4:43 02-Split Seconds
DR11 -5.54 dB -20.43 dB 3:48 03-Karu
DR13 0.00 dB -16.60 dB 3:37 04-Impromtu, Too!
DR15 -0.02 dB -19.66 dB 4:31 05-Flags
DR14 -0.92 dB -19.40 dB 5:18 06-Machine Programmed By Genes
DR15 -1.54 dB -20.00 dB 2:55 07-The Drum Also Waltzes
DR16 0.00 dB -20.10 dB 3:15 08-Infra Dig
DR13 -2.33 dB -21.00 dB 1:36 09-A Way With Words
DR13 -0.48 dB -17.19 dB 6:17 10-Everything You Heard Is True
DR11 -1.08 dB -17.35 dB 7:28 11-Eastern Sundays (Bonus Track)
DR13 -1.95 dB -18.55 dB 5:05 12-Children's Concerto (Bonus Track)
DR15 -1.08 dB -22.97 dB 6:35 13-Galatea (Bonus Track)
––––––––––––––––––––––––––––––––––––––––

Number of tracks: 13
Official DR value: DR14

Samplerate: 44100 Hz
Channels: 2
Bits per sample: 16
Bitrate: 683 kbps
Codec: FLAC
================================================================================

Patrick Moraz / Bill Bruford - Flags (1985)
Patrick Moraz / Bill Bruford - Flags (1985)
Patrick Moraz / Bill Bruford - Flags (1985)


Rip by Sarchiapone