Subcategories

Patrick Vian - Bruits et Temps Analogues (1976) [Reissue 2013] (Repost)

Posted By: gribovar
Patrick Vian - Bruits et Temps Analogues (1976) [Reissue 2013] (Repost)

Patrick Vian - Bruits et Temps Analogues (1976) [Reissue 2013]
EAC Rip | FLAC (image+.cue+log) - 197 MB | MP3 CBR 320 kbps (LAME 3.93) - 93 MB | Covers - 39 MB
Genre: Progressive Electronic | RAR 3% Rec. | Label: Staubgold (Staubgold 126)

Originally released in 1976, the album finally has found an audience and has been reissued by Staubgold. Patrick Vian is the son of French jazz musician Boris Vian. He was also a member of the underground rock band Red Noise, who made one album that is quite well known among prog and psych collectors. Bruits Et Temps Analogues is actually quite an interesting album that has probably been taken for granted over the years. Vian has assembled a high caliber instrumental quartet that includes noted percussionist Mino Cinelu. Vian plays a variety of analog synths - Moogs and ARPs. George Granier is the second keyboardist and Ame Son's Bernard Lavialle plays guitar. The music is flat out prog rock. Vian's use of synths has a bit of a spacey quality but not in a textural way - he's playing laser-like leads while the band plays in a bit of a jazz rock style. The rockier tracks sound a bit like Egg stablemates Ose and Heldon. So you wind up with this weird amalgam of styles that come across like a mash up of Heldon and Gong.

Tracklist:
01. Sphère
02. Grosse Nacht Musik
03. Oreknock
04. Old Vienna
05. R & B Degenerit!
06. Barong Rouge
07. Tunnel 4, Red Noise
08. Bad Blue
08. Tricentennial Drag

Total time: 39:50

Exact Audio Copy V1.0 beta 3 from 29. August 2011

Отчёт EAC об извлечении, выполненном 3. апреля 2013, 11:36

Patrick VIAN / Bruits et Temps Analogues

Дисковод: TSSTcorpCD/DVDW SH-S183A Adapter: 4 ID: 1

Режим чтения : Достоверность
Использование точного потока : Да
Отключение кэша аудио : Да
Использование указателей C2 : Нет

Коррекция смещения при чтении : 6
Способность читать области Lead-in и Lead-out : Нет
Заполнение пропущенных сэмплов тишиной : Да
Удаление блоков с тишиной в начале и конце : Нет
При вычислениях CRC использовались нулевые сэмплы : Да
Интерфейс : Встроенный Win32-интерфейс для Win NT/2000

Выходной формат : Внутренние WAV-операции
Формат сэмплов : 44.100 Гц; 16 бит; стерео


TOC извлечённого CD

Трек | Старт | Длительность | Начальный сектор | Конечный сектор
––––––––––––––––––––––––––––––––––-
1 | 0:00.00 | 6:13.30 | 0 | 28004
2 | 6:13.30 | 5:10.67 | 28005 | 51321
3 | 11:24.22 | 6:51.28 | 51322 | 82174
4 | 18:15.50 | 2:10.65 | 82175 | 91989
5 | 20:26.40 | 6:15.13 | 91990 | 120127
6 | 26:41.53 | 4:10.61 | 120128 | 138938
7 | 30:52.39 | 4:35.61 | 138939 | 159624
8 | 35:28.25 | 2:02.05 | 159625 | 168779
9 | 37:30.30 | 2:19.70 | 168780 | 179274


Характеристики диапазона извлечения и сообщения об ошибках

Выбранный диапазон

Имя файла D:\TEMP\Patrick VIAN - 1976 - Bruits et Temps Analogues.wav

Пиковый уровень 96.8 %
Скорость извлечения 5.2 X
Качество диапазона 100.0 %
CRC теста 6A384C6E
CRC копии 6A384C6E
Копирование… OK

Ошибок не произошло


AccurateRip: сводка

Трек 1 отсутствует в базе данных
Трек 2 отсутствует в базе данных
Трек 3 отсутствует в базе данных
Трек 4 отсутствует в базе данных
Трек 5 отсутствует в базе данных
Трек 6 отсутствует в базе данных
Трек 7 отсутствует в базе данных
Трек 8 отсутствует в базе данных
Трек 9 отсутствует в базе данных

Ни одного трека нет в базе AccurateRip

Конец отчёта

[CUETools log; Date: 14.08.2018 11:51:51; Version: 2.1.4]
[CTDB TOCID: Hlib41BDpeIcoM.Ry5gbX3DKGog-] found.
Track | CTDB Status
1 | (9/9) Accurately ripped
2 | (9/9) Accurately ripped
3 | (9/9) Accurately ripped
4 | (9/9) Accurately ripped
5 | (9/9) Accurately ripped
6 | (9/9) Accurately ripped
7 | (9/9) Accurately ripped
8 | (9/9) Accurately ripped
9 | (9/9) Accurately ripped
[AccurateRip ID: 000f914f-006f1862-70095609] found.
Track [ CRC | V2 ] Status
01 [e344c168|404d6479] (0+3/3) Accurately ripped
02 [d5502519|59b6b78a] (0+3/3) Accurately ripped
03 [e2d274fd|75560be7] (0+3/3) Accurately ripped
04 [0c8b0462|75fc5cf1] (0+3/3) Accurately ripped
05 [b2fe229f|507c8a49] (0+3/3) Accurately ripped
06 [8067e5e9|59ddcc70] (0+3/3) Accurately ripped
07 [640ebbe6|1ba6718f] (0+3/3) Accurately ripped
08 [a06bd52b|a3b492f8] (0+3/3) Accurately ripped
09 [2031a0a3|aa553571] (0+3/3) Accurately ripped

Track Peak [ CRC32 ] [W/O NULL] [ LOG ]
– 96,8 [6A384C6E] [83F59786] CRC32
01 75,2 [E86B9149] [F7C368BD]
02 57,3 [ACBF0755] [90EB07F7]
03 74,5 [2DBC03D2] [99724151]
04 50,2 [78E25376] [359A56AB]
05 76,8 [DDFC56E4] [76F1F0C8]
06 96,8 [40B2392D] [60E0E7BA]
07 80,2 [57B45D8A] [DBEF772D]
08 50,6 [B86A0AED] [AEF2E4B4]
09 63,0 [17D34BC8] [D8F9EA9C]

Thanks to spAceLover