Subcategories

Patrizia - The Edge of Emotion (2005)

Posted By: v3122
Patrizia - The Edge of Emotion (2005)

Patrizia - The Edge of Emotion (2005)
EAC Rip | Flac(Image) + Cue + Log & iPod M4A(Tracks) & MP3 CBR 320Kbps
Melodic Hard Rock / Classical | 2005 | PATRIZIA, PATZ002 | ~ 318 or 320 or 112Mb
Scans (PNG, 600dpi) -> 121Mb

Patrizia 'the most exciting soprano' in the world !
Edge of Emotion This girl can rock, excite and touch your heart like no other. Edge of Emotion Her powerful Queen of the night (Fury) will send shivers through you , her Vissi D'Arte (Desperation), Ah non credea (Heartbreak) will make you cry, and her Carmen (Temptation) is sooo sexy. WOW! It doesn't get more dynamic than this !

By Mark (Canada)

Canada’s Rock Soprano Diva Patrizia’s music and look is ever evolving and this next phase marks a definite new direction in both. The anticipation has been building and this week, Patrizia’s new single, “I Won't Stop Believin” will be hitting radio across the country. In collaboration with producer/songwriter Murray Daigle and Vic Park, the song is a fun dance pop gem which showcases Patrizia’s 4-octave operatic voice.
This beautiful, Italian-born vocalist was featured on BravoFact Presents: The Best Canadian Female Vocalists while her videos “Temptation” and “Desperation” reached #1 and #2 on the Bravo charts. CBC Radio 3 is calling Patrizia “Canada's Next Sensation!”
Patrizia grew up loving loud rock and roll and fronted her share of rock bands until she heard Maria Callas for the first time, whose soprano voice is legendary. Instantly intrigued by the sound and emotion of opera, she immersed herself by taking lessons from world-class trainers Stephanie Bogle, John Hess, Stuart Hamilton, Alisa Palmer, Tom Diamond and Paula Suozzi. While her new musical love gave her great pleasure, she also loved rock music so the concept of blending the two seemed the obvious choice as to what she was meant to be doing.
Patrizia’s debut album, The Edge of Emotion, produced by Paul Milner ( I Mother Earth, Keith Richards, Queensrhyche, Eddy Grant) with the first single “Rage” being produced by the late Kenny McLean of Platinum Blonde, was a collection of the most celebrated classical arias, performed with fire, attitude and passion, set to classic rock accompaniment.
Her follow up release, My Beloved, took her rock opera vision to a whole new level, this time adding modern rock hits and original songs next to revamped classical pieces. Produced by 5-time Grammy winner Steve Thompson (Metallica, Guns n' Roses, Madonna), the record truly brought to life her belief that opera is a living art form, integral with rock, metal and industrial sounds.

Patrizia - The Edge of Emotion (2005):

Patrizia - The Edge of Emotion (2005)

Tracklist:

1. Fury - Mozart/Patrizia
2. Damnation - Verdi
3. Terror - Verdi/Patrizia
4. Heartbreak - Bellini
5. Temptation - Bizet
6. Desperation - Puccini
7. Devotion - Bellini
8. Ecstasy - Bizet
9. Forgiveness - Verdi
10. Goodbye - Catalani
11. My Way intro
12. My Way - Revaux/ Francois/Thibault/Anka

Exact Audio Copy V1.0 beta 3 from 29. August 2011

EAC extraction logfile from 4. January 2013, 22:09

Patrizia / The Edge Of Emotion

Used drive : SONY DVD RW DRU-830A Adapter: 1 ID: 0

Read mode : Secure
Utilize accurate stream : Yes
Defeat audio cache : Yes
Make use of C2 pointers : No

Read offset correction : 6
Overread into Lead-In and Lead-Out : No
Fill up missing offset samples with silence : Yes
Delete leading and trailing silent blocks : No
Null samples used in CRC calculations : Yes
Used interface : Native Win32 interface for Win NT & 2000

Used output format : User Defined Encoder
Selected bitrate : 768 kBit/s
Quality : High
Add ID3 tag : No
Command line compressor : C:\Program Files (x86)\Exact Audio Copy\wavpack\wavpack.exe
Additional command line options : -hlm %source% %dest%


TOC of the extracted CD

Track | Start | Length | Start sector | End sector
––––––––––––––––––––––––––––-
1 | 0:00.00 | 3:09.41 | 0 | 14215
2 | 3:09.41 | 4:03.04 | 14216 | 32444
3 | 7:12.45 | 5:37.54 | 32445 | 57773
4 | 12:50.24 | 4:08.36 | 57774 | 76409
5 | 16:58.60 | 4:30.38 | 76410 | 96697
6 | 21:29.23 | 3:12.47 | 96698 | 111144
7 | 24:41.70 | 6:13.07 | 111145 | 139126
8 | 30:55.02 | 3:23.61 | 139127 | 154412
9 | 34:18.63 | 3:54.73 | 154413 | 172035
10 | 38:13.61 | 3:09.63 | 172036 | 186273
11 | 41:23.49 | 1:16.71 | 186274 | 192044
12 | 42:40.45 | 3:32.16 | 192045 | 207960


Range status and errors

Selected range

Filename D:\_NL+_by_TATUK\WV.ISO13\Patrizia - The Edge Of Emotion.wav

Peak level 100.0 %
Extraction speed 6.8 X
Range quality 100.0 %
Copy CRC 94E1477E
Copy OK

No errors occurred


AccurateRip summary

Track 1 not present in database
Track 2 not present in database
Track 3 not present in database
Track 4 not present in database
Track 5 not present in database
Track 6 not present in database
Track 7 not present in database
Track 8 not present in database
Track 9 not present in database
Track 10 not present in database
Track 11 not present in database
Track 12 not present in database

None of the tracks are present in the AccurateRip database

End of status report

==== Log checksum 655C2CBAEBE7D21BCD8D2F2351BB5321E5043AF43DDF67AC58DF0644C3D73939 ====

AUDIOCHECKER v2.0 beta (build 457) - by Dester - opdester@freemail.hu
~~~~~~~~~~~~~~~~~~~~~~~~~~~~~~~~~~
-=== DO NOT EDIT THIS FILE! ===-

Path: …\2005 - The Edge Of Emotion - Flac

1 -=- Patrizia - The Edge Of Emotion.flac -=- CDDA (100%)

63934804

foobar2000 1.1.18 / Dynamic Range Meter 1.1.1
log date: 2013-01-21 03:12:55

––––––––––––––––––––––––––––––––––––––––
Analyzed: Patrizia / The Edge Of Emotion
––––––––––––––––––––––––––––––––––––––––

DR Peak RMS Duration Track
––––––––––––––––––––––––––––––––––––––––
DR6 0.00 dB -8.43 dB 3:10 01-Fury
DR6 -0.20 dB -7.81 dB 4:03 02-Damnation
DR7 -0.20 dB -8.86 dB 5:38 03-Terror
DR9 0.00 dB -11.35 dB 4:08 04-Heartbreak
DR8 0.00 dB -11.11 dB 4:31 05-Temptation
DR10 0.00 dB -13.69 dB 3:13 06-Desperation
DR9 -0.30 dB -12.15 dB 6:13 07-Devotion
DR7 0.00 dB -9.08 dB 3:24 08-Ecstasy
DR7 -0.87 dB -10.97 dB 3:55 09-Forgiveness
DR7 -0.04 dB -9.93 dB 3:10 10-Goodbye
DR9 -0.84 dB -13.33 dB 1:17 11-My Way (Intro)
DR7 0.00 dB -8.96 dB 3:32 12-My Way
––––––––––––––––––––––––––––––––––––––––

Number of tracks: 12
Official DR value: DR8

Samplerate: 44100 Hz
Channels: 2
Bits per sample: 16
Bitrate: 893 kbps
Codec: FLAC

Patrizia - The Edge of Emotion (2005)

All thanks go to tatuk

Download Patrizia - The Edge of Emotion (2005):