Tags
Language
Tags

Patti Austin - End Of A Rainbow (1976) {2017, Japanese UHQ-CD, Remastered}

Posted By: popsakov
Patti Austin - End Of A Rainbow (1976) {2017, Japanese UHQ-CD, Remastered}

Patti Austin - End Of A Rainbow (1976) {2017, Japanese UHQ-CD, Remastered}
EAC Rip | FLAC (Tracks) + Cue + m3u + Log ~ 269 Mb | MP3 CBR320 ~ 114 Mb
Scans Included | RAR 5% Recovery
R&B, Soul, Soul-Jazz | CTI Records / King Records #KICJ 2553

Originally issued in 1976, "End Of A Rainbow" was Patti's solo debut album for CTI Records. Although not a commercial success, this album was one of the first ever to be exclusively devoted to the Quiet Storm "sound" that was just-then blossoming. Patti's soulful, tender and at times wistful and melancholic vocals are nothing short of exquisite. Patti wrote all eight tracks herself and CTI boss Creed Taylor obviously spared no expenses in getting the best session players for this cult classic. Now that it's available on CD "End Of A Rainbow" definitely deserves a reappraisal.

~ Justo Roteta, Amazon

***************

Patti Austin - End Of A Rainbow (1976) {2017, Japanese UHQ-CD, Remastered}

Patti Austin - End Of A Rainbow (1976) {2017, Japanese UHQ-CD, Remastered}

Track List:

01. Say You Love Me [6:07]
02. In My Life [4:20]
03. You Don't Have To Say You're Sorry [3:37]
04. More Today Than Yesterday [5:28]
05. Give It Time [3:26]
06. There Is No Time [3:41]
07. What's At The End Of A Rainbow [2:52]
08. This Side Of Heaven [3:03]
09. Sweet Sadie The Savior [6:23]

Exact Audio Copy V1.3 from 2. September 2016

Отчёт EAC об извлечении, выполненном 5. сентября 2019, 12:13

Patti Austin / End Of A Rainbow

Дисковод: ASUS DRW-24D5MT Adapter: 1 ID: 0

Режим чтения : Достоверность
Использование точного потока : Да
Отключение кэша аудио : Да
Использование указателей C2 : Нет

Коррекция смещения при чтении : 6
Способность читать области Lead-in и Lead-out : Нет
Заполнение пропущенных сэмплов тишиной : Да
Удаление блоков с тишиной в начале и конце : Нет
При вычислениях CRC использовались нулевые сэмплы : Да
Интерфейс : Встроенный Win32-интерфейс для Win NT/2000
Обработка зазоров : Добавлено к предыдущему треку

Выходной формат : Пользовательский кодировщик
Выбранный битрейт : 128 kBit/s
Качество : Высокий
Добавление ID3-тега : Нет
Утилита сжатия : C:\Users\Тимур\Downloads\FLAC_1.3.2\flac-1.3.2-git-20170314-x64-icl\flac.exe
Дополнительные параметры : -8 -V -T "ARTIST=%artist%" -T "TITLE=%title%" -T "ALBUM=%albumtitle%" -T "DATE=%year%" -T "TRACKNUMBER=%tracknr%" -T "GENRE=%genre%" -T "COMMENT=EAC FLAC -8" %source%


TOC извлечённого CD

Трек | Старт | Длительность | Начальный сектор | Конечный сектор
––––––––––––––––––––––––––––––––––-
1 | 0:00.00 | 6:07.29 | 0 | 27553
2 | 6:07.29 | 4:23.19 | 27554 | 47297
3 | 10:30.48 | 3:40.42 | 47298 | 63839
4 | 14:11.15 | 5:33.63 | 63840 | 88877
5 | 19:45.03 | 3:26.32 | 88878 | 104359
6 | 23:11.35 | 3:42.21 | 104360 | 121030
7 | 26:53.56 | 2:54.26 | 121031 | 134106
8 | 29:48.07 | 3:07.12 | 134107 | 148143
9 | 32:55.19 | 6:22.48 | 148144 | 176841


Трек 1

Имя файла C:\Users\Тимур\Desktop\EAC temp\01 Say You Love Me.wav

Длина предзазора 0:00:02.00

Пиковый уровень 97.6 %
Скорость извлечения 4.8 X
Качество трека 100.0 %
CRC теста CE54E242
CRC копии CE54E242
Точность не определена (достоверность 3) [59FC6EB9], AccurateRip вернул [079BB177] (AR v2)
Копирование… OK

Трек 2

Имя файла C:\Users\Тимур\Desktop\EAC temp\02 In My Life.wav

Пиковый уровень 97.9 %
Скорость извлечения 4.7 X
Качество трека 99.9 %
CRC теста 7FC0EF88
CRC копии 7FC0EF88
Точность не определена (достоверность 3) [31E991FA], AccurateRip вернул [C852C9F3] (AR v2)
Копирование… OK

Трек 3

Имя файла C:\Users\Тимур\Desktop\EAC temp\03 You Don't Have To Say You're Sorry.wav

Длина предзазора 0:00:03.12

Пиковый уровень 85.4 %
Скорость извлечения 5.5 X
Качество трека 100.0 %
CRC теста 4438725D
CRC копии 4438725D
Точность не определена (достоверность 3) [BA6F5428], AccurateRip вернул [89810CB3] (AR v2)
Копирование… OK

Трек 4

Имя файла C:\Users\Тимур\Desktop\EAC temp\04 More Today Than Yesterday.wav

Длина предзазора 0:00:03.38

Пиковый уровень 97.9 %
Скорость извлечения 6.2 X
Качество трека 100.0 %
CRC теста 32B584C5
CRC копии 32B584C5
Точность не определена (достоверность 3) [EEDDA977], AccurateRip вернул [9C00E896] (AR v2)
Копирование… OK

Трек 5

Имя файла C:\Users\Тимур\Desktop\EAC temp\05 Give It Time.wav

Длина предзазора 0:00:05.32

Пиковый уровень 97.9 %
Скорость извлечения 6.2 X
Качество трека 100.0 %
CRC теста 8B499606
CRC копии 8B499606
Точность не определена (достоверность 3) [64DE24C5], AccurateRip вернул [F8B047D2] (AR v2)
Копирование… OK

Трек 6

Имя файла C:\Users\Тимур\Desktop\EAC temp\06 There Is No Time.wav

Пиковый уровень 97.9 %
Скорость извлечения 6.5 X
Качество трека 100.0 %
CRC теста E12909A1
CRC копии E12909A1
Точность не определена (достоверность 3) [68BEC74B], AccurateRip вернул [55EF8AE5] (AR v2)
Копирование… OK

Трек 7

Имя файла C:\Users\Тимур\Desktop\EAC temp\07 What's At The End Of A Rainbow.wav

Длина предзазора 0:00:01.55

Пиковый уровень 87.3 %
Скорость извлечения 6.5 X
Качество трека 100.0 %
CRC теста F3D865A8
CRC копии F3D865A8
Точность не определена (достоверность 3) [572033EF], AccurateRip вернул [6FB46958] (AR v2)
Копирование… OK

Трек 8

Имя файла C:\Users\Тимур\Desktop\EAC temp\08 This Side Of Heaven.wav

Длина предзазора 0:00:02.35

Пиковый уровень 97.9 %
Скорость извлечения 6.7 X
Качество трека 100.0 %
CRC теста B41678F0
CRC копии B41678F0
Точность не определена (достоверность 3) [206695F5], AccurateRip вернул [947BD9BD] (AR v2)
Копирование… OK

Трек 9

Имя файла C:\Users\Тимур\Desktop\EAC temp\09 Sweet Sadie The Savior.wav

Длина предзазора 0:00:03.67

Пиковый уровень 97.9 %
Скорость извлечения 7.7 X
Качество трека 100.0 %
CRC теста 1091B234
CRC копии 1091B234
Точность не определена (достоверность 3) [C962CEB2], AccurateRip вернул [82AC46B1] (AR v2)
Копирование… OK


Ни один трек не прошёл проверки на точность
В вашей базе может быть иной вариант штамповки диска

Ошибок не произошло

Конец отчёта

–– CUETools DB Plugin V2.1.6

[CTDB TOCID: 21KPJmHT1UVdl3lBl8yXZqstNbU-] found
Submit result: 21KPJmHT1UVdl3lBl8yXZqstNbU- has been confirmed
Track | CTDB Status
1 | (5/5) Accurately ripped
2 | (5/5) Accurately ripped
3 | (5/5) Accurately ripped
4 | (5/5) Accurately ripped
5 | (5/5) Accurately ripped
6 | (5/5) Accurately ripped
7 | (5/5) Accurately ripped
8 | (5/5) Accurately ripped
9 | (5/5) Accurately ripped


==== Контрольная сумма отчёта CD35B655145E7724350DB392CB727AA150E2470E10635411FC33A4B6B9EB99E9 ====

Patti Austin - End Of A Rainbow (1976) {2017, Japanese UHQ-CD, Remastered}

All thanks go to moscow123458

>>> Patti Austin in my Blog <<<

DOWNLOAD: