Tags
Language
Tags

Paul Anka - My Greatest Songs (1992)

Posted By: popsakov
Paul Anka - My Greatest Songs (1992)

Paul Anka - My Greatest Songs (1992)
EAC Rip | FLAC (Img) + Cue + Log ~ 277 Mb | MP3 CBR320 ~ 115 Mb
Full Scans | 00:42:35 | RAR 5% Recovery
Pop, Pop Rock, Rock & Roll | RCA Records #74321 10726 2

Paul Anka, is a Canadian American singer, songwriter, and actor. Anka became famous during the late 1950s, 1960s, and 1970s with hit songs like "Diana", "Lonely Boy", and "Put Your Head on My Shoulder".
Paul Anka - My Greatest Songs (1992)


***************

Paul Anka - My Greatest Songs (1992)

Paul Anka - My Greatest Songs (1992)

Track List:

01. Goodnight My Love (Pleasant Dreams) [0:03:11.35]
02. In The Still Of The Night [0:02:42.60]
03. Sincerely [0:02:37.55]
04. Happy [0:02:26.60]
05. Brought Up In New York [0:03:33.35]
06. This Is Love [0:03:43.42]
07. Love Me Warm And Tender [0:02:16.58]
08. A Steel Guitar And A Glass Of Wine [0:02:13.20]
09. Eso beso (That Kiss!) [0:02:15.37]
10. Love (Makes The World Go Round) [0:02:26.63]
11. Remember Diana [0:01:58.55]
12. Diana [0:02:19.40]
13. Put Your Head On My Shoulder [0:02:35.10]
14. Adam And Eve [0:02:13.40]
15. Lonely Boy [0:02:24.32]
16. Listen To Your Heart [0:03:35.33]

Exact Audio Copy V1.1 from 23. June 2015

EAC extraction logfile from 18. May 2016, 12:41

Paul Anka / My Greatest Songs [74321 10726 2]

Used drive : HL-DT-STBD-RE BH10LS38 Adapter: 1 ID: 1

Read mode : Secure
Utilize accurate stream : Yes
Defeat audio cache : Yes
Make use of C2 pointers : No

Read offset correction : 667
Overread into Lead-In and Lead-Out : No
Fill up missing offset samples with silence : Yes
Delete leading and trailing silent blocks : No
Null samples used in CRC calculations : Yes
Used interface : Installed external ASPI interface

Used output format : User Defined Encoder
Selected bitrate : 128 kBit/s
Quality : High
Add ID3 tag : No
Command line compressor : C:\Program Files (x86)\Exact Audio Copy\wavpack-4.60.1\wavpack.exe
Additional command line options : -hm -w "Year=%year%" -w "Genre=%genre%" %source% %dest%


TOC of the extracted CD

Track | Start | Length | Start sector | End sector
––––––––––––––––––––––––––––-
1 | 0:00.33 | 3:11.35 | 33 | 14392
2 | 3:11.68 | 2:42.60 | 14393 | 26602
3 | 5:54.53 | 2:37.55 | 26603 | 38432
4 | 8:32.33 | 2:26.60 | 38433 | 49442
5 | 10:59.18 | 3:33.35 | 49443 | 65452
6 | 14:32.53 | 3:43.42 | 65453 | 82219
7 | 18:16.20 | 2:16.58 | 82220 | 92477
8 | 20:33.03 | 2:13.20 | 92478 | 102472
9 | 22:46.23 | 2:15.37 | 102473 | 112634
10 | 25:01.60 | 2:26.63 | 112635 | 123647
11 | 27:28.48 | 1:58.55 | 123648 | 132552
12 | 29:27.28 | 2:19.40 | 132553 | 143017
13 | 31:46.68 | 2:35.10 | 143018 | 154652
14 | 34:22.03 | 2:13.40 | 154653 | 164667
15 | 36:35.43 | 2:24.32 | 164668 | 175499
16 | 39:00.00 | 3:35.33 | 175500 | 191657


Range status and errors

Selected range

Filename G:\Rips by Alder\Paul Anka - My Greatest Songs [74321 10726 2].wav

Peak level 100.0 %
Extraction speed 7.0 X
Range quality 99.9 %
Test CRC 29AA5FC7
Copy CRC 29AA5FC7
Copy OK

No errors occurred


AccurateRip summary

Track 1 accurately ripped (confidence 4) [F43D31A8] (AR v2)
Track 2 accurately ripped (confidence 4) [74D3A770] (AR v2)
Track 3 accurately ripped (confidence 4) [3E7D434B] (AR v2)
Track 4 accurately ripped (confidence 4) [D8BC08EE] (AR v2)
Track 5 accurately ripped (confidence 4) [B89CC87A] (AR v2)
Track 6 accurately ripped (confidence 4) [1965E2D0] (AR v2)
Track 7 accurately ripped (confidence 4) [54249DC5] (AR v2)
Track 8 accurately ripped (confidence 4) [3D5AB0A2] (AR v2)
Track 9 accurately ripped (confidence 4) [35BB5E0E] (AR v2)
Track 10 accurately ripped (confidence 4) [898560C3] (AR v2)
Track 11 accurately ripped (confidence 4) [70CD9B73] (AR v2)
Track 12 accurately ripped (confidence 4) [5F09B309] (AR v2)
Track 13 accurately ripped (confidence 4) [B9322070] (AR v2)
Track 14 accurately ripped (confidence 4) [19A836E9] (AR v2)
Track 15 accurately ripped (confidence 4) [54C26D1C] (AR v2)
Track 16 accurately ripped (confidence 4) [537AC2EE] (AR v2)

All tracks accurately ripped

End of status report

–– CUETools DB Plugin V2.1.6

[CTDB TOCID: 2CR5B8uqIzgV.k.gFoAq8L4E1oc-] found
Submit result: 2CR5B8uqIzgV.k.gFoAq8L4E1oc- has been confirmed
Track | CTDB Status
1 | (5/5) Accurately ripped
2 | (5/5) Accurately ripped
3 | (5/5) Accurately ripped
4 | (5/5) Accurately ripped
5 | (5/5) Accurately ripped
6 | (5/5) Accurately ripped
7 | (5/5) Accurately ripped
8 | (5/5) Accurately ripped
9 | (5/5) Accurately ripped
10 | (5/5) Accurately ripped
11 | (5/5) Accurately ripped
12 | (5/5) Accurately ripped
13 | (5/5) Accurately ripped
14 | (5/5) Accurately ripped
15 | (5/5) Accurately ripped
16 | (5/5) Accurately ripped


==== Log checksum BFA669DBD362BBF800FF4340B2CAD80AD529635B14A222AA0B2B93AB218F1014 ====

[CUETools log; Date: 23.05.2016 23:39:56; Version: 2.1.5]
Pregap length 00:00:33.
[CTDB TOCID: 2CR5B8uqIzgV.k.gFoAq8L4E1oc-] found.
Track | CTDB Status
1 | (6/6) Accurately ripped
2 | (6/6) Accurately ripped
3 | (6/6) Accurately ripped
4 | (6/6) Accurately ripped
5 | (6/6) Accurately ripped
6 | (6/6) Accurately ripped
7 | (6/6) Accurately ripped
8 | (6/6) Accurately ripped
9 | (6/6) Accurately ripped
10 | (6/6) Accurately ripped
11 | (6/6) Accurately ripped
12 | (6/6) Accurately ripped
13 | (6/6) Accurately ripped
14 | (6/6) Accurately ripped
15 | (6/6) Accurately ripped
16 | (6/6) Accurately ripped
[AccurateRip ID: 00197ae6-012dc84a-de09fb10] found.
Track [ CRC | V2 ] Status
01 [4077987a|f43d31a8] (00+04/09) Accurately ripped
02 [52e5fc55|74d3a770] (00+04/09) Accurately ripped
03 [3bb65059|3e7d434b] (00+04/09) Accurately ripped
04 [5d818894|d8bc08ee] (00+04/09) Accurately ripped
05 [441eb19c|b89cc87a] (00+04/10) Accurately ripped
06 [bb54ee46|1965e2d0] (00+04/10) Accurately ripped
07 [a1c08e3d|54249dc5] (00+04/09) Accurately ripped
08 [d332b8da|3d5ab0a2] (00+04/09) Accurately ripped
09 [3f1cbd69|35bb5e0e] (00+04/10) Accurately ripped
10 [59432945|898560c3] (00+04/09) Accurately ripped
11 [a06beb99|70cd9b73] (00+04/09) Accurately ripped
12 [147553be|5f09b309] (00+04/09) Accurately ripped
13 [cb26bcd4|b9322070] (00+04/10) Accurately ripped
14 [e02d0c97|19a836e9] (00+04/09) Accurately ripped
15 [46f18c6d|54c26d1c] (00+04/09) Accurately ripped
16 [64e8a9e5|537ac2ee] (00+04/10) Accurately ripped
Offsetted by 669:
01 [96fdf60f] (02/09) Accurately ripped
02 [c28ce0f7] (02/09) Accurately ripped
03 [0aa3aeac] (02/09) Accurately ripped
04 [affc4e19] (02/09) Accurately ripped
05 [2f7d680a] (02/10) Accurately ripped
06 [d6905ca9] (02/10) Accurately ripped
07 [67596364] (02/09) Accurately ripped
08 [bb2a1ae5] (02/09) Accurately ripped
09 [1f8be534] (02/10) Accurately ripped
10 [7ad1760a] (02/09) Accurately ripped
11 [41dc1248] (02/09) Accurately ripped
12 [a1330742] (02/09) Accurately ripped
13 [5fd141ef] (02/10) Accurately ripped
14 [2e5826a0] (02/09) Accurately ripped
15 [af5dacaf] (02/09) Accurately ripped
16 [414fc826] (02/10) Accurately ripped

Track Peak [ CRC32 ] [W/O NULL] [ LOG ]
– 100,0 [29AA5FC7] [4A250266] CRC32
01 99,9 [0BC056FB] [3BD54868]
02 100,0 [A3A78655] [323945AB]
03 100,0 [F2781141] [CB69DE35]
04 99,9 [3B7E41BE] [1E800D0D]
05 95,6 [8B12443E] [2707D437]
06 89,1 [A3A325F8] [A094D9BA]
07 81,1 [0FB19843] [E3E201FE]
08 99,8 [043DE917] [693C989A]
09 99,6 [C3D42405] [FBDD98BA]
10 100,0 [D7C3F160] [6E076E3B]
11 100,0 [46B4EB21] [A86B819F]
12 100,0 [3770C9F3] [50410136]
13 99,8 [15169C37] [D8B1E5E5]
14 100,0 [635EAEAE] [5CE7EAD5]
15 100,0 [BCF50F3C] [7C960F25]
16 99,9 [088F4F51] [03421771]

Paul Anka - My Greatest Songs (1992)


See also:

Paul Anka - 2 Gether On 1 (1995)

Paul Anka - My Way (1997)

Paul Anka - Rock Swings (2005)

All thanks go to Alder

>>> My Blog <<<

DOWNLOAD: