Tags
Language
Tags

Paul Anka - My Way (1997)

Posted By: popsakov
Paul Anka - My Way (1997)

Paul Anka - My Way (1997)
EAC Rip | FLAC (Img) + Cue + Log ~ 364 Mb | MP3 CBR320 ~ 140 Mb
Full Scans | 00:55:30 | RAR 5% Recovery
Pop, Ballad | Camden / BMG #74321 511902

The ultimate collection of favourite tracks from the ever-popular romantic song stylist. Paul Albert Anka is a Canadian-American singer, songwriter, and actor. Anka became famous in the late 1950s, 1960s, and 1970s with hit songs like "Diana", "Lonely Boy", "Put Your Head on My Shoulder", and "(You're) Having My Baby". He wrote such well-known music as the theme for The Tonight Show Starring Johnny Carson and one of Tom Jones's biggest hits, "She's a Lady", as well as the English lyrics for Frank Sinatra's signature song, "My Way", which has been covered by many including Elvis Presley. He was inducted into Canada's Walk of Fame in 2005.

***************

Paul Anka - My Way (1997)

Paul Anka - My Way (1997)

Track List:

01. 1957 - Diana [02:23]
02. 1962 - Love Me Warm And Tender [02:20]
03. 1962 - Can't Get Used To Losing You [02:25]
04. 1962 - Eso Beso (That Kiss) [02:16]
05. 1962 - Moon River [02:46]
06. 1969 - My Way (Live) [04:20]
07. 1963 - He'll Have To Go [02:26]
08. 1963 - Ramblin' Rose [02:56]
09. 1963 - All I Have To Do Is Dream [02:08]
10. 1963 - Memories Are Made Of This [02:15]
11. 1963 - Who's Sorry Now . [03:32]
12. 1963 - You Always Hurt The One You Love [03:51]
13. 1963 - I Can't Stop Loving You [02:47]
14. 1963 - Save The Last Dance For Me [03:29]
15. 1963 - Oh Lonesome Me [02:15]
16. 1963 - Crazy Love [02:28]
17. 1963 - The End Of The World [02:57]
18. 1963 - A Steel Guitar And A Glass Of Wine [02:15]
19. 1963 - Goodnight My Love, Pleasant Dreams [03:16]
20. 1959 - Put Your Head On My Shoulder [02:34]

Exact Audio Copy V1.0 beta 4 from 7. December 2014

Отчёт EAC об извлечении, выполненном 8. января 2016, 13:47

Paul Anka / My Way

Дисковод: ASUS DRW-24F1ST a Adapter: 1 ID: 0

Режим чтения : Достоверность
Использование точного потока : Да
Отключение кэша аудио : Да
Использование указателей C2 : Нет

Коррекция смещения при чтении : 6
Способность читать области Lead-in и Lead-out : Нет
Заполнение пропущенных сэмплов тишиной : Да
Удаление блоков с тишиной в начале и конце : Нет
При вычислениях CRC использовались нулевые сэмплы : Да
Интерфейс : Встроенный Win32-интерфейс для Win NT/2000

Выходной формат : Пользовательский кодировщик
Выбранный битрейт : 128 kBit/s
Качество : Высокий
Добавление ID3-тега : Нет
Утилита сжатия : C:\Program Files\Exact Audio Copy\Flac\flac.exe
Дополнительные параметры : -V -8 -T "Date=%year%" -T "Genre=%genre%" %source%


TOC извлечённого CD

Трек | Старт | Длительность | Начальный сектор | Конечный сектор
––––––––––––––––––––––––––––––––––-
1 | 0:00.00 | 2:22.40 | 0 | 10689
2 | 2:22.40 | 2:19.30 | 10690 | 21144
3 | 4:41.70 | 2:24.50 | 21145 | 31994
4 | 7:06.45 | 2:15.47 | 31995 | 42166
5 | 9:22.17 | 2:45.43 | 42167 | 54584
6 | 12:07.60 | 4:19.15 | 54585 | 74024
7 | 16:27.00 | 2:25.30 | 74025 | 84929
8 | 18:52.30 | 2:55.60 | 84930 | 98114
9 | 21:48.15 | 2:07.52 | 98115 | 107691
10 | 23:55.67 | 2:14.18 | 107692 | 117759
11 | 26:10.10 | 3:31.07 | 117760 | 133591
12 | 29:41.17 | 3:50.30 | 133592 | 150871
13 | 33:31.47 | 2:46.38 | 150872 | 163359
14 | 36:18.10 | 3:28.35 | 163360 | 178994
15 | 39:46.45 | 2:14.47 | 178995 | 189091
16 | 42:01.17 | 2:27.30 | 189092 | 200146
17 | 44:28.47 | 2:56.73 | 200147 | 213419
18 | 47:25.45 | 2:14.55 | 213420 | 223524
19 | 49:40.25 | 3:15.65 | 223525 | 238214
20 | 52:56.15 | 2:33.42 | 238215 | 249731


Характеристики диапазона извлечения и сообщения об ошибках

Выбранный диапазон

Имя файла C:\Users\Erik\Desktop\Новая папка\ankaway\Paul Anka - My Way.wav

Пиковый уровень 97.7 %
Скорость извлечения 2.9 X
Качество диапазона 100.0 %
CRC теста D1B5E99A
CRC копии D1B5E99A
Копирование… OK

Ошибок не произошло


AccurateRip: сводка

Трек 1 : извлечено точно (доверие 3) [ADF3702A] (AR v2)
Трек 2 : извлечено точно (доверие 3) [5EF1E284] (AR v2)
Трек 3 : извлечено точно (доверие 3) [10929DCB] (AR v2)
Трек 4 : извлечено точно (доверие 3) [CE729CEC] (AR v2)
Трек 5 : извлечено точно (доверие 3) [D499DCD3] (AR v2)
Трек 6 : извлечено точно (доверие 3) [12A0E95A] (AR v2)
Трек 7 : извлечено точно (доверие 3) [B6E04769] (AR v2)
Трек 8 : извлечено точно (доверие 3) [0E39778D] (AR v2)
Трек 9 : извлечено точно (доверие 3) [6DB39172] (AR v2)
Трек 10 : извлечено точно (доверие 3) [9EB1D1BB] (AR v2)
Трек 11 : извлечено точно (доверие 3) [12125639] (AR v2)
Трек 12 : извлечено точно (доверие 3) [DCEC442A] (AR v2)
Трек 13 : извлечено точно (доверие 3) [B650DF4C] (AR v2)
Трек 14 : извлечено точно (доверие 3) [F5A9B4CC] (AR v2)
Трек 15 : извлечено точно (доверие 3) [D6CECED7] (AR v2)
Трек 16 : извлечено точно (доверие 3) [7E39B864] (AR v2)
Трек 17 : извлечено точно (доверие 3) [EA2661D6] (AR v2)
Трек 18 : извлечено точно (доверие 3) [4D9FD7DD] (AR v2)
Трек 19 : извлечено точно (доверие 3) [8789E8CA] (AR v2)
Трек 20 : извлечено точно (доверие 3) [D808F714] (AR v2)

Все треки извлечены точно

Конец отчёта

–– CUETools DB Plugin V2.1.4

[CTDB TOCID: .p5IckEAUZywW9UzlVaFghUmmzY-] found
Submit result: .p5IckEAUZywW9UzlVaFghUmmzY- has been confirmed
Track | CTDB Status
1 | (17/18) Accurately ripped
2 | (17/18) Accurately ripped
3 | (17/18) Accurately ripped
4 | (17/18) Accurately ripped
5 | (17/18) Accurately ripped
6 | (17/18) Accurately ripped
7 | (17/18) Accurately ripped
8 | (17/18) Accurately ripped
9 | (17/18) Accurately ripped
10 | (17/18) Accurately ripped
11 | (17/18) Accurately ripped
12 | (17/18) Accurately ripped
13 | (17/18) Accurately ripped
14 | (17/18) Accurately ripped
15 | (17/18) Accurately ripped
16 | (17/18) Accurately ripped
17 | (16/18) Accurately ripped, or (1/18) differs in 17 samples @02:40:70,02:41:31-02:41:32
18 | (17/18) Accurately ripped
19 | (17/18) Accurately ripped
20 | (17/18) Accurately ripped


==== Контрольная сумма отчёта 9606E6BB9A948DAF83C6140CCC8EC07850EDC7D339CC54927D8BE98033E8CD11 ====

[CUETools log; Date: 11.10.2019 18:51:41; Version: 2.1.6]
[CTDB TOCID: .p5IckEAUZywW9UzlVaFghUmmzY-] found.
Track | CTDB Status
1 | (39/40) Accurately ripped
2 | (39/40) Accurately ripped
3 | (39/40) Accurately ripped
4 | (39/40) Accurately ripped
5 | (39/40) Accurately ripped
6 | (39/40) Accurately ripped
7 | (39/40) Accurately ripped
8 | (39/40) Accurately ripped
9 | (39/40) Accurately ripped
10 | (39/40) Accurately ripped
11 | (38/40) Accurately ripped
12 | (39/40) Accurately ripped
13 | (39/40) Accurately ripped
14 | (39/40) Accurately ripped
15 | (39/40) Accurately ripped
16 | (39/40) Accurately ripped
17 | (38/40) Accurately ripped
18 | (39/40) Accurately ripped
19 | (39/40) Accurately ripped
20 | (39/40) Accurately ripped
[AccurateRip ID: 00276df6-0247e336-1f0d0114] found.
Track [ CRC | V2 ] Status
01 [166eed2c|adf3702a] (06+05/30) Accurately ripped
02 [c883d86c|5ef1e284] (05+05/27) Accurately ripped
03 [7c467b8d|10929dcb] (05+05/29) Accurately ripped
04 [36bb454b|ce729cec] (04+05/26) Accurately ripped
05 [2146be92|d499dcd3] (05+05/29) Accurately ripped
06 [0c501755|12a0e95a] (05+05/28) Accurately ripped
07 [97f1b45d|b6e04769] (05+05/28) Accurately ripped
08 [8afab55f|0e39778d] (05+05/29) Accurately ripped
09 [82a25cfc|6db39172] (05+05/29) Accurately ripped
10 [5be4dda2|9eb1d1bb] (05+05/29) Accurately ripped
11 [9c84f280|12125639] (05+05/28) Accurately ripped
12 [a84a3476|dcec442a] (05+05/28) Accurately ripped
13 [fba7b75d|b650df4c] (05+05/29) Accurately ripped
14 [87817018|f5a9b4cc] (05+05/29) Accurately ripped
15 [e85d20f0|d6ceced7] (05+05/28) Accurately ripped
16 [a20af80e|7e39b864] (05+05/29) Accurately ripped
17 [987ad708|ea2661d6] (05+05/28) Accurately ripped
18 [7749c961|4d9fd7dd] (05+05/29) Accurately ripped
19 [b6fd9505|8789e8ca] (05+05/28) Accurately ripped
20 [8cbd8543|d808f714] (06+05/29) Accurately ripped
Offsetted by -673:
01 [3e915f65] (02/30) Accurately ripped
02 [df8da8b6] (02/27) Accurately ripped
03 [c94880d2] (02/29) Accurately ripped
04 [231a93b0] (03/26) Accurately ripped
05 [65bf29a7] (03/29) Accurately ripped
06 [f91d2310] (03/28) Accurately ripped
07 [9904b49d] (03/28) Accurately ripped
08 [48cbe14b] (03/29) Accurately ripped
09 [4b5abcf6] (03/29) Accurately ripped
10 [aa790c0c] (03/29) Accurately ripped
11 [7458b42d] (03/28) Accurately ripped
12 [616f279c] (03/28) Accurately ripped
13 [b477c2b0] (03/29) Accurately ripped
14 [1fe5c80f] (03/29) Accurately ripped
15 [de7362c2] (03/28) Accurately ripped
16 [4bba6206] (03/29) Accurately ripped
17 [f11f405f] (03/28) Accurately ripped
18 [cef8496a] (03/29) Accurately ripped
19 [a0ca3080] (03/28) Accurately ripped
20 [08a82d59] (03/29) Accurately ripped
Offsetted by 59:
01 [0fdf29e9] (02/30) Accurately ripped
02 [aaba241e] (02/27) Accurately ripped
03 [4b4d2706] (02/29) Accurately ripped
04 [4991d264] (02/26) Accurately ripped
05 [e666691b] (02/29) Accurately ripped
06 [d42d60dc] (02/28) Accurately ripped
07 [8d945d9d] (02/28) Accurately ripped
08 [daf4ec7b] (02/29) Accurately ripped
09 [653ee51e] (02/29) Accurately ripped
10 [b59f93f4] (02/29) Accurately ripped
11 [45e3bd01] (02/28) Accurately ripped
12 [258ffff4] (02/28) Accurately ripped
13 [fc920ddc] (02/29) Accurately ripped
14 [4ec8244b] (02/29) Accurately ripped
15 [995a094a] (02/28) Accurately ripped
16 [ef99d4e6] (02/29) Accurately ripped
17 [630ffe1b] (02/28) Accurately ripped
18 [77f84d2e] (02/29) Accurately ripped
19 [a70f054c] (02/28) Accurately ripped
20 [4c3e0f71] (02/29) Accurately ripped
Offsetted by -681:
01 [8938642d] (00/30) No match (V2 was not tested)
02 [24ad5906] (00/27) No match (V2 was not tested)
03 [2f61a1fa] (00/29) No match (V2 was not tested)
04 [61a25dd8] (00/26) No match (V2 was not tested)
05 [4f5b694f] (00/29) No match (V2 was not tested)
06 [7a3789e8] (00/28) No match (V2 was not tested)
07 [735f769d] (00/28) No match (V2 was not tested)
08 [57fc64ab] (00/29) No match (V2 was not tested)
09 [cd2b7ac6] (00/29) No match (V2 was not tested)
10 [b8570d5c] (00/29) No match (V2 was not tested)
11 [29503095] (00/28) No match (V2 was not tested)
12 [6a7b62cc] (00/28) No match (V2 was not tested)
13 [f56dae48] (00/29) No match (V2 was not tested)
14 [82b524c7] (00/29) No match (V2 was not tested)
15 [b96f7752] (00/28) No match (V2 was not tested)
16 [a0ab59c6] (00/29) No match (V2 was not tested)
17 [4ace4817] (00/28) No match (V2 was not tested)
18 [4407acb2] (00/29) No match (V2 was not tested)
19 [b44e5558] (00/28) No match (V2 was not tested)
20 [45786009] (00/29) No match (V2 was not tested)
Offsetted by -39:
01 [e25d247b] (00/30) No match (V2 was not tested)
02 [b97e53f2] (00/27) No match (V2 was not tested)
03 [ae00fd30] (00/29) No match (V2 was not tested)
04 [07913ece] (00/26) No match (V2 was not tested)
05 [142074e5] (00/29) No match (V2 was not tested)
06 [01b0ccb2] (00/28) No match (V2 was not tested)
07 [806c261d] (00/28) No match (V2 was not tested)
08 [150735d3] (00/29) No match (V2 was not tested)
09 [db7bfa52] (00/29) No match (V2 was not tested)
10 [df7f2408] (00/29) No match (V2 was not tested)
11 [aebb70fb] (00/28) No match (V2 was not tested)
12 [1465d500] (00/28) No match (V2 was not tested)
13 [d85693e2] (00/29) No match (V2 was not tested)
14 [49345419] (00/29) No match (V2 was not tested)
15 [13ea052e] (00/28) No match (V2 was not tested)
16 [8021afd6] (00/29) No match (V2 was not tested)
17 [6db01ca9] (00/28) No match (V2 was not tested)
18 [d1f4cd60] (00/29) No match (V2 was not tested)
19 [9621c8a2] (00/28) No match (V2 was not tested)
20 [35347c5d] (00/29) No match (V2 was not tested)

Track Peak [ CRC32 ] [W/O NULL] [ LOG ]
– 97,7 [D1B5E99A] [946B55F9] CRC32
01 97,7 [012E09ED] [32CEA384]
02 97,7 [9EC8C414] [97C85B1A]
03 97,7 [164169C5] [FEFB1EBC]
04 97,7 [7320EDC1] [0E96E5CF]
05 97,7 [90BCFFE7] [B2127204]
06 97,7 [C2375904] [7075C4C4]
07 97,7 [EAA16747] [294EF7E1]
08 97,7 [30D30522] [44ED6294]
09 97,7 [2656A11A] [A1E69C53]
10 97,7 [615A1D11] [433FE7A5]
11 97,7 [948ADDE0] [29F043C1]
12 97,7 [220DF791] [04CE9121]
13 97,7 [A6D90BF2] [95CAB235]
14 97,7 [BEB3AAF3] [F3C4F483]
15 97,7 [938C7AED] [B91C2BC8]
16 97,7 [030B943B] [D4C6CACC]
17 97,7 [8BA571DB] [C3342FF6]
18 97,7 [137A70B0] [C72A9542]
19 97,7 [647AF99A] [668C3647]
20 97,7 [3E088B3E] [D251CE9A]

Paul Anka - My Way (1997)


All thanks go to Erik

>>> My Blog <<<

DOWNLOAD: