Subcategories

Paul McCartney - Carpool Karaoke (2018) [HDTV, 1080i]

Posted By: v3122
Paul McCartney - Carpool Karaoke (2018) [HDTV, 1080i]

Paul McCartney - Carpool Karaoke (2018)
TS: MPEG2 Video 1920x1080, 29.97fps | AC3 6ch, 384kbps
Documentary, Rock | 00:43:33 | ~ 5.37 Gb

~ June 2018 in Liverpool, England ~

Paul McCartney - Carpool Karaoke (2018):

Tracklist:

intro - James Corden
pub scene - James Corden
pub scene - A Hard Day's Night - Paul McCartney
opening credits
carpool interview, Penny Lane karaoke
pub scene - Ob-La-Di, Ob-La-Da - Paul McCartney
pub scene - Drive My Car - Paul McCartney
carpool interview
Paul and James walk the streets of Liverpool
carpool interview, Hey Jude karaoke
Paul and James visit Paul's childhood home, plays When I'm Sixty Four on piano in the den
Paul and James walk back to the car, meet more fans
Blackbird karaoke
pub scene - Love Me Do - Paul McCartney
pub scene - Come On To Me - Paul McCartney
carpool interview
pub scene - I Wanna Be Your Man - Paul McCartney
pub scene - Back in the U.S.S.R. (with spoken intro) - Paul McCartney
car pool interview
pub scene - Birthday - Paul McCartney
car pool interview
pub scene - Lady Madonna - Paul McCartney
pub scene - Hey Jude - Paul McCartney (with James Corden)
closing credits

General
ID : 1 (0x1)
Complete name : E:\Mix\Paul McCartney Carpool Karaoke\Paul McCartney Carpool Karaoke (The Late Late Show with James Corden) 2018.ts
Format : MPEG-TS
File size : 5.07 GiB
Duration : 43mn 32s
Overall bit rate mode : Variable
Overall bit rate : 16.7 Mbps

Video
ID : 224 (0xE0)
Menu ID : 1 (0x1)
Format : MPEG Video
Format version : Version 2
Format profile : Main@High
Format settings, BVOP : Yes
Format settings, Matrix : Custom
Format settings, GOP : Variable
Codec ID : 2
Duration : 43mn 32s
Bit rate mode : Variable
Bit rate : 15.5 Mbps
Maximum bit rate : 80.0 Mbps
Width : 1 920 pixels
Height : 1 080 pixels
Display aspect ratio : 16:9
Frame rate : 29.970 fps
Color space : YUV
Chroma subsampling : 4:2:0
Bit depth : 8 bits
Scan type : Interlaced
Scan order : Top Field First
Compression mode : Lossy
Bits/(Pixel*Frame) : 0.249
Time code of first frame : 00:00:00;00
Time code source : Group of pictures header
Stream size : 4.71 GiB (93%)
Color primaries : BT.709
Transfer characteristics : BT.709
Matrix coefficients : BT.709

Audio
ID : 128 (0x80)
Menu ID : 1 (0x1)
Format : AC-3
Format/Info : Audio Coding 3
Mode extension : CM (complete main)
Format settings, Endianness : Big
Codec ID : 129
Duration : 43mn 32s
Bit rate mode : Constant
Bit rate : 384 Kbps
Channel(s) : 6 channels
Channel positions : Front: L C R, Side: L R, LFE
Sampling rate : 48.0 KHz
Bit depth : 16 bits
Compression mode : Lossy
Delay relative to video : 6ms
Stream size : 120 MiB (2%)
Language : English

Text
ID : 224 (0xE0)-CC1
Menu ID : 1 (0x1)
Format : EIA-608
Muxing mode : A/53 / DTVCC Transport
Muxing mode, more info : Muxed in Video #1
Duration : 43mn 32s
Bit rate mode : Constant
Stream size : 0.00 Byte (0%)



Paul McCartney - Carpool Karaoke (2018) [HDTV, 1080i]

Paul McCartney - Carpool Karaoke (2018) [HDTV, 1080i]

Paul McCartney - Carpool Karaoke (2018) [HDTV, 1080i]

Paul McCartney - Carpool Karaoke (2018) [HDTV, 1080i]

Paul McCartney - Carpool Karaoke (2018) [HDTV, 1080i]

Paul McCartney - Carpool Karaoke (2018) [HDTV, 1080i]

All thanks go to the original releaser

Paul McCartney or Paul McCartney in my Blog

Download Paul McCartney - Carpool Karaoke (2018):