Subcategories

Paul McCartney & Wings - Band On The Run (1973) {1993 Reissue, Remastered}

Posted By: popsakov
Paul McCartney & Wings - Band On The Run (1973) {1993 Reissue, Remastered}

Paul McCartney & Wings - Band On The Run (1973) {1993 Reissue, Remastered}
EAC Rip | FLAC (Img) + Cue + Log ~ 300 Mb | MP3 CBR320 ~ 126 Mb
Scans Included (JPG, 300 dpi) | RAR 5% Recovery
Classic Rock, Pop Rock | Parlophone / MPL #0777 7 89240 2 9 / CDPMCOL 5

Band on the Run is the third studio album by Paul McCartney and Wings, released in December 1973. It marked the fifth album by Paul McCartney since his departure from the Beatles in April 1970. Although sales were modest initially, its commercial performance was aided by two hit singles - "Jet" and "Band on the Run" - such that it became the top-selling studio album of 1974 in the United Kingdom and Australia, in addition to revitalising McCartney's critical standing. It remains McCartney's most successful album and the most celebrated of his post-Beatles works. In 2000, Q magazine placed it at number 75 in its list of the "100 Greatest British Albums Ever". In 2012, Band on the Run was voted 418th on Rolling Stone's revised list of "The 500 Greatest Albums of All Time".
~ Wiki

***************

Paul McCartney & Wings - Band On The Run (1973) {1993 Reissue, Remastered}

Paul McCartney & Wings - Band On The Run (1973) {1993 Reissue, Remastered}

Track List:

01. Band on the Run [5:13]
02. Jet [4:09]
03. Bluebird [3:25]
04. Mrs. Vandebilt [4:41]
05. Let Me Roll It [4:50]
06. Mamunia [4:50]
07. No Words [2:38]
08. Picasso's Last Words (Drink to Me) [5:52]
09. Nineteen Hundred and Eighty Five [5:36]
10. Helen Wheels (Bonus Track) [3:47]
11. Country Dreamer(Bonus Track) [3:08]

Exact Audio Copy V1.0 beta 3 from 29. August 2011

EAC extraction logfile from 14. May 2017, 6:31

Paul McCartney & Wings / Band on the Run - The Paul McCartney Collection [1993 Remaster]

Used drive : TSSTcorpCDDVDW SH-216DB Adapter: 0 ID: 0

Read mode : Secure
Utilize accurate stream : Yes
Defeat audio cache : Yes
Make use of C2 pointers : No

Read offset correction : 6
Overread into Lead-In and Lead-Out : No
Fill up missing offset samples with silence : Yes
Delete leading and trailing silent blocks : No
Null samples used in CRC calculations : Yes
Used interface : Native Win32 interface for Win NT & 2000

Used output format : User Defined Encoder
Selected bitrate : 1024 kBit/s
Quality : High
Add ID3 tag : No
Command line compressor : C:\Program Files (x86)\Exact Audio Copy\Flac\flac.exe
Additional command line options : -V -8 -T "Date=%year%" -T "Genre=%genre%" %source%


TOC of the extracted CD

Track | Start | Length | Start sector | End sector
––––––––––––––––––––––––––––-
1 | 0:00.33 | 5:13.20 | 33 | 23527
2 | 5:13.53 | 4:08.47 | 23528 | 42174
3 | 9:22.25 | 3:24.68 | 42175 | 57542
4 | 12:47.18 | 4:41.15 | 57543 | 78632
5 | 17:28.33 | 4:49.47 | 78633 | 100354
6 | 22:18.05 | 4:50.25 | 100355 | 122129
7 | 27:08.30 | 2:38.03 | 122130 | 133982
8 | 29:46.33 | 5:52.02 | 133983 | 160384
9 | 35:38.35 | 5:36.30 | 160385 | 185614
10 | 41:14.65 | 3:47.15 | 185615 | 202654
11 | 45:02.05 | 3:08.18 | 202655 | 216772


Range status and errors

Selected range

Filename L:\Private\My Audio Ripps\ CD - RIPS\Paul McCartney & Wings - Band on the Run\Paul McCartney & Wings - Band on the Run.wav

Peak level 99.3 %
Extraction speed 2.4 X
Range quality 100.0 %
Test CRC 99FE6455
Copy CRC 99FE6455
Copy OK

No errors occurred


AccurateRip summary

Track 1 accurately ripped (confidence 86) [56D399FF] (AR v2)
Track 2 accurately ripped (confidence 84) [38899AF7] (AR v2)
Track 3 accurately ripped (confidence 84) [F9A7D63D] (AR v2)
Track 4 accurately ripped (confidence 83) [32B94FF1] (AR v2)
Track 5 accurately ripped (confidence 83) [9DEFDEAA] (AR v2)
Track 6 accurately ripped (confidence 82) [EFB21C48] (AR v2)
Track 7 accurately ripped (confidence 82) [A121F94F] (AR v2)
Track 8 accurately ripped (confidence 83) [539B5C23] (AR v2)
Track 9 accurately ripped (confidence 84) [12ADA9F5] (AR v2)
Track 10 accurately ripped (confidence 80) [A9C78BA0] (AR v2)
Track 11 accurately ripped (confidence 82) [5266EF0B] (AR v2)

All tracks accurately ripped

End of status report

==== Log checksum E7B7B852273F70F0DF0A1F677EB5BB26C99DEF7AB069572E4071A3F768F860ED ====

foobar2000 1.2.6 / Dynamic Range Meter 1.1.1
log date: 2017-05-17 20:56:05

––––––––––––––––––––––––––––––––––––––––
Analyzed: Paul McCartney & Wings / Band on the Run - The Paul McCartney Collection [1993 Remaster]
––––––––––––––––––––––––––––––––––––––––

DR Peak RMS Duration Track
––––––––––––––––––––––––––––––––––––––––
DR11 -1.14 dB -14.46 dB 5:13 01-Band on the Run
DR11 -0.73 dB -13.59 dB 4:09 02-Jet
DR13 -1.45 dB -17.04 dB 3:25 03-Bluebird
DR11 -0.06 dB -13.52 dB 4:41 04-Mrs. Vandebilt
DR11 -0.55 dB -13.25 dB 4:50 05-Let Me Roll It
DR13 -1.22 dB -16.60 dB 4:50 06-Mamunia
DR10 -1.87 dB -15.02 dB 2:38 07-No Words
DR13 -1.38 dB -16.65 dB 5:52 08-Picasso's Last Words (Drink to Me)
DR11 -0.62 dB -14.03 dB 5:36 09-Nineteen Hundred and Eighty Five
DR11 -0.20 dB -13.59 dB 3:47 10-Helen Wheels (Bonus Track)
DR11 -1.06 dB -14.89 dB 3:08 11-Country Dreamer(Bonus Track)
––––––––––––––––––––––––––––––––––––––––

Number of tracks: 11
Official DR value: DR11

Samplerate: 44100 Hz
Channels: 2
Bits per sample: 16
Bitrate: 799 kbps
Codec: FLAC
================================================================================

[CUETools log; Date: 17.05.2017 20:56:08; Version: 2.1.5]
Pregap length 00:00:33.
[CTDB TOCID: q1ApBzonRpQbhRtH8M31ypWVEBA-] found.
Track | CTDB Status
1 | (149/150) Accurately ripped
2 | (149/150) Accurately ripped
3 | (150/150) Accurately ripped
4 | (147/150) Accurately ripped
5 | (149/150) Accurately ripped
6 | (147/150) Accurately ripped
7 | (148/150) Accurately ripped
8 | (147/150) Accurately ripped
9 | (148/150) Accurately ripped
10 | (149/150) Accurately ripped
11 | (146/150) Accurately ripped
[AccurateRip ID: 00143320-00aecdcf-870b4a0b] found.
Track [ CRC | V2 ] Status
01 [3b6bb549|56d399ff] (079+086/370) Accurately ripped
02 [5cbc9b5a|38899af7] (078+084/369) Accurately ripped
03 [81d4e8bd|f9a7d63d] (077+084/368) Accurately ripped
04 [9d386f0d|32b94ff1] (077+083/367) Accurately ripped
05 [5ac221aa|9defdeaa] (077+083/368) Accurately ripped
06 [054f18eb|efb21c48] (076+082/365) Accurately ripped
07 [0e8128f2|a121f94f] (077+082/365) Accurately ripped
08 [b7d095c8|539b5c23] (075+083/363) Accurately ripped
09 [32d77e00|12ada9f5] (077+084/365) Accurately ripped
10 [9e30e2c2|a9c78ba0] (076+080/355) Accurately ripped
11 [ab7e7626|5266ef0b] (081+082/365) Accurately ripped
Offsetted by -1331:
01 [a2de4df2] (009/370) Accurately ripped
02 [85d8d296] (009/369) Accurately ripped
03 [b1e90ab2] (009/368) Accurately ripped
04 [2746c50f] (009/367) Accurately ripped
05 [fa1ab09e] (009/368) Accurately ripped
06 [018f55f8] (009/365) Accurately ripped
07 [d604e1b7] (009/365) Accurately ripped
08 [ebf8ddc9] (009/363) Accurately ripped
09 [49219d88] (009/365) Accurately ripped
10 [473719ff] (009/355) Accurately ripped
11 [f4e3430a] (009/365) Accurately ripped
Offsetted by -703:
01 [d2cdeed6] (002/370) Accurately ripped
02 [b844ae86] (002/369) Accurately ripped
03 [cec593c6] (002/368) Accurately ripped
04 [baab8597] (002/367) Accurately ripped
05 [8e39396e] (002/368) Accurately ripped
06 [333348f9] (002/365) Accurately ripped
07 [57cf3a8e] (002/365) Accurately ripped
08 [201af20d] (002/363) Accurately ripped
09 [5a4f9da8] (002/365) Accurately ripped
10 [8099ea33] (002/355) Accurately ripped
11 [f66aff9a] (002/365) Accurately ripped
Offsetted by -676:
01 [e73595f5] (002/370) Accurately ripped
02 [1486772a] (002/369) Accurately ripped
03 [d1a4a9f9] (002/368) Accurately ripped
04 [b8724ca5] (002/367) Accurately ripped
05 [3c22141a] (002/368) Accurately ripped
06 [56fcb9dd] (002/365) Accurately ripped
07 [657f5ba0] (002/365) Accurately ripped
08 [c912a094] (002/363) Accurately ripped
09 [8d98ee60] (002/365) Accurately ripped
10 [a9cb695e] (002/355) Accurately ripped
11 [6a4123d6] (002/365) Accurately ripped
Offsetted by -667:
01 [ee02cdaa] (062/370) Accurately ripped
02 [889c64b6] (063/369) Accurately ripped
03 [7d445c0a] (063/368) Accurately ripped
04 [b7b48eff] (062/367) Accurately ripped
05 [761a5cfe] (063/368) Accurately ripped
06 [e3e8241d] (063/365) Accurately ripped
07 [198db40e] (062/365) Accurately ripped
08 [ac0fdac1] (062/363) Accurately ripped
09 [495c0948] (060/365) Accurately ripped
10 [0cdbe917] (061/355) Accurately ripped
11 [e6332fea] (062/365) Accurately ripped
Offsetted by 41:
01 [0512969e] (021/370) Accurately ripped
02 [8a040e66] (021/369) Accurately ripped
03 [3a5713ee] (021/368) Accurately ripped
04 [2810f2a7] (022/367) Accurately ripped
05 [f110c30e] (022/368) Accurately ripped
06 [12dafc7c] (021/365) Accurately ripped
07 [17065d87] (021/365) Accurately ripped
08 [6c8b1095] (021/363) Accurately ripped
09 [51504de8] (021/365) Accurately ripped
10 [d343289b] (021/355) Accurately ripped
11 [51e990ba] (021/365) Accurately ripped
Offsetted by 226:
01 [3b8cf343] (015/370) Accurately ripped
02 [f8aa5a32] (016/369) Accurately ripped
03 [acd4602f] (016/368) Accurately ripped
04 [a70d9be1] (016/367) Accurately ripped
05 [26e3f2b2] (016/368) Accurately ripped
06 [6347511a] (016/365) Accurately ripped
07 [bbe4570b] (016/365) Accurately ripped
08 [51192e32] (016/363) Accurately ripped
09 [2bfacc50] (016/365) Accurately ripped
10 [395d6a04] (016/355) Accurately ripped
11 [b7756c8e] (016/365) Accurately ripped

Track Peak [ CRC32 ] [W/O NULL] [ LOG ]
– 99,3 [99FE6455] [0080D744] CRC32
01 87,7 [7CB74177] [A6EC3753]
02 91,9 [41D36511] [527FD103]
03 84,6 [63C0C483] [1D3A34C4]
04 99,3 [86539785] [D3D7CCB5]
05 93,8 [0303A766] [E1F7727E]
06 86,8 [58826EE1] [C621B0E5]
07 80,6 [0F4648B7] [B674BF23]
08 85,2 [54CFA400] [70935B68]
09 93,0 [22CD65C9] [48BBD2B5]
10 97,7 [FEEFFBFE] [1D2C84E1]
11 88,5 [49FFF12C] [93D87EF6]

Paul McCartney & Wings - Band On The Run (1973) {1993 Reissue, Remastered}

All thanks go to alexpika

>>> Paul McCartney in my Blog <<<

Download from icerbox.com: