Subcategories
Tags
Language
Tags

Paul Weller - Other Aspects: Live At The Royal Festival Hall (2019)

Posted By: popsakov
Paul Weller - Other Aspects: Live At The Royal Festival Hall (2019)

Paul Weller - Other Aspects: Live At The Royal Festival Hall (2019)
2CD | EAC Rip | FLAC (Tracks) + Cue + m3u8 + Log ~ 608 Mb | MP3 CBR320 ~ 231 Mb
Full Scans ~ 146 Mb | 00:51:32 + 00:44:29 | RAR 5% Recovery
Pop Rock, Art Pop | Parlophone #0190295493981

Paul Weller didn't play many dates in support of his 2018 album True Meanings. Not counting his summer festival appearances, which were all delivered prior to the album's September release, he gave just five concerts: two in the Netherlands, one in Belgium, and a two-night stand at London's Royal Festival Hall in October, where he played with the support of a full orchestra. Those two dates are the basis of Other Aspects: Live at the Royal Albert Hall, a double-CD accompanied by a DVD. Weller deliberately avoided familiar material for these concerts. All of True Meanings save three songs is performed (the mid-album sequence of "Bowie," "Wishing Well," and "Come Along" is absent) and he eschews crowd-pleasers from both his solo career and the Jam in favor of moody, lush reworkings of "Tales from the Riverbank" and "Private Hell." These renditions glide into place alongside all the other orchestrations, which seem suspended at twilight; they're never opulent or ornate, but rather warmly enveloping. Such cozy, reflective environs separate Other Aspects from the numerous other live Weller sets. Against all odds, Weller has delivered a live album as quietly adventurous and resonant as the studio album it supports.

~ Stephen Thomas Erlewine, All Music

***************

Track List CD1:

01. One Bright Star [4:15]
02. Glide [2:27]
03. The Soul Searchers [4:55]
04. Boy About Town [2:56]
05. Have You Ever Had It Blue [3:59]
06. What Would He Say? [3:55]
07. Wild Wood [4:07]
08. Country [3:51]
09. Aspects [5:07]
10. Strange Museum [4:01]
11. Amongst Butterflies [2:58]
12. Old Castles [3:14]
13. Gravity [2:56]
14. Where'er Ye Go [2:51]

Exact Audio Copy V1.3 from 2. September 2016

EAC extraction logfile from 22. March 2019, 18:42

Paul Weller / Other Aspects: Live at the Royal Festival Hall

Used drive : ASUS BW-12D1S-U Adapter: 1 ID: 1

Read mode : Secure
Utilize accurate stream : Yes
Defeat audio cache : Yes
Make use of C2 pointers : No

Read offset correction : 667
Overread into Lead-In and Lead-Out : No
Fill up missing offset samples with silence : Yes
Delete leading and trailing silent blocks : No
Null samples used in CRC calculations : Yes
Used interface : Native Win32 interface for Win NT & 2000
Gap handling : Appended to previous track

Used output format : User Defined Encoder
Selected bitrate : 1024 kBit/s
Quality : High
Add ID3 tag : No
Command line compressor : C:\Program Files (x86)\Exact Audio Copy\FLAC\FLAC.EXE
Additional command line options : -V -8 -T "Genre=%genre%" -T "Artist=%artist%" -T "Title=%title%" -T "Album=%albumtitle%" -T "Date=%year%" -T "Tracknumber=%tracknr%" -T "Comment=%comment%" %source%


TOC of the extracted CD

Track | Start | Length | Start sector | End sector
––––––––––––––––––––––––––––-
1 | 0:00.00 | 4:15.20 | 0 | 19144
2 | 4:15.20 | 2:27.16 | 19145 | 30185
3 | 6:42.36 | 4:55.36 | 30186 | 52346
4 | 11:37.72 | 2:55.73 | 52347 | 65544
5 | 14:33.70 | 3:58.65 | 65545 | 83459
6 | 18:32.60 | 3:55.12 | 83460 | 101096
7 | 22:27.72 | 4:07.13 | 101097 | 119634
8 | 26:35.10 | 3:50.64 | 119635 | 136948
9 | 30:25.74 | 5:07.02 | 136949 | 159975
10 | 35:33.01 | 4:01.22 | 159976 | 178072
11 | 39:34.23 | 2:57.41 | 178073 | 191388
12 | 42:31.64 | 3:14.11 | 191389 | 205949
13 | 45:46.00 | 2:55.40 | 205950 | 219114
14 | 48:41.40 | 2:50.42 | 219115 | 231906


Track 1

Filename E:\Torrents of Autumn\Weller, Paul [2019] Other Aspects~ Live at the Royal Festival Hall (2-CD + DVD set)\CD One\01. One Bright Star (Live at the Royal Festival Hall).wav

Pre-gap length 0:00:02.00

Peak level 97.7 %
Extraction speed 4.0 X
Track quality 99.9 %
Test CRC 185A33D5
Copy CRC 185A33D5
Track not present in AccurateRip database
Copy OK

Track 2

Filename E:\Torrents of Autumn\Weller, Paul [2019] Other Aspects~ Live at the Royal Festival Hall (2-CD + DVD set)\CD One\02. Glide (Live at the Royal Festival Hall).wav

Peak level 97.7 %
Extraction speed 4.4 X
Track quality 100.0 %
Test CRC BD83EBAB
Copy CRC BD83EBAB
Track not present in AccurateRip database
Copy OK

Track 3

Filename E:\Torrents of Autumn\Weller, Paul [2019] Other Aspects~ Live at the Royal Festival Hall (2-CD + DVD set)\CD One\03. The Soul Searchers (Live at the Royal Festival Hall).wav

Peak level 97.7 %
Extraction speed 4.7 X
Track quality 99.9 %
Test CRC 2BD317EF
Copy CRC 2BD317EF
Track not present in AccurateRip database
Copy OK

Track 4

Filename E:\Torrents of Autumn\Weller, Paul [2019] Other Aspects~ Live at the Royal Festival Hall (2-CD + DVD set)\CD One\04. Boy About Town (Live at the Royal Festival Hall).wav

Peak level 97.7 %
Extraction speed 4.4 X
Track quality 99.9 %
Test CRC 323D8B97
Copy CRC 323D8B97
Track not present in AccurateRip database
Copy OK

Track 5

Filename E:\Torrents of Autumn\Weller, Paul [2019] Other Aspects~ Live at the Royal Festival Hall (2-CD + DVD set)\CD One\05. Have You Ever Had It Blue (Live at the Royal Festival Hall).wav

Peak level 97.7 %
Extraction speed 5.7 X
Track quality 100.0 %
Test CRC DEC8654D
Copy CRC DEC8654D
Track not present in AccurateRip database
Copy OK

Track 6

Filename E:\Torrents of Autumn\Weller, Paul [2019] Other Aspects~ Live at the Royal Festival Hall (2-CD + DVD set)\CD One\06. What Would He Say (Live at the Royal Festival Hall).wav

Peak level 97.7 %
Extraction speed 6.0 X
Track quality 100.0 %
Test CRC 1051C5A2
Copy CRC 1051C5A2
Track not present in AccurateRip database
Copy OK

Track 7

Filename E:\Torrents of Autumn\Weller, Paul [2019] Other Aspects~ Live at the Royal Festival Hall (2-CD + DVD set)\CD One\07. Wild Wood (Live at the Royal Festival Hall).wav

Peak level 97.7 %
Extraction speed 6.3 X
Track quality 100.0 %
Test CRC 73D12321
Copy CRC 73D12321
Track not present in AccurateRip database
Copy OK

Track 8

Filename E:\Torrents of Autumn\Weller, Paul [2019] Other Aspects~ Live at the Royal Festival Hall (2-CD + DVD set)\CD One\08. Country (Live at the Royal Festival Hall).wav

Peak level 97.7 %
Extraction speed 6.5 X
Track quality 100.0 %
Test CRC B7F86AE0
Copy CRC B7F86AE0
Track not present in AccurateRip database
Copy OK

Track 9

Filename E:\Torrents of Autumn\Weller, Paul [2019] Other Aspects~ Live at the Royal Festival Hall (2-CD + DVD set)\CD One\09. Aspects (Live at the Royal Festival Hall).wav

Peak level 97.7 %
Extraction speed 7.0 X
Track quality 100.0 %
Test CRC B710724F
Copy CRC B710724F
Track not present in AccurateRip database
Copy OK

Track 10

Filename E:\Torrents of Autumn\Weller, Paul [2019] Other Aspects~ Live at the Royal Festival Hall (2-CD + DVD set)\CD One\10. Strange Museum (Live at the Royal Festival Hall).wav

Peak level 97.7 %
Extraction speed 7.0 X
Track quality 100.0 %
Test CRC C65AB014
Copy CRC C65AB014
Track not present in AccurateRip database
Copy OK

Track 11

Filename E:\Torrents of Autumn\Weller, Paul [2019] Other Aspects~ Live at the Royal Festival Hall (2-CD + DVD set)\CD One\11. Amongst Butterflies (Live at the Royal Festival Hall).wav

Peak level 97.7 %
Extraction speed 6.9 X
Track quality 100.0 %
Test CRC 2EEBD0B6
Copy CRC 2EEBD0B6
Track not present in AccurateRip database
Copy OK

Track 12

Filename E:\Torrents of Autumn\Weller, Paul [2019] Other Aspects~ Live at the Royal Festival Hall (2-CD + DVD set)\CD One\12. Old Castles (Live at the Royal Festival Hall).wav

Peak level 97.7 %
Extraction speed 7.1 X
Track quality 100.0 %
Test CRC 9371606C
Copy CRC 9371606C
Track not present in AccurateRip database
Copy OK

Track 13

Filename E:\Torrents of Autumn\Weller, Paul [2019] Other Aspects~ Live at the Royal Festival Hall (2-CD + DVD set)\CD One\13. Gravity (Live at the Royal Festival Hall).wav

Peak level 97.7 %
Extraction speed 7.1 X
Track quality 100.0 %
Test CRC A837FB1D
Copy CRC A837FB1D
Track not present in AccurateRip database
Copy OK

Track 14

Filename E:\Torrents of Autumn\Weller, Paul [2019] Other Aspects~ Live at the Royal Festival Hall (2-CD + DVD set)\CD One\14. Where'er Ye Go (Live at the Royal Festival Hall).wav

Peak level 97.2 %
Extraction speed 7.2 X
Track quality 100.0 %
Test CRC A1EC4447
Copy CRC A1EC4447
Track not present in AccurateRip database
Copy OK


None of the tracks are present in the AccurateRip database

No errors occurred

End of status report

–– CUETools DB Plugin V2.1.6

[CTDB TOCID: 0t9kujhAej.bcW8U03xnWsuxtco-] found
Submit result: 0t9kujhAej.bcW8U03xnWsuxtco- has been confirmed
Track | CTDB Status
1 | (11/11) Accurately ripped
2 | (11/11) Accurately ripped
3 | (11/11) Accurately ripped
4 | (11/11) Accurately ripped
5 | (11/11) Accurately ripped
6 | (11/11) Accurately ripped
7 | (11/11) Accurately ripped
8 | (11/11) Accurately ripped
9 | (11/11) Accurately ripped
10 | (11/11) Accurately ripped
11 | (11/11) Accurately ripped
12 | (11/11) Accurately ripped
13 | (11/11) Accurately ripped
14 | (11/11) Accurately ripped


==== Log checksum 6D0BFEB3983FAB7C10840B0164605556BB1BEF0129FD349B1BC253E61344C9D1 ====

Track List CD2:

01. A Man of Great Promise [2:55]
02. Mayfly [3:49]
03. Private Hell [5:19]
04. Tales from the Riverbank [3:31]
05. Movin On [4:40]
06. Long Long Road [3:45]
07. Hopper [3:02]
08. White Horses [5:48]
09. Books [4:16]
10. You Do Something to Me [4:02]
11. May Love Travel with You [3:21]

Exact Audio Copy V1.3 from 2. September 2016

EAC extraction logfile from 22. March 2019, 19:21

Paul Weller / Other Aspects: Live At The Royal Festival Hall

Used drive : ASUS BW-12D1S-U Adapter: 1 ID: 1

Read mode : Secure
Utilize accurate stream : Yes
Defeat audio cache : Yes
Make use of C2 pointers : No

Read offset correction : 667
Overread into Lead-In and Lead-Out : No
Fill up missing offset samples with silence : Yes
Delete leading and trailing silent blocks : No
Null samples used in CRC calculations : Yes
Used interface : Native Win32 interface for Win NT & 2000
Gap handling : Appended to previous track

Used output format : User Defined Encoder
Selected bitrate : 1024 kBit/s
Quality : High
Add ID3 tag : No
Command line compressor : C:\Program Files (x86)\Exact Audio Copy\FLAC\FLAC.EXE
Additional command line options : -V -8 -T "Genre=%genre%" -T "Artist=%artist%" -T "Title=%title%" -T "Album=%albumtitle%" -T "Date=%year%" -T "Tracknumber=%tracknr%" -T "Comment=%comment%" %source%


TOC of the extracted CD

Track | Start | Length | Start sector | End sector
––––––––––––––––––––––––––––-
1 | 0:00.00 | 2:55.17 | 0 | 13141
2 | 2:55.17 | 3:49.05 | 13142 | 30321
3 | 6:44.22 | 5:19.08 | 30322 | 54254
4 | 12:03.30 | 3:30.57 | 54255 | 70061
5 | 15:34.12 | 4:40.08 | 70062 | 91069
6 | 20:14.20 | 3:45.21 | 91070 | 107965
7 | 23:59.41 | 3:02.16 | 107966 | 121631
8 | 27:01.57 | 5:47.38 | 121632 | 147694
9 | 32:49.20 | 4:15.47 | 147695 | 166866
10 | 37:04.67 | 4:02.30 | 166867 | 185046
11 | 41:07.22 | 3:21.35 | 185047 | 200156


Track 1

Filename E:\Torrents of Autumn\Weller, Paul [2019] Other Aspects~ Live at the Royal Festival Hall (2-CD + DVD set)\CD Two\01. A Man of Great Promise (Live at the Royal Festival Hall).wav

Pre-gap length 0:00:02.00

Peak level 97.7 %
Extraction speed 4.1 X
Track quality 100.0 %
Test CRC D56CE48F
Copy CRC D56CE48F
Track not present in AccurateRip database
Copy OK

Track 2

Filename E:\Torrents of Autumn\Weller, Paul [2019] Other Aspects~ Live at the Royal Festival Hall (2-CD + DVD set)\CD Two\02. Mayfly (Live at the Royal Festival Hall).wav

Peak level 97.7 %
Extraction speed 3.8 X
Track quality 99.9 %
Test CRC 9B04EE79
Copy CRC 9B04EE79
Track not present in AccurateRip database
Copy OK

Track 3

Filename E:\Torrents of Autumn\Weller, Paul [2019] Other Aspects~ Live at the Royal Festival Hall (2-CD + DVD set)\CD Two\03. Private Hell (Live at the Royal Festival Hall).wav

Peak level 97.7 %
Extraction speed 4.3 X
Track quality 99.9 %
Test CRC 51DBA3F4
Copy CRC 51DBA3F4
Track not present in AccurateRip database
Copy OK

Track 4

Filename E:\Torrents of Autumn\Weller, Paul [2019] Other Aspects~ Live at the Royal Festival Hall (2-CD + DVD set)\CD Two\04. Tales from the Riverbank (Live at the Royal Festival Hall).wav

Peak level 97.7 %
Extraction speed 5.4 X
Track quality 100.0 %
Test CRC D9514033
Copy CRC D9514033
Track not present in AccurateRip database
Copy OK

Track 5

Filename E:\Torrents of Autumn\Weller, Paul [2019] Other Aspects~ Live at the Royal Festival Hall (2-CD + DVD set)\CD Two\05. Movin On (Live at the Royal Festival Hall).wav

Peak level 97.7 %
Extraction speed 5.9 X
Track quality 100.0 %
Test CRC 41DF2270
Copy CRC 41DF2270
Track not present in AccurateRip database
Copy OK

Track 6

Filename E:\Torrents of Autumn\Weller, Paul [2019] Other Aspects~ Live at the Royal Festival Hall (2-CD + DVD set)\CD Two\06. Long Long Road (Live at the Royal Festival Hall).wav

Peak level 97.7 %
Extraction speed 6.1 X
Track quality 100.0 %
Test CRC 5A1DB271
Copy CRC 5A1DB271
Track not present in AccurateRip database
Copy OK

Track 7

Filename E:\Torrents of Autumn\Weller, Paul [2019] Other Aspects~ Live at the Royal Festival Hall (2-CD + DVD set)\CD Two\07. Hopper (Live at the Royal Festival Hall).wav

Peak level 97.7 %
Extraction speed 6.1 X
Track quality 100.0 %
Test CRC 55E5D8AC
Copy CRC 55E5D8AC
Track not present in AccurateRip database
Copy OK

Track 8

Filename E:\Torrents of Autumn\Weller, Paul [2019] Other Aspects~ Live at the Royal Festival Hall (2-CD + DVD set)\CD Two\08. White Horses (Live at the Royal Festival Hall).wav

Peak level 97.7 %
Extraction speed 6.9 X
Track quality 100.0 %
Test CRC 666C015D
Copy CRC 666C015D
Track not present in AccurateRip database
Copy OK

Track 9

Filename E:\Torrents of Autumn\Weller, Paul [2019] Other Aspects~ Live at the Royal Festival Hall (2-CD + DVD set)\CD Two\09. Books (Live at the Royal Festival Hall).wav

Peak level 97.7 %
Extraction speed 6.2 X
Track quality 99.9 %
Test CRC EBD05D4D
Copy CRC EBD05D4D
Track not present in AccurateRip database
Copy OK

Track 10

Filename E:\Torrents of Autumn\Weller, Paul [2019] Other Aspects~ Live at the Royal Festival Hall (2-CD + DVD set)\CD Two\10. You Do Something to Me (Live at the Royal Festival Hall).wav

Peak level 97.7 %
Extraction speed 7.1 X
Track quality 100.0 %
Test CRC DCBE65C3
Copy CRC DCBE65C3
Track not present in AccurateRip database
Copy OK

Track 11

Filename E:\Torrents of Autumn\Weller, Paul [2019] Other Aspects~ Live at the Royal Festival Hall (2-CD + DVD set)\CD Two\11. May Love Travel with You (Live at the Royal Festival Hall).wav

Peak level 97.7 %
Extraction speed 7.1 X
Track quality 100.0 %
Test CRC 7639C395
Copy CRC 7639C395
Track not present in AccurateRip database
Copy OK


None of the tracks are present in the AccurateRip database

No errors occurred

End of status report

–– CUETools DB Plugin V2.1.6

[CTDB TOCID: 00TS_Dqv_jfebxK25qGv2_LiSJU-] found
Submit result: 00TS_Dqv_jfebxK25qGv2_LiSJU- has been submitted
Track | CTDB Status
1 | (13/13) Accurately ripped
2 | (13/13) Accurately ripped
3 | (13/13) Differs in 4 samples @02:58:19
4 | (13/13) Accurately ripped
5 | (13/13) Accurately ripped
6 | (13/13) Accurately ripped
7 | (13/13) Accurately ripped
8 | (13/13) Accurately ripped
9 | (13/13) Accurately ripped
10 | (13/13) Accurately ripped
11 | (13/13) Accurately ripped
If you are sure that your rip contains errors, you can use CUETools to repair it.


==== Log checksum F7C4298D1F90C47E3C5FE54E656DDAD09FF209AA2CE7FB88706590BE2F98AA35 ====

Personnel:
Paul Weller - lead vocals, guitar, piano
Steve Cradock - vocals, guitar
Steve Pilgrim - vocals, guitar, percussion
Andy Crofts - vocals, bass
Ben Gordelier - drums
Tom Heel - vocals, keyboards
The London Metropolitan Orchestra, Kirsten Klingels - leader
Hannah Peel - conductor, orchestral arranger
BRASS SECTION includes:
Phil Veacock, Jess Holder, Chris Storr, Alastair White
Brass arrangements by Phil Veacock

Paul Weller - Other Aspects: Live At The Royal Festival Hall (2019)


All thanks go to DoobieBro

>>> My Blog <<<

DOWNLOAD: