Subcategories

Paul Giger / Marie-Louise Dähler - Towards Silence (2007) {ECM 2014}

Posted By: tiburon
Paul Giger / Marie-Louise Dähler - Towards Silence (2007) {ECM 2014}

Paul Giger / Marie-Louise Dähler - Towards Silence (2007) {ECM 2014}
EAC 0.99pb4 | FLAC tracks level 8 | Cue+Log+M3U+MD5 | Full Scans 300dpi | 376MB + 5% Recovery
Genre: Classical, Baroque, Contemporary
Paul Giger / Marie-Louise Dähler - Towards Silence (2007) {ECM 2014}

Together and separately these Swiss musicians, violinist Paul Giger and harpsichordist Marie-Louise Dähler present a symbiosis of old and new music that spans Bach, pulsating improvisation and strikingly original compositions. In all, a journey through musical and personal history which also, in “Bombay II”, reflects upon Giger’s years traveling in Asia. A sixth remarkable ECM album from Giger, a distinguished label debut for Dähler, and an important New Series release.
Track List
01. From Silence To Silence 8:42
02. Aria From Goldberg Variations, BWV 988 5:03
03. Cemb A Quattro 6:05
04. Halfwhole 7:28
05. Vivace From Sonata V In F Minor For Violin And Obligato Harpsichord, BWV 1018/Postludium (Impro) 3:49
06. Dorian Horizon 4:00
07. Allegro From Sonata V, BWV 1018 2:33
08. Vertical 3:23
09. Gliss A Uno 4:26
10. Præludium (Impro) / Adagio From Sonata V, BWV 1018 7:19
11. Bells 1:53
12. Bombay II 15:50
13. Largo From Sonata V, BWV 1018 7:39

musicians
Paul Giger - violin, violino d'amore
Marie-Louise Dähler - harpsichord

Produced by Manfred Eicher


Exact Audio Copy V0.99 prebeta 4 from 23. January 2008

EAC extraction logfile from 7. May 2009, 17:40

Paul Giger, Marie-Louise Dahler / Towards Silence

Used drive : PBDS DVD+-RW DH-16W1S Adapter: 1 ID: 0

Read mode : Secure
Utilize accurate stream : Yes
Defeat audio cache : Yes
Make use of C2 pointers : No

Read offset correction : 6
Overread into Lead-In and Lead-Out : No
Fill up missing offset samples with silence : Yes
Delete leading and trailing silent blocks : No
Null samples used in CRC calculations : Yes
Used interface : Installed external ASPI interface
Gap handling : Appended to previous track

Used output format : User Defined Encoder
Selected bitrate : 128 kBit/s
Quality : High
Add ID3 tag : No
Command line compressor : C:\Program Files\Exact Audio Copy\Flac\flac.exe
Additional command line options : -8 -V -T "ARTIST=%a" -T "TITLE=%t" -T "ALBUM=%g" -T "DATE=%y" -T "TRACKNUMBER=%n" -T "GENRE=%m" -T "COMMENT=EAC FLAC -8" %s


TOC of the extracted CD

Track | Start | Length | Start sector | End sector
––––––––––––––––––––––––––––-
1 | 0:00.00 | 8:42.06 | 0 | 39155
2 | 8:42.06 | 5:03.16 | 39156 | 61896
3 | 13:45.22 | 6:05.19 | 61897 | 89290
4 | 19:50.41 | 7:28.36 | 89291 | 122926
5 | 27:19.02 | 3:49.37 | 122927 | 140138
6 | 31:08.39 | 4:00.05 | 140139 | 158143
7 | 35:08.44 | 2:33.49 | 158144 | 169667
8 | 37:42.18 | 3:23.16 | 169668 | 184908
9 | 41:05.34 | 4:26.51 | 184909 | 204909
10 | 45:32.10 | 7:19.54 | 204910 | 237888
11 | 52:51.64 | 1:53.09 | 237889 | 246372
12 | 54:44.73 | 15:50.32 | 246373 | 317654
13 | 70:35.30 | 7:39.25 | 317655 | 352104


Track 1

Filename D:\RIPS\Paul Giger, Marie-Louise Dahler - Towards Silence (2007) [FLAC] {ECM 2014}\01 - From Silence to Silence.wav

Pre-gap length 0:00:02.00

Peak level 73.0 %
Track quality 100.0 %
Test CRC 8CD0E387
Copy CRC 8CD0E387
Accurately ripped (confidence 1) [E684AB7B]
Copy OK

Track 2

Filename D:\RIPS\Paul Giger, Marie-Louise Dahler - Towards Silence (2007) [FLAC] {ECM 2014}\02 - Aria from Goldberg Variations, BWV 988.wav

Peak level 15.2 %
Track quality 100.0 %
Test CRC DA31B1ED
Copy CRC DA31B1ED
Accurately ripped (confidence 1) [C3A6FF12]
Copy OK

Track 3

Filename D:\RIPS\Paul Giger, Marie-Louise Dahler - Towards Silence (2007) [FLAC] {ECM 2014}\03 - Cemb a quattro.wav

Peak level 19.4 %
Track quality 99.9 %
Test CRC D5103379
Copy CRC D5103379
Accurately ripped (confidence 1) [0B288289]
Copy OK

Track 4

Filename D:\RIPS\Paul Giger, Marie-Louise Dahler - Towards Silence (2007) [FLAC] {ECM 2014}\04 - Halfwhole.wav

Peak level 22.3 %
Track quality 100.0 %
Test CRC 99DCEEF1
Copy CRC 99DCEEF1
Accurately ripped (confidence 1) [91385B98]
Copy OK

Track 5

Filename D:\RIPS\Paul Giger, Marie-Louise Dahler - Towards Silence (2007) [FLAC] {ECM 2014}\05 - Vivace from Sonata V in F minor for violin and obligato harpsichord, BWV 1018_Postludium (Impro).wav

Peak level 26.4 %
Track quality 100.0 %
Test CRC 5A824185
Copy CRC 5A824185
Accurately ripped (confidence 1) [A914D31F]
Copy OK

Track 6

Filename D:\RIPS\Paul Giger, Marie-Louise Dahler - Towards Silence (2007) [FLAC] {ECM 2014}\06 - Dorian Horizon.wav

Peak level 58.2 %
Track quality 99.9 %
Test CRC 6E431E76
Copy CRC 6E431E76
Accurately ripped (confidence 1) [9B002F04]
Copy OK

Track 7

Filename D:\RIPS\Paul Giger, Marie-Louise Dahler - Towards Silence (2007) [FLAC] {ECM 2014}\07 - Allegro from Sonata V, BWV 1018.wav

Peak level 39.1 %
Track quality 100.0 %
Test CRC F4A50C95
Copy CRC F4A50C95
Accurately ripped (confidence 1) [B753F9B6]
Copy OK

Track 8

Filename D:\RIPS\Paul Giger, Marie-Louise Dahler - Towards Silence (2007) [FLAC] {ECM 2014}\08 - Vertical.wav

Peak level 30.8 %
Track quality 99.9 %
Test CRC A8959664
Copy CRC A8959664
Accurately ripped (confidence 1) [903258A4]
Copy OK

Track 9

Filename D:\RIPS\Paul Giger, Marie-Louise Dahler - Towards Silence (2007) [FLAC] {ECM 2014}\09 - Gliss a uno.wav

Peak level 27.3 %
Track quality 100.0 %
Test CRC 4EEE6859
Copy CRC 4EEE6859
Accurately ripped (confidence 1) [6F7621E1]
Copy OK

Track 10

Filename D:\RIPS\Paul Giger, Marie-Louise Dahler - Towards Silence (2007) [FLAC] {ECM 2014}\10 - Praeludium (Impro)_Adagio from Sonata V, BWV 1018.wav

Peak level 23.0 %
Track quality 100.0 %
Test CRC EF035C2C
Copy CRC EF035C2C
Accurately ripped (confidence 1) [A1F814BB]
Copy OK

Track 11

Filename D:\RIPS\Paul Giger, Marie-Louise Dahler - Towards Silence (2007) [FLAC] {ECM 2014}\11 - Bells.wav

Peak level 6.1 %
Track quality 100.0 %
Test CRC D0A852BC
Copy CRC D0A852BC
Accurately ripped (confidence 1) [F96D70F9]
Copy OK

Track 12

Filename D:\RIPS\Paul Giger, Marie-Louise Dahler - Towards Silence (2007) [FLAC] {ECM 2014}\12 - Bombay II.wav

Peak level 73.9 %
Track quality 100.0 %
Test CRC 46709039
Copy CRC 46709039
Accurately ripped (confidence 1) [5369F02A]
Copy OK

Track 13

Filename D:\RIPS\Paul Giger, Marie-Louise Dahler - Towards Silence (2007) [FLAC] {ECM 2014}\13 - Largo from Sonata V, BWV 1018.wav

Peak level 27.2 %
Track quality 100.0 %
Test CRC 8F89AAAF
Copy CRC 8F89AAAF
Accurately ripped (confidence 1) [EBC5A3A0]
Copy OK


All tracks accurately ripped

No errors occurred

End of status report


––––––––––––––––––––––––––––––––––––––––
Analyzed: Paul Giger, Marie-Louise Dähler / Towards Silence
––––––––––––––––––––––––––––––––––––––––

DR Peak RMS Duration Track
––––––––––––––––––––––––––––––––––––––––
DR16 -2.73 dB -26.73 dB 8:42 01-From Silence to Silence
DR12 -16.33 dB -31.75 dB 5:03 02-Aria from Goldberg Variations, BWV 988
DR13 -14.23 dB -31.37 dB 6:05 03-Cemb a quattro
DR12 -13.02 dB -31.18 dB 7:28 04-Halfwhole
DR12 -11.55 dB -27.86 dB 3:49 05-Vivace from Sonata V in F minor for violin and obligato harpsichord, BWV 1018/Postludium (Impro)
DR14 -4.70 dB -28.32 dB 4:00 06-Dorian Horizon
DR13 -8.14 dB -25.44 dB 2:34 07-Allegro from Sonata V, BWV 1018
DR21 -10.20 dB -40.19 dB 3:23 08-Vertical
DR13 -11.26 dB -33.39 dB 4:27 09-Gliss a uno
DR13 -12.73 dB -31.66 dB 7:20 10-Præludium (Impro)/Adagio from Sonata V, BWV 1018
DR13 -24.24 dB -39.72 dB 1:53 11-Bells
DR16 -2.62 dB -27.50 dB 15:50 12-Bombay II
DR13 -11.30 dB -29.66 dB 7:39 13-Largo from Sonata V, BWV 1018
––––––––––––––––––––––––––––––––––––––––

Number of tracks: 13
Official DR value: DR14

Samplerate: 44100 Hz
Channels: 2
Bits per sample: 16
Bitrate: 671 kbps
Codec: FLAC
================================================================================

Paul Giger / Marie-Louise Dähler - Towards Silence (2007) {ECM 2014}
Paul Giger / Marie-Louise Dähler - Towards Silence (2007) {ECM 2014}
Paul Giger / Marie-Louise Dähler - Towards Silence (2007) {ECM 2014}


Rip by oak13