Subcategories

Paul Giger - Schattenwelt (1993) {ECM 1487}

Posted By: tiburon
Paul Giger - Schattenwelt (1993) {ECM 1487}

Paul Giger - Schattenwelt (1993) {ECM 1487}
X Lossless Decoder | FLAC tracks | Cue+Log+M3U | Full Scans (PDF) | 292MB + 5% Recovery
Genre: Classical, Chamber Music, Avant-Garde
Paul Giger - Schattenwelt (1993) {ECM 1487}

Paul Giger's 1993 solo release, Schattenwelt, takes a darker turn following his more volksliederisch 1991 release, Alpstein, though it is on this release that his virtuosity really shines. The delicate textures of the recording's bookends – "Bay" and "Bombay" – utilize a variety of timbres and tones, sometimes harsh, sometimes flute-like, that wash over the structure of the pieces. The centerpiece of the recording, "Seven Scenes From Labyrinthos," a retelling of the myth of the minotaur and the labyrinth, spans a variety of styles, from the shrill and dissonant "Crane" to the almost-lilting "Creating the Labyrinth." A great recording for aficionados of the violin with a sophisticated ear.
Track List
01. Bay 3:05
Seven Scenes from Labyrinthos:
02. Dancing With The Stars 5:46
03. Crane 2:34
04. Creating The Labyrinth 10:54
05. Birth Of The Bull 1:54
06. Fourteen Virgins 5:43
07. Death 1:37
08. Dancing In The World Of Shadows 6:15
09. Bombay (Good Night) 16:01

All Compositions by Paul Giger

Paul Giger - violin

Produced by Manfred Eicher




X Lossless Decoder version 20121027 (142.1)

XLD extraction logfile from 2012-12-06 18:16:24 +0100

Paul Giger / Schattenwelt

Used drive : OPTIARC DVD RW AD-5680H (revision 3AHB)

Ripper mode : XLD Secure Ripper
Disable audio cache : OK for the drive with a cache less than 1375KiB
Make use of C2 pointers : NO
Read offset correction : 48
Max retry count : 100
Gap status : Analyzed, Appended (except HTOA)

TOC of the extracted CD
Track | Start | Length | Start sector | End sector
––––––––––––––––––––––––––––-
1 | 00:00:00 | 03:15:50 | 0 | 14674
2 | 03:15:50 | 05:46:42 | 14675 | 40666
3 | 09:02:17 | 02:34:15 | 40667 | 52231
4 | 11:36:32 | 10:54:73 | 52232 | 101354
5 | 22:31:30 | 01:54:72 | 101355 | 109976
6 | 24:26:27 | 05:43:73 | 109977 | 135774
7 | 30:10:25 | 01:37:50 | 135775 | 143099
8 | 31:48:00 | 06:24:52 | 143100 | 171951
9 | 38:12:52 | 16:01:63 | 171952 | 244089

AccurateRip Summary (DiscID: 000f783f-007420f2-7e0cb609)
Track 01 : OK (v1, confidence 5/5)
Track 02 : OK (v1, confidence 5/5)
Track 03 : OK (v1, confidence 5/5)
Track 04 : OK (v1, confidence 5/5)
Track 05 : OK (v1, confidence 5/5)
Track 06 : OK (v1, confidence 5/5)
Track 07 : OK (v1, confidence 5/5)
Track 08 : OK (v1, confidence 5/5)
Track 09 : OK (v1, confidence 5/5)
->All tracks accurately ripped.

All Tracks
Album gain : 1.85 dB
Peak : 0.999969
Statistics
Read error : 0
Jitter error (maybe fixed) : 0
Retry sector count : 0
Damaged sector count : 0

Track 01
Filename : /XLD/01 - Bay.flac
Pre-gap length : 00:02:00

Track gain : 6.49 dB
Peak : 0.257965
CRC32 hash (test run) : CB982234
CRC32 hash : CB982234
CRC32 hash (skip zero) : CCDCFA0F
AccurateRip v1 signature : 5A33B2E9
AccurateRip v2 signature : F15D6219
->Accurately ripped (v1, confidence 5/5)
Statistics
Read error : 0
Jitter error (maybe fixed) : 0
Retry sector count : 0
Damaged sector count : 0

Track 02
Filename : /XLD/02 - Dancing With The Stars.flac
Pre-gap length : 00:10:50

Track gain : 2.75 dB
Peak : 0.730988
CRC32 hash (test run) : 6DFA4A51
CRC32 hash : 6DFA4A51
CRC32 hash (skip zero) : 9E74C6DC
AccurateRip v1 signature : 75D7098D
AccurateRip v2 signature : 0D9B4FE2
->Accurately ripped (v1, confidence 5/5)
Statistics
Read error : 0
Jitter error (maybe fixed) : 0
Retry sector count : 0
Damaged sector count : 0

Track 03
Filename : /XLD/03 - Crane.flac

Track gain : -1.43 dB
Peak : 0.999969
CRC32 hash (test run) : 7A523D9B
CRC32 hash : 7A523D9B
CRC32 hash (skip zero) : 2A89FE28
AccurateRip v1 signature : 4F642DA0
AccurateRip v2 signature : 85079C29
->Accurately ripped (v1, confidence 5/5)
Statistics
Read error : 0
Jitter error (maybe fixed) : 0
Retry sector count : 0
Damaged sector count : 0

Track 04
Filename : /XLD/04 - Creating The Labyrinth.flac

Track gain : -0.69 dB
Peak : 0.998383
CRC32 hash (test run) : 0054C75C
CRC32 hash : 0054C75C
CRC32 hash (skip zero) : 5E6F19D6
AccurateRip v1 signature : 84CDCD1E
AccurateRip v2 signature : 38B4EF47
->Accurately ripped (v1, confidence 5/5)
Statistics
Read error : 0
Jitter error (maybe fixed) : 0
Retry sector count : 0
Damaged sector count : 0

Track 05
Filename : /XLD/05 - Birth Of The Bull.flac

Track gain : 0.49 dB
Peak : 0.785522
CRC32 hash (test run) : ECE350BC
CRC32 hash : ECE350BC
CRC32 hash (skip zero) : 5253CF7E
AccurateRip v1 signature : 944477A0
AccurateRip v2 signature : 5ED44DA1
->Accurately ripped (v1, confidence 5/5)
Statistics
Read error : 0
Jitter error (maybe fixed) : 0
Retry sector count : 0
Damaged sector count : 0

Track 06
Filename : /XLD/06 - Fourteen Virgins.flac

Track gain : 4.92 dB
Peak : 0.508606
CRC32 hash (test run) : 1C60A7A4
CRC32 hash : 1C60A7A4
CRC32 hash (skip zero) : 087F8013
AccurateRip v1 signature : AE88FA68
AccurateRip v2 signature : DB9430F4
->Accurately ripped (v1, confidence 5/5)
Statistics
Read error : 0
Jitter error (maybe fixed) : 0
Retry sector count : 0
Damaged sector count : 0

Track 07
Filename : /XLD/07 - Death.flac

Track gain : 0.53 dB
Peak : 0.520691
CRC32 hash (test run) : 96E83320
CRC32 hash : 96E83320
CRC32 hash (skip zero) : 9895C25E
AccurateRip v1 signature : 871AF227
AccurateRip v2 signature : A06B8F44
->Accurately ripped (v1, confidence 5/5)
Statistics
Read error : 0
Jitter error (maybe fixed) : 0
Retry sector count : 0
Damaged sector count : 0

Track 08
Filename : /XLD/08 - Dancing In The World Of Shadows.flac

Track gain : 4.59 dB
Peak : 0.493652
CRC32 hash (test run) : 5919650A
CRC32 hash : 5919650A
CRC32 hash (skip zero) : 5200820A
AccurateRip v1 signature : DD6A860E
AccurateRip v2 signature : 58351F7E
->Accurately ripped (v1, confidence 5/5)
Statistics
Read error : 0
Jitter error (maybe fixed) : 0
Retry sector count : 0
Damaged sector count : 0

Track 09
Filename : /XLD/09 - Bombay (Good Night).flac
Pre-gap length : 00:09:22

Track gain : 4.20 dB
Peak : 0.792053
CRC32 hash (test run) : ADA881D9
CRC32 hash : ADA881D9
CRC32 hash (skip zero) : 2417FF60
AccurateRip v1 signature : 1C09CE2B
AccurateRip v2 signature : 844EFFA4
->Accurately ripped (v1, confidence 5/5)
Statistics
Read error : 0
Jitter error (maybe fixed) : 0
Retry sector count : 0
Damaged sector count : 0

No errors occurred

End of status report


––––––––––––––––––––––––––––––––––––––––
Analyzed: Paul Giger / Schattenwelt
––––––––––––––––––––––––––––––––––––––––

DR Peak RMS Duration Track
––––––––––––––––––––––––––––––––––––––––
DR12 -11.77 dB -28.94 dB 3:16 01-Bay
DR13 -2.72 dB -24.38 dB 5:47 02-Dancing With The Stars
DR14 0.00 dB -22.44 dB 2:34 03-Crane
DR14 -0.01 dB -21.13 dB 10:55 04-Creating The Labyrinth
DR14 -2.10 dB -20.23 dB 1:55 05-Birth Of The Bull
DR14 -5.87 dB -27.18 dB 5:44 06-Fourteen Virgins
DR10 -5.67 dB -20.10 dB 1:38 07-Death
DR13 -6.13 dB -26.43 dB 6:25 08-Dancing In The World Of Shadows
DR16 -2.02 dB -25.90 dB 16:02 09-Bombay (Good Night)
––––––––––––––––––––––––––––––––––––––––

Number of tracks: 9
Official DR value: DR13

Samplerate: 44100 Hz
Channels: 2
Bits per sample: 16
Bitrate: 499 kbps
Codec: FLAC
================================================================================

Paul Giger - Schattenwelt (1993) {ECM 1487}
Paul Giger - Schattenwelt (1993) {ECM 1487}


Rip by BlackPeteW