Subcategories
Tags
Language
Tags

Paul Weller - True Meanings (2018) {Deluxe Edition}

Posted By: BlondStyle
Paul Weller - True Meanings (2018) {Deluxe Edition}

Paul Weller - True Meanings (2018) {Deluxe Edition}
Rock, British Trad Rock, Acoustic | EAC Rip | FLAC, Tracks+CUE+LOG+Scans (JPEG) | 01:16:56 | 773,91 Mb
Label: Parlophone (EU) | Cat.# 0190295615161 | Released: 2018-09-14

"True Meanings" is the fourteenth studio album by English singer-songwriter Paul Weller, released on 14 September 2018. According to Metacritic, the album has received a score of 79/100 based on 11 reviews from critics, indicating "generally favourable reviews".
~Wikipedia

Paul Weller - True Meanings (2018) {Deluxe Edition}

Consider True Meanings Paul Weller's comedown from a combustive, creative decade begun with 22 Dreams. That 2008 double album was co-produced with Simon Dine, who proved to be such a vital collaborator for Weller that the singer/songwriter found it difficult to shake off the producer's influence after the two parted ways acrimoniously in 2012. Weller's initial reaction to the split was to follow the straight and narrow on 2017's appealing A Kind Revolution but True Meanings, delivered just a year later, finds him mellowing and entering a reflective groove. No amplifiers are cranked on True Meanings: the entire enterprise is anchored on folky finger-picking and strumming, which is in turn dressed in elegant orchestrations. Often, the lush strings and gentle horns are reminiscent of the orchestrations Robert Kirby arranged for Nick Drake's Five Leaves Left and Bryter Layter, yet True Meanings doesn't carry a melancholy undercurrent. Weller is in a sober mood but he's not brooding, he's reflecting. Thoughts of mortality drift across his mind such as in "Bowie," a tribute that's more elliptical than its title suggests but Weller seems settled and comfortable, more mindful than sad. The stateliness of the orchestral arrangements prevents True Meanings from slipping into a hazy folk netherworld. All the strings and brass not only accentuate the songs, highlighting the jazzy changes of "Soul Searchers" or the light swing of "Gravity," they help frame this measured song cycle, directing attention to how Weller isn't wallowing, he's meditating upon love, loss, and hope as he enters his sixties.
~Review by Stephen Thomas Erlewine

Paul Weller - True Meanings (2018) {Deluxe Edition}

Paul Weller - True Meanings (2018) {Deluxe Edition}


Release of this album/CD: 2018, September, 14 [CD Parlophone (EU), Cat.# 0190295615161 /UPC: 0190295615161]
℗© 2018 Solid Bond Productions Ltd. under exclusive licence to Parlophone Records Limited, a Warner Music Group Company.
Made in the E.U.

Credits:

Co-producer – White Label (tracks: 12)
Design – Alex Hutchinson, Paul Weller
Engineer, Recorded By – Charles Rees
Mastered By – Gavin Lurssen, Guy Davie
Mixed By – Jan "Stan" Kybert
Photography – Nicole Nodland
Photography [Booklet] – Andy Crofts, Hannah Weller, Nicole Nodland, Paul Weller, Weller Family Collection
Written-By – Brown* (tracks: 12), Cooper (tracks: 8, 9 14), Doyle (tracks: 12)
Written-By, Co-producer – O'Brien (tracks: 1)
Written-By, Producer – Paul Weller


Tracklist:

01. The Soul Searchers (05:02)
02. Glide (02:18)
03. Mayfly (04:00)
04. Gravity (02:33)
05. Old Castles (03:20)
06. What Would He Say? (04:00)
07. Aspects (04:34)
08. Bowie (03:53)
09. Wishing Well (04:36)
10. Come Along (03:03)
11. Books (04:35)
12. Movin On (04:31)
13. May Love Travel With You (03:02)
14. White Horses (05:25)
15. The Soul Searchers (Richard Hawley Remix) (05:08)
16. Aspects (RAVEN Remix) (06:30)
17. Mayfly (The Reflex Revision) (04:41)
18. Glide (Instrumental) (02:21)
19. Old Castles (Instrumental) (03:19)

Exact Audio Copy V1.3 from 2. September 2016

EAC extraction logfile from 22. September 2018, 16:40

Paul Weller / True Meanings

Used drive : ASUS BW-12D1S-U Adapter: 1 ID: 1

Read mode : Secure
Utilize accurate stream : Yes
Defeat audio cache : Yes
Make use of C2 pointers : No

Read offset correction : 667
Overread into Lead-In and Lead-Out : No
Fill up missing offset samples with silence : Yes
Delete leading and trailing silent blocks : No
Null samples used in CRC calculations : Yes
Used interface : Native Win32 interface for Win NT & 2000
Gap handling : Appended to previous track

Used output format : User Defined Encoder
Selected bitrate : 1024 kBit/s
Quality : High
Add ID3 tag : No
Command line compressor : C:\Program Files (x86)\Exact Audio Copy\FLAC\FLAC.EXE
Additional command line options : -V -8 -T "Genre=%genre%" -T "Artist=%artist%" -T "Title=%title%" -T "Album=%albumtitle%" -T "Date=%year%" -T "Tracknumber=%tracknr%" -T "Comment=%comment%" %source%


TOC of the extracted CD

Track | Start | Length | Start sector | End sector
––––––––––––––––––––––––––––-
1 | 0:00.00 | 5:01.70 | 0 | 22644
2 | 5:01.70 | 2:18.28 | 22645 | 33022
3 | 7:20.23 | 4:00.30 | 33023 | 51052
4 | 11:20.53 | 2:33.13 | 51053 | 62540
5 | 13:53.66 | 3:20.36 | 62541 | 77576
6 | 17:14.27 | 4:00.31 | 77577 | 95607
7 | 21:14.58 | 4:33.65 | 95608 | 116147
8 | 25:48.48 | 3:53.04 | 116148 | 133626
9 | 29:41.52 | 4:36.02 | 133627 | 154328
10 | 34:17.54 | 3:03.19 | 154329 | 168072
11 | 37:20.73 | 4:35.14 | 168073 | 188711
12 | 41:56.12 | 4:31.08 | 188712 | 209044
13 | 46:27.20 | 3:01.54 | 209045 | 222673
14 | 49:28.74 | 5:26.45 | 222674 | 247168
15 | 54:55.44 | 5:08.09 | 247169 | 270277
16 | 60:03.53 | 6:30.33 | 270278 | 299560
17 | 66:34.11 | 4:40.65 | 299561 | 320625
18 | 71:15.01 | 2:21.24 | 320626 | 331224
19 | 73:36.25 | 3:19.12 | 331225 | 346161


Track 1

Filename E:\Torrents of Autumn\Weller, Paul [2018] True Meanings\01. The Soul Searchers.wav

Pre-gap length 0:00:02.00

Peak level 98.4 %
Extraction speed 5.0 X
Track quality 100.0 %
Test CRC 7D1F3A40
Copy CRC 7D1F3A40
Track not present in AccurateRip database
Copy OK

Track 2

Filename E:\Torrents of Autumn\Weller, Paul [2018] True Meanings\02. Glide.wav

Peak level 97.7 %
Extraction speed 4.8 X
Track quality 100.0 %
Test CRC D6992A47
Copy CRC D6992A47
Track not present in AccurateRip database
Copy OK

Track 3

Filename E:\Torrents of Autumn\Weller, Paul [2018] True Meanings\03. Mayfly.wav

Peak level 97.7 %
Extraction speed 5.5 X
Track quality 100.0 %
Test CRC 03A53444
Copy CRC 03A53444
Track not present in AccurateRip database
Copy OK

Track 4

Filename E:\Torrents of Autumn\Weller, Paul [2018] True Meanings\04. Gravity.wav

Peak level 97.7 %
Extraction speed 5.4 X
Track quality 100.0 %
Test CRC E868475A
Copy CRC E868475A
Track not present in AccurateRip database
Copy OK

Track 5

Filename E:\Torrents of Autumn\Weller, Paul [2018] True Meanings\05. Old Castles.wav

Peak level 97.7 %
Extraction speed 5.2 X
Track quality 99.9 %
Test CRC B025114D
Copy CRC B025114D
Track not present in AccurateRip database
Copy OK

Track 6

Filename E:\Torrents of Autumn\Weller, Paul [2018] True Meanings\06. What Would He Say.wav

Peak level 97.7 %
Extraction speed 6.3 X
Track quality 100.0 %
Test CRC 5A2FEA13
Copy CRC 5A2FEA13
Track not present in AccurateRip database
Copy OK

Track 7

Filename E:\Torrents of Autumn\Weller, Paul [2018] True Meanings\07. Aspects.wav

Pre-gap length 0:00:02.13

Peak level 97.7 %
Extraction speed 6.1 X
Track quality 99.9 %
Test CRC 61089D6F
Copy CRC 61089D6F
Track not present in AccurateRip database
Copy OK

Track 8

Filename E:\Torrents of Autumn\Weller, Paul [2018] True Meanings\08. Bowie.wav

Peak level 97.7 %
Extraction speed 6.2 X
Track quality 99.9 %
Test CRC 51DF5132
Copy CRC 51DF5132
Track not present in AccurateRip database
Copy OK

Track 9

Filename E:\Torrents of Autumn\Weller, Paul [2018] True Meanings\09. Wishing Well.wav

Peak level 97.7 %
Extraction speed 7.3 X
Track quality 100.0 %
Test CRC 3328CBD7
Copy CRC 3328CBD7
Track not present in AccurateRip database
Copy OK

Track 10

Filename E:\Torrents of Autumn\Weller, Paul [2018] True Meanings\10. Come Along.wav

Peak level 97.7 %
Extraction speed 6.1 X
Track quality 99.9 %
Test CRC 8F9FA660
Copy CRC 8F9FA660
Track not present in AccurateRip database
Copy OK

Track 11

Filename E:\Torrents of Autumn\Weller, Paul [2018] True Meanings\11. Books.wav

Peak level 97.7 %
Extraction speed 6.8 X
Track quality 99.9 %
Test CRC 98A23B59
Copy CRC 98A23B59
Track not present in AccurateRip database
Copy OK

Track 12

Filename E:\Torrents of Autumn\Weller, Paul [2018] True Meanings\12. Movin On.wav

Peak level 97.7 %
Extraction speed 7.7 X
Track quality 100.0 %
Test CRC CAD11A24
Copy CRC CAD11A24
Track not present in AccurateRip database
Copy OK

Track 13

Filename E:\Torrents of Autumn\Weller, Paul [2018] True Meanings\13. May Love Travel With You.wav

Peak level 98.8 %
Extraction speed 7.4 X
Track quality 100.0 %
Test CRC DB5F5859
Copy CRC DB5F5859
Track not present in AccurateRip database
Copy OK

Track 14

Filename E:\Torrents of Autumn\Weller, Paul [2018] True Meanings\14. White Horses.wav

Peak level 97.7 %
Extraction speed 8.3 X
Track quality 100.0 %
Test CRC 1D444CE8
Copy CRC 1D444CE8
Track not present in AccurateRip database
Copy OK

Track 15

Filename E:\Torrents of Autumn\Weller, Paul [2018] True Meanings\15. The Soul Searchers (Richard Hawley Remix).wav

Pre-gap length 0:00:02.00

Peak level 95.5 %
Extraction speed 8.4 X
Track quality 100.0 %
Test CRC AE2274B8
Copy CRC AE2274B8
Track not present in AccurateRip database
Copy OK

Track 16

Filename E:\Torrents of Autumn\Weller, Paul [2018] True Meanings\16. Aspects (RaVen Remix).wav

Pre-gap length 0:00:02.00

Peak level 95.5 %
Extraction speed 8.3 X
Track quality 99.9 %
Test CRC 5ECB51C4
Copy CRC 5ECB51C4
Track not present in AccurateRip database
Copy OK

Track 17

Filename E:\Torrents of Autumn\Weller, Paul [2018] True Meanings\17. Mayfly (The Reflex Revision).wav

Pre-gap length 0:00:02.00

Peak level 92.4 %
Extraction speed 8.1 X
Track quality 99.9 %
Test CRC 34EC792B
Copy CRC 34EC792B
Track not present in AccurateRip database
Copy OK

Track 18

Filename E:\Torrents of Autumn\Weller, Paul [2018] True Meanings\18. Glide (Instrumental).wav

Pre-gap length 0:00:02.00

Peak level 95.5 %
Extraction speed 8.2 X
Track quality 100.0 %
Test CRC DDC34D03
Copy CRC DDC34D03
Track not present in AccurateRip database
Copy OK

Track 19

Filename E:\Torrents of Autumn\Weller, Paul [2018] True Meanings\19. Old Castles (Instrumental).wav

Pre-gap length 0:00:02.00

Peak level 95.5 %
Extraction speed 8.8 X
Track quality 100.0 %
Test CRC DD717C11
Copy CRC DD717C11
Track not present in AccurateRip database
Copy OK


None of the tracks are present in the AccurateRip database

No errors occurred

End of status report

–– CUETools DB Plugin V2.1.6

[CTDB TOCID: 99F7cL0UUJpEbJ3txUDtruShunk-] found
Submit result: 99F7cL0UUJpEbJ3txUDtruShunk- has been confirmed
Track | CTDB Status
1 | (16/16) Accurately ripped
2 | (16/16) Accurately ripped
3 | (16/16) Accurately ripped
4 | (16/16) Accurately ripped
5 | (16/16) Accurately ripped
6 | (16/16) Accurately ripped
7 | (16/16) Accurately ripped
8 | (16/16) Accurately ripped
9 | (16/16) Accurately ripped
10 | (16/16) Accurately ripped
11 | (16/16) Accurately ripped
12 | (16/16) Accurately ripped
13 | (16/16) Accurately ripped
14 | (16/16) Accurately ripped
15 | (16/16) Accurately ripped
16 | (16/16) Accurately ripped
17 | (16/16) Accurately ripped
18 | (16/16) Accurately ripped
19 | (16/16) Accurately ripped


==== Log checksum A242984D7A0211D548E2E07CC3044F9F6DC1EABBD49A43AF05CA2523B6079AD4 ====

––––––––––––––––––––––––––––––––––––––––
Analyzed: Paul Weller / True Meanings
––––––––––––––––––––––––––––––––––––––––

DR Peak RMS Duration Track
––––––––––––––––––––––––––––––––––––––––
DR7 -0.14 dB -9.04 dB 5:02 01-The Soul Searchers
DR9 -0.20 dB -10.38 dB 2:18 02-Glide
DR8 -0.20 dB -11.18 dB 4:00 03-Mayfly
DR9 -0.20 dB -10.82 dB 2:33 04-Gravity
DR7 -0.20 dB -8.64 dB 3:20 05-Old Castles
DR6 -0.20 dB -8.33 dB 4:00 06-What Would He Say?
DR8 -0.20 dB -9.82 dB 4:34 07-Aspects
DR7 -0.20 dB -9.61 dB 3:53 08-Bowie
DR9 -0.20 dB -11.45 dB 4:36 09-Wishing Well
DR9 -0.20 dB -11.49 dB 3:03 10-Come Along
DR9 -0.20 dB -11.71 dB 4:35 11-Books
DR7 -0.20 dB -9.94 dB 4:31 12-Movin On
DR7 -0.10 dB -9.92 dB 3:02 13-May Love Travel With You
DR8 -0.20 dB -11.85 dB 5:27 14-White Horses
DR9 -0.40 dB -10.82 dB 5:08 15-The Soul Searchers (Richard Hawley Remix)
DR9 -0.40 dB -11.25 dB 6:30 16-Aspects (RaVen Remix)
DR8 -0.68 dB -9.70 dB 4:41 17-Mayfly (The Reflex Revision)
DR10 -0.40 dB -13.19 dB 2:21 18-Glide (Instrumental)
DR7 -0.40 dB -9.52 dB 3:19 19-Old Castles (Instrumental)
––––––––––––––––––––––––––––––––––––––––

Number of tracks: 19
Official DR value: DR8

Samplerate: 44100 Hz
Channels: 2
Bits per sample: 16
Bitrate: 825 kbps
Codec: FLAC
================================================================================

Thanks to DoobieBro

♫~Welcome To My Blog~♫

password: BlondStyle