Subcategories

Paulette Reaves ‎- All About Love (1977)

Posted By: JET 1
Paulette Reaves ‎- All About Love (1977)

Paulette Reaves ‎- All About Love (1977)
EAC Rip | FLAC (Tracks) +CUE, LOG | 233 MB | Covers Included
Genre: Soul | Label: Henry Stone Music | Catalog Number: HSM 5034-2

A killer album from Paulette Reaves – a hip singer from the TK Records scene of the 70s, but one who never fully got her due at the time! Paulette's got a really wonderful style here that's partly deep soul, partly jazz-inflected – an approach that almost has more of the sophistication of 70s Philly sessions, especially given the mix of mature modes that come across in both the vocals and some of the instrumentation. Production is by Clarence Reid, Snoopy Dean, and Chocolate Perry – all of whom polish things enough to match the maturity in Reaves' vocals, yet never take the record into too-commercial territory – including the other styles you might find at TK. Titles include the sublime "Jazz Freak" – a classic stepper that has Paulette running down a list of her favorite artists in the lyrics – and other tracks include "You Are My Star", "We'll Try It Again", "I Forgot To Be Your Lover", "Flesh", and "Sweet Bitter Love".

Exact Audio Copy V1.0 beta 3 from 29. August 2011

EAC extraction logfile from 17. March 2016, 16:04

Paulette Reaves / All About Love

Used drive : GENERIC CDRCB05 Adapter: 4 ID: 0

Read mode : Secure
Utilize accurate stream : Yes
Defeat audio cache : Yes
Make use of C2 pointers : No

Read offset correction : 102
Overread into Lead-In and Lead-Out : No
Fill up missing offset samples with silence : Yes
Delete leading and trailing silent blocks : No
Null samples used in CRC calculations : Yes
Used interface : Native Win32 interface for Win NT & 2000
Gap handling : Appended to previous track

Used output format : User Defined Encoder
Selected bitrate : 1024 kBit/s
Quality : High
Add ID3 tag : No
Command line compressor : C:\Program Files\FLAC\flac.exe
Additional command line options : -8 -V -T "ARTIST=%artist%" -T "TITLE=%title%" -T "ALBUM=%albumtitle%" -T "DATE=%year%" -T "TRACKNUMBER=%tracknr%" -T "GENRE=%genre%" -T "PERFORMER=%albuminterpret%" -T "COMPOSER=%composer%" %haslyrics%–tag-from-file=LYRICS="%lyricsfile%"%haslyrics% -T "ALBUMARTIST=%albumartist%" -T "DISCNUMBER=%cdnumber%" -T "TOTALDISCS=%totalcds%" -T "TOTALTRACKS=%numtracks%" -T "COMMENT=%comment%" %source% -o %dest%


TOC of the extracted CD

Track | Start | Length | Start sector | End sector
––––––––––––––––––––––––––––-
1 | 0:00.00 | 5:23.02 | 0 | 24226
2 | 5:23.02 | 5:34.24 | 24227 | 49300
3 | 10:57.26 | 4:05.00 | 49301 | 67675
4 | 15:02.26 | 2:25.68 | 67676 | 78618
5 | 17:28.19 | 4:25.51 | 78619 | 98544
6 | 21:53.70 | 3:28.25 | 98545 | 114169
7 | 25:22.20 | 3:18.46 | 114170 | 129065
8 | 28:40.66 | 3:53.73 | 129066 | 146613


Track 1

Filename F:\POSTSSSSS\Paulette Reaves ‎- All About Love (1977)\01 - Jazz Freak.wav

Pre-gap length 0:00:02.00

Peak level 99.9 %
Extraction speed 2.3 X
Track quality 99.9 %
Test CRC 94239025
Copy CRC 94239025
Track not present in AccurateRip database
Copy OK

Track 2

Filename F:\POSTSSSSS\Paulette Reaves ‎- All About Love (1977)\02 - God Bless This Man Of Mine.wav

Peak level 95.5 %
Extraction speed 2.5 X
Track quality 99.9 %
Test CRC 4B977D79
Copy CRC 4B977D79
Track not present in AccurateRip database
Copy OK

Track 3

Filename F:\POSTSSSSS\Paulette Reaves ‎- All About Love (1977)\03 - Flesh.wav

Peak level 99.9 %
Extraction speed 2.5 X
Track quality 99.9 %
Test CRC 25E6700D
Copy CRC 25E6700D
Track not present in AccurateRip database
Copy OK

Track 4

Filename F:\POSTSSSSS\Paulette Reaves ‎- All About Love (1977)\04 - It's Hard To Dance (With A Broken Heart).wav

Peak level 88.4 %
Extraction speed 2.7 X
Track quality 100.0 %
Test CRC 742D3EE2
Copy CRC 742D3EE2
Track not present in AccurateRip database
Copy OK

Track 5

Filename F:\POSTSSSSS\Paulette Reaves ‎- All About Love (1977)\05 - Sweet Bitter Love.wav

Peak level 99.9 %
Extraction speed 3.1 X
Track quality 100.0 %
Test CRC C0ADD350
Copy CRC C0ADD350
Track not present in AccurateRip database
Copy OK

Track 6

Filename F:\POSTSSSSS\Paulette Reaves ‎- All About Love (1977)\06 - I Forgot To Be Your LOver.wav

Peak level 99.9 %
Extraction speed 3.2 X
Track quality 100.0 %
Test CRC 01653B0B
Copy CRC 01653B0B
Track not present in AccurateRip database
Copy OK

Track 7

Filename F:\POSTSSSSS\Paulette Reaves ‎- All About Love (1977)\07 - We'll Try It Again.wav

Peak level 99.9 %
Extraction speed 3.3 X
Track quality 100.0 %
Test CRC 02D8EBCC
Copy CRC 02D8EBCC
Track not present in AccurateRip database
Copy OK

Track 8

Filename F:\POSTSSSSS\Paulette Reaves ‎- All About Love (1977)\08 - You Are My Star.wav

Peak level 100.0 %
Extraction speed 3.4 X
Track quality 100.0 %
Test CRC B36FEA9F
Copy CRC B36FEA9F
Track not present in AccurateRip database
Copy OK


None of the tracks are present in the AccurateRip database

No errors occurred

End of status report

==== Log checksum CCE9507B12B12D902EB4A856CDDB8CB3C6EA3186F421C240E42F5D70AC5ED352 ====


Tracklist:
1) Jazz Freak Listen to a Sample Sample
2) God Bless This Man Of Mine
3) Flesh
4) It’s Hard To Dance (With A Broken Heart)
5) Sweet Bitter Love
6) I Forgot To Be Your Lover Listen to a Sample Sample
7) We’ll Try It Again
8) You Are My Star