Subcategories

Pavol Hammel, Marian Varga, Kamil Peteraj - Vsetko Je Inak (1989) [Reissue 2007]

Posted By: gribovar
Pavol Hammel, Marian Varga, Kamil Peteraj - Vsetko Je Inak (1989) [Reissue 2007]

Pavol Hammel, Marian Varga, Kamil Peteraj - Vsetko Je Inak (1989) [Reissue 2007]
EAC Rip | FLAC (tracks+.cue+log) - 249 MB | MP3 CBR 320 kbps (LAME 3.93) - 91 MB | Covers - 52 MB
Genre: Progressive Rock | RAR 3% Rec. | Label: Opus (OPUS 91 2780-2)

Marián Varga is a composer and keyboardist from Slovakia, born in 1947. After leaving the school - he joined the band Prúdy, which he left again after recording their cult album "Zvonte zvonky" (Jingle Bells). Right after he left, the formed the first art rock band of Czechoslovakia, Collegium Musicum. Heavily inspired by The Nice and later Emerson, Lake and Palmer the band became big in their country. Not surprisingly, given their music, Varga got the nick name "The Czechoslovakian Keith Emerson".
Pavol Hammel (born 7 December 1948, Bratislava) is a Slovak musician, singer and producer. Pavol Hammel was born to a family of musicians. His father played violin in the Slovak National Theatre, and influenced Pavol to become a promising violin player too. He graduated from the Faculty of Law, Comenius University in Bratislava in 1976. He gained fame initially in the group Prúdy, but has since established a successful solo career.

Tracklist:
01. Vojny mravcov
02. Zrnko piesku
03. Ochorel mi smútok
04. Holuby na korze
05. Pešiak
06. Mimochodom
07. Krátky film jedného leta
08. Venuša
09. Zázrak
10. Prológ

Total time: 38:38

Exact Audio Copy V1.0 beta 6 from 9. April 2015

EAC extraction logfile from 19. August 2017, 16:30

Hammel & Varga & Peteraj / Vsetko je inak

Used drive : Optiarc DVD RW AD-7240S Adapter: 1 ID: 0

Read mode : Secure
Utilize accurate stream : Yes
Defeat audio cache : Yes
Make use of C2 pointers : No

Read offset correction : 48
Overread into Lead-In and Lead-Out : No
Fill up missing offset samples with silence : Yes
Delete leading and trailing silent blocks : No
Null samples used in CRC calculations : Yes
Used interface : Native Win32 interface for Win NT & 2000
Gap handling : Appended to previous track

Used output format : User Defined Encoder
Selected bitrate : 32 kBit/s
Quality : High
Add ID3 tag : No
Command line compressor : C:\Program Files (x86)\Exact Audio Copy New\FLAC\FLAC.EXE
Additional command line options : -8 -V -T "ARTIST=%artist%" -T "TITLE=%title%" -T "ALBUM=%albumtitle%" -T "DATE=%year%" -T "TRACKNUMBER=%tracknr%" -T "GENRE=%genre%" -T "COMMENT=EAC" %source%


TOC of the extracted CD

Track | Start | Length | Start sector | End sector
––––––––––––––––––––––––––––-
1 | 0:00.00 | 4:53.30 | 0 | 22004
2 | 4:53.30 | 3:44.27 | 22005 | 38831
3 | 8:37.57 | 3:37.10 | 38832 | 55116
4 | 12:14.67 | 3:18.12 | 55117 | 69978
5 | 15:33.04 | 4:30.23 | 69979 | 90251
6 | 20:03.27 | 2:48.05 | 90252 | 102856
7 | 22:51.32 | 3:39.19 | 102857 | 119300
8 | 26:30.51 | 2:53.14 | 119301 | 132289
9 | 29:23.65 | 5:45.23 | 132290 | 158187
10 | 35:09.13 | 3:34.07 | 158188 | 174244


Track 1

Filename C:\Lossless\Hammel & Varga & Peteraj - Vsetko je inak (1989) [FLAC] {Remastered}\01 - Vojny mravcov.wav

Pre-gap length 0:00:02.00

Peak level 97.7 %
Extraction speed 2.6 X
Track quality 100.0 %
Test CRC 9CF7413D
Copy CRC 9CF7413D
Track not present in AccurateRip database
Copy OK

Track 2

Filename C:\Lossless\Hammel & Varga & Peteraj - Vsetko je inak (1989) [FLAC] {Remastered}\02 - Zrnko piesku.wav

Pre-gap length 0:00:01.00

Peak level 97.1 %
Extraction speed 2.7 X
Track quality 100.0 %
Test CRC C186CEB5
Copy CRC C186CEB5
Track not present in AccurateRip database
Copy OK

Track 3

Filename C:\Lossless\Hammel & Varga & Peteraj - Vsetko je inak (1989) [FLAC] {Remastered}\03 - Ochorel mi smutok.wav

Pre-gap length 0:00:01.00

Peak level 97.7 %
Extraction speed 2.5 X
Track quality 99.9 %
Test CRC CB0AAF5B
Copy CRC CB0AAF5B
Track not present in AccurateRip database
Copy OK

Track 4

Filename C:\Lossless\Hammel & Varga & Peteraj - Vsetko je inak (1989) [FLAC] {Remastered}\04 - Holuby na korze.wav

Peak level 97.7 %
Extraction speed 3.0 X
Track quality 100.0 %
Test CRC 912F6593
Copy CRC 912F6593
Track not present in AccurateRip database
Copy OK

Track 5

Filename C:\Lossless\Hammel & Varga & Peteraj - Vsetko je inak (1989) [FLAC] {Remastered}\05 - Pesiak.wav

Peak level 95.5 %
Extraction speed 3.4 X
Track quality 100.0 %
Test CRC 513B7511
Copy CRC 513B7511
Track not present in AccurateRip database
Copy OK

Track 6

Filename C:\Lossless\Hammel & Varga & Peteraj - Vsetko je inak (1989) [FLAC] {Remastered}\06 - Mimochodom.wav

Peak level 97.7 %
Extraction speed 3.3 X
Track quality 100.0 %
Test CRC A1F4FC0D
Copy CRC A1F4FC0D
Track not present in AccurateRip database
Copy OK

Track 7

Filename C:\Lossless\Hammel & Varga & Peteraj - Vsetko je inak (1989) [FLAC] {Remastered}\07 - Kratky film jedneho leta.wav

Pre-gap length 0:00:01.00

Peak level 97.7 %
Extraction speed 3.6 X
Track quality 100.0 %
Test CRC F0BCEBEE
Copy CRC F0BCEBEE
Track not present in AccurateRip database
Copy OK

Track 8

Filename C:\Lossless\Hammel & Varga & Peteraj - Vsetko je inak (1989) [FLAC] {Remastered}\08 - Venusa.wav

Peak level 97.7 %
Extraction speed 3.5 X
Track quality 100.0 %
Test CRC B8F07338
Copy CRC B8F07338
Track not present in AccurateRip database
Copy OK

Track 9

Filename C:\Lossless\Hammel & Varga & Peteraj - Vsetko je inak (1989) [FLAC] {Remastered}\09 - Zazrak.wav

Pre-gap length 0:00:00.10

Peak level 97.7 %
Extraction speed 4.1 X
Track quality 100.0 %
Test CRC 7C85D3E4
Copy CRC 7C85D3E4
Track not present in AccurateRip database
Copy OK

Track 10

Filename C:\Lossless\Hammel & Varga & Peteraj - Vsetko je inak (1989) [FLAC] {Remastered}\10 - Prolog.wav

Pre-gap length 0:00:00.10

Peak level 97.7 %
Extraction speed 4.0 X
Track quality 100.0 %
Test CRC 19175B74
Copy CRC 19175B74
Track not present in AccurateRip database
Copy OK


None of the tracks are present in the AccurateRip database

No errors occurred

End of status report

–– CUETools DB Plugin V2.1.6

[CTDB TOCID: cIu5_OldBqyOEnBu3isZMXEfpvg-] found
Submit result: cIu5_OldBqyOEnBu3isZMXEfpvg- has been confirmed
Track | CTDB Status
1 | (5/5) Accurately ripped
2 | (5/5) Accurately ripped
3 | (4/5) Accurately ripped
4 | (4/5) Accurately ripped
5 | (4/5) Accurately ripped
6 | (5/5) Accurately ripped
7 | (4/5) Accurately ripped
8 | (4/5) Accurately ripped
9 | (4/5) Accurately ripped
10 | (4/5) Accurately ripped


==== Log checksum 55F0CE9650381B4BCC10AC196A31580E401E753C5D0A113468807BEC9D48B7D4 ====

[CUETools log; Date: 20.08.2017 0:56:59; Version: 2.1.4]
[CTDB TOCID: cIu5_OldBqyOEnBu3isZMXEfpvg-] found.
Track | CTDB Status
1 | (6/6) Accurately ripped
2 | (6/6) Accurately ripped
3 | (5/6) Accurately ripped
4 | (5/6) Accurately ripped
5 | (5/6) Accurately ripped
6 | (6/6) Accurately ripped
7 | (5/6) Accurately ripped
8 | (5/6) Accurately ripped
9 | (5/6) Accurately ripped
10 | (5/6) Accurately ripped
[AccurateRip ID: 000eb1fa-00748406-8109130a] disk not present in database.

Track Peak [ CRC32 ] [W/O NULL] [ LOG ]
– 97,7 [83824B5E] [1A7A608A]
01 97,7 [9CF7413D] [811F80F5] CRC32
02 97,0 [C186CEB5] [5AA39458] CRC32
03 97,7 [CB0AAF5B] [AEBF6D77] CRC32
04 97,7 [912F6593] [AFE7FAD6] CRC32
05 95,5 [513B7511] [B634950E] CRC32
06 97,7 [A1F4FC0D] [8B1BC3D9] CRC32
07 97,7 [F0BCEBEE] [AB826661] CRC32
08 97,7 [B8F07338] [A39747E4] CRC32
09 97,7 [7C85D3E4] [C377A596] CRC32
10 97,7 [19175B74] [65A20F3B] CRC32

Thanks to abrelapuertaninyo