Subcategories

Peggy Lee - Christmas Carousel (1990)

Posted By: ciklon5
Peggy Lee - Christmas Carousel (1990)

Peggy Lee - Christmas Carousel (1990)
FLAC (tracks+.cue+log) | 2:15:15 | 310 Mb
Genre: Jazz, Pop, Christmas / Label: Capitol Records

Peggy Lee's voice conveys all of the moods of the season joy, peacefulness, fun, sacredness. There's even a touch of mischief in Santa Claus is Comin' to Town. It rides effortlessly on top of the gentle arrangements of Billy May. With all those good things, the best thing about the album are the original songs by Peggy Lee. Particularly good is the title track, which swirls so beautifully that you can feel your heart and soul being lifted.

Track List:

1. I Like a Sleighride (Jingle Bells)
2. The Christmas Song (Merry Christmas to You)
3. Don't Forget to Feed the Reindeer
4. The Star Carol
5. The Christmas List
6. Christmas Carousel
7. Santa Claus Is Comin' To Town
8. The Christmas Waltz
9. The Christmas Riddle
10. The Tree
11. Deck The Halls
12. White Christmas

CD Bonus Tracks
13. Winter Wonderland
14. Little Drummer Boy
15. Happy Holiday
16. The Christmas Spell
17. Toys for Tots

Exact Audio Copy V1.3 from 2. September 2016

EAC extraction logfile from 30. March 2018, 20:56

Peggy Lee / Christmas Carousel

Used drive : PLDS DVDRWBD DS-6E2SH Adapter: 1 ID: 0

Read mode : Secure
Utilize accurate stream : Yes
Defeat audio cache : Yes
Make use of C2 pointers : No

Read offset correction : 6
Overread into Lead-In and Lead-Out : No
Fill up missing offset samples with silence : Yes
Delete leading and trailing silent blocks : No
Null samples used in CRC calculations : Yes
Used interface : Native Win32 interface for Win NT & 2000
Gap handling : Appended to previous track

Used output format : User Defined Encoder
Selected bitrate : 1024 kBit/s
Quality : High
Add ID3 tag : No
Command line compressor : C:\Program Files (x86)\Exact Audio Copy\Flac\flac.exe
Additional command line options : -8 -V -T "ARTIST=%artist%" -T "TITLE=%title%" -T "ALBUM=%albumtitle%" -T "DATE=%year%" -T "TRACKNUMBER=%tracknr%" -T "GENRE=%genre%" -T "PERFORMER=%albuminterpret%" -T "COMPOSER=%composer%" %haslyrics%–tag-from-file=LYRICS="%lyricsfile%"%haslyrics% -T "ALBUMARTIST=%albumartist%" -T "DISCNUMBER=%cdnumber%" -T "TOTALDISCS=%totalcds%" -T "TOTALTRACKS=%numtracks%" -T "COMMENT=%comment%" %source% -o %dest%


TOC of the extracted CD

Track | Start | Length | Start sector | End sector
––––––––––––––––––––––––––––-
1 | 0:00.32 | 2:05.05 | 32 | 9411
2 | 2:05.37 | 2:30.73 | 9412 | 20734
3 | 4:36.35 | 2:47.62 | 20735 | 33321
4 | 7:24.22 | 2:41.58 | 33322 | 45454
5 | 10:06.05 | 2:39.50 | 45455 | 57429
6 | 12:45.55 | 2:23.00 | 57430 | 68154
7 | 15:08.55 | 2:18.05 | 68155 | 78509
8 | 17:26.60 | 2:53.10 | 78510 | 91494
9 | 20:19.70 | 3:19.70 | 91495 | 106489
10 | 23:39.65 | 1:44.12 | 106490 | 114301
11 | 25:24.02 | 2:10.30 | 114302 | 124081
12 | 27:34.32 | 2:08.45 | 124082 | 133726
13 | 29:43.02 | 1:55.20 | 133727 | 142371
14 | 31:38.22 | 2:18.58 | 142372 | 152779
15 | 33:57.05 | 1:56.65 | 152780 | 161544
16 | 35:53.70 | 3:20.67 | 161545 | 176611
17 | 39:14.62 | 2:01.08 | 176612 | 185694


Track 1

Filename C:\pth\rips\Peggy Lee - 1960 - Christmas Carousel (1990 CD) [FLAC] {CDP 7 94450 2}\01 I Like a Sleighride (Jingle Bells).wav

Pre-gap length 0:00:02.32

Peak level 84.6 %
Extraction speed 0.9 X
Track quality 100.0 %
Test CRC 93D31688
Copy CRC 93D31688
Accurately ripped (confidence 6) [3AE2320D] (AR v2)
Copy OK

Track 2

Filename C:\pth\rips\Peggy Lee - 1960 - Christmas Carousel (1990 CD) [FLAC] {CDP 7 94450 2}\02 The Christmas Song (Merry Christmas to You).wav

Pre-gap length 0:00:01.10

Peak level 65.7 %
Extraction speed 1.0 X
Track quality 100.0 %
Test CRC E71D3BAC
Copy CRC E71D3BAC
Accurately ripped (confidence 6) [A946F786] (AR v2)
Copy OK

Track 3

Filename C:\pth\rips\Peggy Lee - 1960 - Christmas Carousel (1990 CD) [FLAC] {CDP 7 94450 2}\03 Don't Forget to Feed the Reindeer.wav

Pre-gap length 0:00:01.15

Peak level 62.9 %
Extraction speed 1.1 X
Track quality 100.0 %
Test CRC 1C863026
Copy CRC 1C863026
Accurately ripped (confidence 6) [02B564B2] (AR v2)
Copy OK

Track 4

Filename C:\pth\rips\Peggy Lee - 1960 - Christmas Carousel (1990 CD) [FLAC] {CDP 7 94450 2}\04 The Star Carol.wav

Pre-gap length 0:00:01.17

Peak level 59.7 %
Extraction speed 1.2 X
Track quality 100.0 %
Test CRC 2ED35221
Copy CRC 2ED35221
Accurately ripped (confidence 6) [11BB9105] (AR v2)
Copy OK

Track 5

Filename C:\pth\rips\Peggy Lee - 1960 - Christmas Carousel (1990 CD) [FLAC] {CDP 7 94450 2}\05 The Christmas List.wav

Pre-gap length 0:00:01.15

Peak level 60.5 %
Extraction speed 1.1 X
Track quality 99.9 %
Test CRC AA87556B
Copy CRC AA87556B
Accurately ripped (confidence 6) [355E881F] (AR v2)
Copy OK

Track 6

Filename C:\pth\rips\Peggy Lee - 1960 - Christmas Carousel (1990 CD) [FLAC] {CDP 7 94450 2}\06 Christmas Carousel.wav

Pre-gap length 0:00:01.30

Peak level 78.7 %
Extraction speed 1.3 X
Track quality 100.0 %
Test CRC BFC123EA
Copy CRC BFC123EA
Accurately ripped (confidence 6) [4E514F0A] (AR v2)
Copy OK

Track 7

Filename C:\pth\rips\Peggy Lee - 1960 - Christmas Carousel (1990 CD) [FLAC] {CDP 7 94450 2}\07 Santa Claus Is Comin' To Town.wav

Pre-gap length 0:00:01.23

Peak level 91.1 %
Extraction speed 1.3 X
Track quality 100.0 %
Test CRC 7B1E75FC
Copy CRC 7B1E75FC
Accurately ripped (confidence 6) [B3ECE4F7] (AR v2)
Copy OK

Track 8

Filename C:\pth\rips\Peggy Lee - 1960 - Christmas Carousel (1990 CD) [FLAC] {CDP 7 94450 2}\08 The Christmas Waltz.wav

Pre-gap length 0:00:01.33

Peak level 70.1 %
Extraction speed 1.5 X
Track quality 100.0 %
Test CRC 9E64DFB7
Copy CRC 9E64DFB7
Accurately ripped (confidence 6) [D5098366] (AR v2)
Copy OK

Track 9

Filename C:\pth\rips\Peggy Lee - 1960 - Christmas Carousel (1990 CD) [FLAC] {CDP 7 94450 2}\09 The Christmas Riddle.wav

Pre-gap length 0:00:01.23

Peak level 83.3 %
Extraction speed 1.6 X
Track quality 100.0 %
Test CRC 1F51D0CA
Copy CRC 1F51D0CA
Accurately ripped (confidence 6) [6F2B4DBE] (AR v2)
Copy OK

Track 10

Filename C:\pth\rips\Peggy Lee - 1960 - Christmas Carousel (1990 CD) [FLAC] {CDP 7 94450 2}\10 The Tree.wav

Pre-gap length 0:00:01.18

Peak level 82.2 %
Extraction speed 1.4 X
Track quality 100.0 %
Test CRC 6FC9FE77
Copy CRC 6FC9FE77
Accurately ripped (confidence 6) [03212F4F] (AR v2)
Copy OK

Track 11

Filename C:\pth\rips\Peggy Lee - 1960 - Christmas Carousel (1990 CD) [FLAC] {CDP 7 94450 2}\11 Deck The Halls.wav

Pre-gap length 0:00:01.42

Peak level 68.1 %
Extraction speed 1.5 X
Track quality 100.0 %
Test CRC 7BCCB129
Copy CRC 7BCCB129
Accurately ripped (confidence 6) [3658CC73] (AR v2)
Copy OK

Track 12

Filename C:\pth\rips\Peggy Lee - 1960 - Christmas Carousel (1990 CD) [FLAC] {CDP 7 94450 2}\12 White Christmas.wav

Pre-gap length 0:00:01.17

Peak level 65.3 %
Extraction speed 1.5 X
Track quality 100.0 %
Test CRC F05B3ED0
Copy CRC F05B3ED0
Accurately ripped (confidence 6) [03D66171] (AR v2)
Copy OK

Track 13

Filename C:\pth\rips\Peggy Lee - 1960 - Christmas Carousel (1990 CD) [FLAC] {CDP 7 94450 2}\13 Winter Wonderland.wav

Pre-gap length 0:00:01.35

Peak level 99.2 %
Extraction speed 1.5 X
Track quality 100.0 %
Test CRC 2249FE9B
Copy CRC 2249FE9B
Accurately ripped (confidence 6) [A87EA961] (AR v2)
Copy OK

Track 14

Filename C:\pth\rips\Peggy Lee - 1960 - Christmas Carousel (1990 CD) [FLAC] {CDP 7 94450 2}\14 Little Drummer Boy.wav

Pre-gap length 0:00:01.12

Peak level 52.0 %
Extraction speed 1.4 X
Track quality 99.9 %
Test CRC FFC888FB
Copy CRC FFC888FB
Accurately ripped (confidence 6) [423C56B3] (AR v2)
Copy OK

Track 15

Filename C:\pth\rips\Peggy Lee - 1960 - Christmas Carousel (1990 CD) [FLAC] {CDP 7 94450 2}\15 Happy Holiday.wav

Pre-gap length 0:00:01.23

Peak level 98.9 %
Extraction speed 1.3 X
Track quality 99.9 %
Test CRC 03021CCA
Copy CRC 03021CCA
Accurately ripped (confidence 6) [FA272B07] (AR v2)
Copy OK

Track 16

Filename C:\pth\rips\Peggy Lee - 1960 - Christmas Carousel (1990 CD) [FLAC] {CDP 7 94450 2}\16 The Christmas Spell.wav

Pre-gap length 0:00:01.28

Peak level 57.9 %
Extraction speed 1.9 X
Track quality 100.0 %
Test CRC 588E3B45
Copy CRC 588E3B45
Accurately ripped (confidence 6) [A6BF0E16] (AR v2)
Copy OK

Track 17

Filename C:\pth\rips\Peggy Lee - 1960 - Christmas Carousel (1990 CD) [FLAC] {CDP 7 94450 2}\17 Toys for Tots.wav

Pre-gap length 0:00:02.25

Peak level 47.4 %
Extraction speed 1.7 X
Track quality 100.0 %
Test CRC CD41F2D5
Copy CRC CD41F2D5
Accurately ripped (confidence 6) [060F934E] (AR v2)
Copy OK


All tracks accurately ripped

No errors occurred

End of status report

–– CUETools DB Plugin V2.1.6

[CTDB TOCID: Q6wzSxkhbCyBPItWTpEuTVcJhA0-] found
Submit result: Q6wzSxkhbCyBPItWTpEuTVcJhA0- has been confirmed
Track | CTDB Status
1 | (4/4) Accurately ripped
2 | (4/4) Accurately ripped
3 | (4/4) Accurately ripped
4 | (4/4) Accurately ripped
5 | (4/4) Accurately ripped
6 | (4/4) Accurately ripped
7 | (4/4) Accurately ripped
8 | (4/4) Accurately ripped
9 | (4/4) Accurately ripped
10 | (4/4) Accurately ripped
11 | (4/4) Accurately ripped
12 | (4/4) Accurately ripped
13 | (4/4) Accurately ripped
14 | (4/4) Accurately ripped
15 | (4/4) Accurately ripped
16 | (4/4) Accurately ripped
17 | (4/4) Accurately ripped


==== Log checksum 755B18CF982A66BA4E799EEDC71F35A6DBC457477C1C10D98E1E1CB3900038F5 ====