Subcategories

Penguin Cafe Orchestra - Penguin Cafe Orchestra (1981) [2015, Universal Music Japan, UICY-40149]

Posted By: v3122
Penguin Cafe Orchestra - Penguin Cafe Orchestra (1981) [2015, Universal Music Japan, UICY-40149]

Penguin Cafe Orchestra - Penguin Cafe Orchestra (1981)
EAC | Flac(Image) + Cue + Log & MP3 CBR 320Kbps
Universal Music Japan, UICY-40149 | ~ 297 or 115 Mb | Scans(png) -> 159 Mb
Progressive Rock

The sophomore album from Simon Jeffes' homegrown band took over three years to record, but the signs are here that it was a labor of love. While drawing compositional and textural inspiration from both English folk and chamber music, it manages to sound like neither and a wondrous hybrid of both. "Walk Don't Run," a cover of the Ventures' classic, turns from a surf tune into a merry jig of sorts, with the violins and cellos playing the melody backed by drums, bongos, and shakers. "Telephone and Rubber Band" turns a busy signal into something full of beauty and joy. Unfailingly romantic, sunny music and an album that set the tone of all further PCO releases.

by Ted Mills, AMG
Penguin Cafe Orchestra - Penguin Cafe Orchestra (1981) [2015, Universal Music Japan, UICY-40149]


Penguin Cafe Orchestra - Penguin Cafe Orchestra (1981):

Penguin Cafe Orchestra - Penguin Cafe Orchestra (1981) [2015, Universal Music Japan, UICY-40149]

Tracklist:

01 Air À Danser
02 Yodel 1
03 Telephone And Rubber Band
04 Cutting Branches For A Temporary Shelter
05 Pythagora's Trousers
06 Numbers 1 To 4
07 Yodel 2
08 Salty Bean Fumble
09 Paul's Dance
10 The Ecstasy Of Dancing Fleas
11 Walk Don't Run
12 Flux
13 Simon's Dream
14 Harmonic Necklace
15 Steady State

Exact Audio Copy V1.1 from 23. June 2015

EAC extraction logfile from 11. July 2015, 20:11

Penguin Cafe Orchestra / Penguin Cafe Orchestra PT-SHM

Used drive : PLEXTOR BD-R PX-B950SA Adapter: 1 ID: 1

Read mode : Secure
Utilize accurate stream : Yes
Defeat audio cache : Yes
Make use of C2 pointers : No

Read offset correction : 6
Overread into Lead-In and Lead-Out : No
Fill up missing offset samples with silence : Yes
Delete leading and trailing silent blocks : No
Null samples used in CRC calculations : Yes
Used interface : Native Win32 interface for Win NT & 2000

Used output format : Internal WAV Routines
Sample format : 44.100 Hz; 16 Bit; Stereo


TOC of the extracted CD

Track | Start | Length | Start sector | End sector
––––––––––––––––––––––––––––-
1 | 0:00.00 | 4:32.20 | 0 | 20419
2 | 4:32.20 | 4:09.47 | 20420 | 39141
3 | 8:41.67 | 2:29.45 | 39142 | 50361
4 | 11:11.37 | 3:09.28 | 50362 | 64564
5 | 14:20.65 | 3:21.70 | 64565 | 79709
6 | 17:42.60 | 6:58.70 | 79710 | 111129
7 | 24:41.55 | 4:36.65 | 111130 | 131894
8 | 29:18.45 | 2:14.12 | 131895 | 141956
9 | 31:32.57 | 1:46.40 | 141957 | 149946
10 | 33:19.22 | 4:01.25 | 149947 | 168046
11 | 37:20.47 | 3:02.35 | 168047 | 181731
12 | 40:23.07 | 1:49.10 | 181732 | 189916
13 | 42:12.17 | 1:48.63 | 189917 | 198079
14 | 44:01.05 | 1:13.47 | 198080 | 203601
15 | 45:14.52 | 3:35.53 | 203602 | 219779


Range status and errors

Selected range

Filename C:\Users\Meijin\Desktop\ALLexxess\Penguin Cafe Orchestra\1981 Penguin Cafe Orchestra (Mini LP PT-SHM Universal Japan 2015)\Penguin Cafe Orchestra - Penguin Cafe Orchestra PT-SHM.wav

Peak level 98.2 %
Extraction speed 6.9 X
Range quality 100.0 %
Test CRC 2A77BEDC
Copy CRC 2A77BEDC
Copy OK

No errors occurred


AccurateRip summary

Track 1 not present in database
Track 2 not present in database
Track 3 not present in database
Track 4 not present in database
Track 5 not present in database
Track 6 not present in database
Track 7 not present in database
Track 8 not present in database
Track 9 not present in database
Track 10 not present in database
Track 11 not present in database
Track 12 not present in database
Track 13 not present in database
Track 14 not present in database
Track 15 not present in database

None of the tracks are present in the AccurateRip database

End of status report

–– CUETools DB Plugin V2.1.6

[CTDB TOCID: y5fFlqoAIo3jGSvdzWGI.Qgbvq8-] found
Submit result: y5fFlqoAIo3jGSvdzWGI.Qgbvq8- has been confirmed
Track | CTDB Status
1 | (1/1) Accurately ripped
2 | (1/1) Accurately ripped
3 | (1/1) Accurately ripped
4 | (1/1) Accurately ripped
5 | (1/1) Accurately ripped
6 | (1/1) Accurately ripped
7 | (1/1) Accurately ripped
8 | (1/1) Accurately ripped
9 | (1/1) Accurately ripped
10 | (1/1) Accurately ripped
11 | (1/1) Accurately ripped
12 | (1/1) Accurately ripped
13 | (1/1) Accurately ripped
14 | (1/1) Accurately ripped
15 | (1/1) Accurately ripped


==== Log checksum 8D8211463FC3F92129DCD0FD70FA812D5D120526CFDB74E87DFE8363A730F45F ====

foobar2000 1.2.9 / Dynamic Range Meter 1.1.1
log date: 2015-07-18 15:31:00

––––––––––––––––––––––––––––––––––––––––
Analyzed: Penguin Cafe Orchestra / Penguin Cafe Orchestra PT-SHM
––––––––––––––––––––––––––––––––––––––––

DR Peak RMS Duration Track
––––––––––––––––––––––––––––––––––––––––
DR12 -3.10 dB -18.13 dB 4:32 01-Air A Danser
DR15 -4.96 dB -24.08 dB 4:10 02-Yodel 1
DR16 -2.89 dB -19.79 dB 2:30 03-Telephone And Rubber Band
DR10 -8.49 dB -21.92 dB 3:09 04-Cutting Branches For A Temporary Shelter
DR12 -3.60 dB -16.83 dB 3:22 05-Pythagoras's Trousers
DR12 -4.36 dB -19.41 dB 6:59 06-Numbers 1 To 4
DR13 -2.54 dB -19.95 dB 4:37 07-Yodel 2
DR12 -4.87 dB -19.73 dB 2:14 08-Salty Bean Fumble
DR12 -4.57 dB -19.32 dB 1:47 09-Paul's Dance
DR13 -0.15 dB -15.14 dB 4:01 10-The Ecstasy Of Dancing Fleas
DR12 -0.70 dB -17.10 dB 3:02 11-Walk Don't Run
DR12 -5.12 dB -21.27 dB 1:49 12-Flux
DR12 -5.40 dB -19.57 dB 1:49 13-Simon's Dream
DR13 -10.18 dB -27.79 dB 1:14 14-Harmonic Necklace
DR12 -2.66 dB -17.41 dB 3:36 15-Steady State
––––––––––––––––––––––––––––––––––––––––

Number of tracks: 15
Official DR value: DR12

Samplerate: 44100 Hz
Channels: 2
Bits per sample: 16
Bitrate: 822 kbps
Codec: FLAC

[CUETools log; Date: 18.07.2015 15:30:42; Version: 2.1.4]
[CTDB TOCID: y5fFlqoAIo3jGSvdzWGI.Qgbvq8-] found.
Track | CTDB Status
1 | (2/2) Accurately ripped
2 | (2/2) Accurately ripped
3 | (2/2) Accurately ripped
4 | (2/2) Accurately ripped
5 | (2/2) Accurately ripped
6 | (2/2) Accurately ripped
7 | (2/2) Accurately ripped
8 | (2/2) Accurately ripped
9 | (2/2) Accurately ripped
10 | (2/2) Accurately ripped
11 | (2/2) Accurately ripped
12 | (2/2) Accurately ripped
13 | (2/2) Accurately ripped
14 | (2/2) Accurately ripped
15 | (2/2) Accurately ripped
[AccurateRip ID: 001dc24e-0149c905-bf0b720f] disk not present in database.

Track Peak [ CRC32 ] [W/O NULL] [ LOG ]
– 98,2 [2A77BEDC] [0DF83C34] CRC32
01 69,9 [F120DB40] [30072AF1]
02 56,5 [70F87761] [18E54B48]
03 71,7 [E796D4CC] [1142CB79]
04 37,6 [78EB43ED] [154799AF]
05 66,0 [D49279EB] [3FA16E05]
06 60,5 [8F7F4A8A] [30200837]
07 74,6 [3046286F] [FAB14FB6]
08 57,0 [BFB5516A] [C3D5DA5D]
09 59,1 [C6278466] [C147E84F]
10 98,2 [301B165F] [56284BC0]
11 92,2 [C5ACF25D] [FF1A2450]
12 55,4 [28307430] [729E148D]
13 53,7 [2AFAE151] [2DE3BBA6]
14 30,9 [2A296E91] [3A880B8D]
15 73,6 [C4990BE6] [BC22B7CB]

Penguin Cafe Orchestra - Penguin Cafe Orchestra (1981) [2015, Universal Music Japan, UICY-40149]

All thanks go to ALLexxess

Download Penguin Cafe Orchestra - Penguin Cafe Orchestra (1981):