Subcategories

Pepe Romero - Master of The Guitar (2013) (11 CDs Box Set)

Posted By: murena
Pepe Romero - Master of The Guitar (2013) (11 CDs Box Set)

Pepe Romero - Master of The Guitar (2013) (11 CDs Box Set)
EAC Rip | FLAC (Image+.cue, log) | 11 CDs, 13:54:52 min | Covers included | 3,06 Gb
Genre: Classical / Label: Decca

A handsome 11 CD box set honouring the unique art of Pepe Romero, who celebrates his 70th birthday in 2014. This set offers a broad spectrum of Pepe s art from various periods in his career. It moves from the Baroque through to twentieth-century works and features solo, chamber and orchestral performances.

From his stylish interpretations of Bach and Vivaldi [CD 1], to the first recordings of Giulani s three Guitar Concertos [CD 5], the set arrives at its Spanish heart. There are three CDs [8 10] dedicated to the music of Romero family friend Rodrigo, including arguably the finest version still available of his most famous and popular concerto, the Concierto de Aranjuez, and his last concerto, the Concierto para un fiesta written especially for Pepe Romero in 1982/3.

Pepe Romero - Master of The Guitar (2013) (11 CDs Box Set)


Tracklist:

CD1
01 Partita For Violin Solo No.2 In D Minor BWV 1004 - Guitar Transcription by Pepe Romero (1944-) 1. Allemande
02 Partita for Violin Solo No.2 in D minor BWV 1004 - Guitar Transcription by Pepe Romero (1944-) 2. Courante
03 Partita for Violin Solo No.2 in D minor BWV 1004 - Guitar Transcription by Pepe Romero (1944-) 3. Sarabande
04 Partita for Violin Solo No.2 in D minor BWV 1004 - Guitar Transcription by Pepe Romero (1944-) 4. Gigue
05 Partita for Violin Solo No.2 in D minor BWV 1004 - Guitar Transcription by Pepe Romero (1944-) 5. Chaconne
06 Suite for Cello Solo No.3 in C BWV 1009 - Guitar Transcription by Pepe Romero (1944-) 1. Prélude
07 Suite for Cello Solo No.3 in C BWV 1009 - Guitar Transcription by Pepe Romero (1944-) 2. Allemande
08 Suite for Cello Solo No.3 in C BWV 1009 - Guitar Transcription by Pepe Romero (1944-) 3. Courante
09 Suite for Cello Solo No.3 in C BWV 1009 - Guitar Transcription by Pepe Romero (1944-) 4. Sarabande
10 Suite for Cello Solo No.3 in C BWV 1009 - Guitar Transcription by Pepe Romero (1944-) 5. Bourrée I-II
11 Suite for Cello Solo No.3 in C BWV 1009 - Guitar Transcription by Pepe Romero (1944-) 6. Gigue
12 Mandolin Concerto In C RV 425 1. Allegro
13 Mandolin Concerto In C RV 425 2. Largo
14 Mandolin Concerto In C RV 425 3. (Allegro)
15 Concerto For 2 Mandolins Strings And Continuo In G RV 532 1. Allegro
16 Concerto For 2 Mandolins Strings And Continuo In G RV 532 2. Andante
17 Concerto For 2 Mandolins Strings And Continuo In G RV 532 3. Allegro

CD2
01 Quintet No.1 for Guitar and Strings in D minor G.445 1. Allegro moderato
02 Quintet No.1 for Guitar and Strings in D minor G.445 2. Cantabile
03 Quintet No.1 for Guitar and Strings in D minor G.445 3. Minuetto
04 Quintet No.1 for Guitar and Strings in D minor G.445 4. Finale (Allegro assai
05 Quintet No.3 for Guitar and Strings in B flat G.447 1. Allegro moderato
06 Quintet No.3 for Guitar and Strings in B flat G.447 2. Tempo di minuetto
07 Quintet No.3 for Guitar and Strings in B flat G.447 3. Adagio
08 Quintet No.3 for Guitar and Strings in B flat G.447 4. Allegro
09 Quintet No.5 for Guitar and Strings in D 1. Andantino pausato
10 Quintet No.5 for Guitar and Strings in D 2. Minuetto (Allegro)
11 Quintet No.5 for Guitar and Strings in D 3. Allegro giusto
12 Quintet No.5 for Guitar and Strings in D 4. Andantino pausato con variazioni - Allegro giusto
13 Quintet No.7 for Guitar and Strings in E minor G.451 1. Allegro moderato
14 Quintet No.7 for Guitar and Strings in E minor G.451 2. Adagio
15 Quintet No.7 for Guitar and Strings in E minor G.451 3. Minuetto
16 Quintet No.7 for Guitar and Strings in E minor G.451 4. Allegretto

CD3
01 Quintet No.2 for Guitar and Strings in E G.446 1. Maestoso assai
02 Quintet No.2 for Guitar and Strings in E G.446 2. Adagio - Allegretto
03 Quintet No.2 for Guitar and Strings in E G.446 3. Polacca (Tempo di minuetto)
04 Quintet No.4 for Guitar and Strings in D G.448 - Fandango 1. Pastorale
05 Quintet No.4 for Guitar and Strings in D G.448 - Fandango 2. Allegro maestoso
06 Quintet No.4 for Guitar and Strings in D G.448 - Fandango 3. Grave assai - 4. Fandango
07 Quintet No.6 for Guitar and Strings in G G.450 1. Allegro con vivacità
08 Quintet No.6 for Guitar and Strings in G G.450 2. Andantino lento
09 Quintet No.6 for Guitar and Strings in G G.450 3. Tempo di minuetto
10 Quintet No.6 for Guitar and Strings in G G.450 4. Allegretto
11 Quintet No.9 for Guitar and Strings in C G.453 -La ritirata di Madrid 1. Allegro maestoso assai
12 Quintet No.9 for Guitar and Strings in C G.453 -La ritirata di Madrid 2. Andantino
13 Quintet No.9 for Guitar and Strings in C G.453 -La ritirata di Madrid 3. Allegretto
14 Quintet No.9 for Guitar and Strings in C G.453 -La ritirata di Madrid 4. La ritirata di Madrid

CD4
01 Guitar Concerto in E minor Op.140 Petit Concerto de Société 1. Allegro
02 Guitar Concerto in E minor Op.140 Petit Concerto de Société 2. Largo
03 Guitar Concerto in E minor Op.140 Petit Concerto de Société 3. Allegro
04 Adagio for Violin and Orchestra in E K.261 - Arr. for Guitar and Orchestra by Pepe Romero
05 Guitar Concerto in E minor Op.56 1. Allegro maestoso
06 Guitar Concerto in E minor Op.56 2. Tema con due variationi (Maestoso molto)
07 Guitar Concerto in E minor Op.56 3. Rondo (Allegro)
08 Rondo for Violin and Orchestra in C K.373 - Arr. for Guitar and Orchestra by Pepe Romero
09 Guitar Concerto in A Op.8a 1. Allegro
10 Guitar Concerto in A Op.8a 2. Polonaise

CD5
01 Guitar Concerto No.1 in A Op.30 1. Allegro maestoso
02 Guitar Concerto No.1 in A Op.30 2. Andantino (Siciliano)
03 Guitar Concerto No.1 in A Op.30 3. Polonaise (Allegretto)
04 Guitar Concerto No.2 in A Op.36 1. Maestoso
05 Guitar Concerto No.2 in A Op.36 2. Andantino
06 Guitar Concerto No.2 in A Op.36 3. Rondo (Allegretto)
07 Guitar Concerto No.3 in F Op.70 1. Allegro moderato
08 Guitar Concerto No.3 in F Op.70 2. Andantino alla Siciliana con variazioni
09 Guitar Concerto No.3 in F Op.70 3. Polonaise (Allegretto)

CD6
01 Concierto Iberico 1. Allegretto
02 Concierto Iberico 2. Andante - Allegro moderato - Andante
03 Concierto Iberico 3. Allegro moderato - Lento - Allegro moderato
04 Dialogos A. Allegretto mosso
05 Dialogos B. Andantino mosso
06 Dialogos C. Andante
07 Dialogos D. Allegro
08 Suite castellana Fandanguillo
09 Suite castellana Arada
10 Suite castellana Danza
11 Concierto de Málaga for Guitar and Orchestra orchestral parts prep. by Moreno Torroba 1. Allegretto vivace - Allegro - Allegro molto
12 Concierto de Málaga for Guitar and Orchestra orchestral parts prep. by Moreno Torroba 2. Andante - Allegretto - Allegro - Allegretto
13 Concierto de Málaga for Guitar and Orchestra orchestral parts prep. by Moreno Torroba 3. Tangos y Tientos (Allegretto - Largo - Allegro)

CD7
01 Concerto for Guitar and small Orchestra 1. Allegro preciso
02 Concerto for Guitar and small Orchestra 2. Andantino e andante
03 Concerto for Guitar and small Orchestra 3. Allegretto non troppo
04 Chôro No.1
05 Etude No.1 in E minor
06 5 Preludes No. 1 in E minor
07 5 Preludes No. 2 in E
08 5 Preludes No. 3 in A minor
09 5 Preludes No. 4 in E minor
10 5 Preludes No. 5 in D
11 Suite populaire brésilienne W020 1. Mazurka-Chôrô
12 Suite populaire brésilienne W020 2. Schottish-Chôrô
13 Suite populaire brésilienne W020 3. Valsa-Chôrô
14 Suite populaire brésilienne W020 4. Gavota-Chôrô
15 Suite populaire brésilienne W020 5. Chôrinho
16 Misionera
17 Una limosna por el amor de Dios
18 2 Temas Populares Cubanos Canción de cuna (Berceuse)
19 2 Aires Populares Cubanos 1. Guajira criolla
20 2 Aires Populares Cubanos 2. Zapateado

CD8
01 Concierto de Aranjuez for Guitar and Orchestra 1. Allegro con spirito
02 Concierto de Aranjuez for Guitar and Orchestra 2. Adagio
03 Concierto de Aranjuez for Guitar and Orchestra 3. Allegro gentile
04 Fantasía para un gentilhombre for Guitar and Small Orchestra 1. Villano y Ricercare (Adagietto - Andante moderato)
05 Fantasía para un gentilhombre for Guitar and Small Orchestra 2. Españoleta y Fanfare de la Caballería de Nápoles (Adagio - Allegretto molto ritmico)
06 Fantasía para un gentilhombre for Guitar and Small Orchestra 3. Danza de las hachas (Allegro con brio)
07 Fantasía para un gentilhombre for Guitar and Small Orchestra 4. Canario (Allegro ma non troppo)
08 Cançoneta for Violin and Orchestra
09 Invocación y danza 1. Moderato
10 Invocación y danza 2. Allegro moderato Polo
11 Tres Pequeñas Piezas 1. Ya se van los pastores
12 Tres Pequeñas Piezas 2. Por caminos de Santiago
13 Tres Pequeñas Piezas 3. Pequeña sevillana

CD9
01 Concierto para una fiesta for Guitar and Orchestra 1. Allegro deciso
02 Concierto para una fiesta for Guitar and Orchestra 2. Andante calmo
03 Concierto para una fiesta for Guitar and Orchestra 3. Allegro moderato
04 En los Trigales
05 Sonata a la Española 1. Allegro assai
06 Sonata a la Española 2. Adagio
07 Sonata a la Española 3. Allegro moderato (Tiempo de bolero)
08 Tiento antiguo
09 Junto al Generalife
10 Fandango
11 3 Petites Pièces 1. Ya se van los pastores
12 3 Petites Pièces 2. Por caminos de Santiago
13 3 Petites Pièces 3. Pequeña sevillana
14 Bajando de la Meseta
15 Romance de Durandarte

CD10
01 Concierto Madrigal for 2 Guitars and Orchestra Fanfarre (Allegro marziale)
02 Concierto Madrigal for 2 Guitars and Orchestra Madrigal (Andante nostalgico)
03 Concierto Madrigal for 2 Guitars and Orchestra Entrada (Allegro vivace)
04 Concierto Madrigal for 2 Guitars and Orchestra Pastorcito tu que vienes pastorcito tu que vas (Allegro vivace)
05 Concierto Madrigal for 2 Guitars and Orchestra Girardilla (Presto)
06 Concierto Madrigal for 2 Guitars and Orchestra Pastoral (Allegro)
07 Concierto Madrigal for 2 Guitars and Orchestra Fandango
08 Concierto Madrigal for 2 Guitars and Orchestra Arieta (Andante nostalgico)
09 Concierto Madrigal for 2 Guitars and Orchestra Zapateado (Allegro vivace)
10 Concierto Madrigal for 2 Guitars and Orchestra Caccia a la española (Allegro vivace - Andante nostalgico
11 Concierto Andaluz For 4 Guitars And Orchestra 1. Tiempo de Bolero
12 Concierto Andaluz for 4 Guitars and Orchestra 2. Adagio
13 Concierto Andaluz for 4 Guitars and Orchestra 3. Allegretto
14 Sones en la Giralda 1. Lento -
15 Sones en la Giralda 2. Allegro vivace (Tempo di sevillana)
16 Guitar Concerto No.1 in D Op.99 1. Allegretto
17 Guitar Concerto No.1 in D Op.99 2. Andantino alla romanza - Largo
18 Guitar Concerto No.1 in D Op.99 3. Ritmico e cavalleresco

CD11
01 Jeux interdits (Romance)
02 Suite española Op.47 Asturias (Leyenda)
03 Tango Op.165 No.2
04 Malagueña Op.165 No.3
05 Suite española Op.47 - Transcr. Francisco Tárrega-Pepe Romero Sevilla (Sevillanas)
06 Suite española Op.47 - Transcr. Celedonio Romero Granada (Serenata)
07 Suite española Op.47 - Transcr. Pepe Romero Cádiz (Canción) (Op. 181)
08 Mallorca Op.202 - transcr. Marc Switzer
09 Córdoba Op.232 No.4 - transcr. Pepe Romero
10 Rumores de la caleta Op.71 No.6 - transcr. Pepe Romero
11 Canción del fuego fatuo (El Amor Brujo)
12 Danza del Molinero (El Sombrero de Tres Picos)
13 Danza Española Op.37 No.5 - Andaluza
14 Danza Española Op.37 No.4 - Villanesca
15 Danza Española Op.37 No.2 - Oriental
16 Intermedio (Goyescas)
17 Capricho árabe
18 Tres Preludios Romantico
19 Tres Preludios Plegaria
20 Tres Preludios Aleluya

CD1
Exact Audio Copy V1.3 from 2. September 2016

EAC extraction logfile from 21. June 2018, 17:59

Pepe Romero / Master Of The Guitar CD01

Used drive : PIONEER BD-RW BDR-208D Adapter: 1 ID: 1

Read mode : Secure
Utilize accurate stream : Yes
Defeat audio cache : Yes
Make use of C2 pointers : No

Read offset correction : 667
Overread into Lead-In and Lead-Out : No
Fill up missing offset samples with silence : Yes
Delete leading and trailing silent blocks : No
Null samples used in CRC calculations : Yes
Used interface : Native Win32 interface for Win NT & 2000

Used output format : Internal WAV Routines
Sample format : 44.100 Hz; 16 Bit; Stereo


TOC of the extracted CD

Track | Start | Length | Start sector | End sector
––––––––––––––––––––––––––––-
1 | 0:00.00 | 3:51.52 | 0 | 17376
2 | 3:51.52 | 2:47.05 | 17377 | 29906
3 | 6:38.57 | 4:12.41 | 29907 | 48847
4 | 10:51.23 | 4:37.42 | 48848 | 69664
5 | 15:28.65 | 12:59.44 | 69665 | 128133
6 | 28:28.34 | 3:40.56 | 128134 | 144689
7 | 32:09.15 | 3:41.21 | 144690 | 161285
8 | 35:50.36 | 3:12.74 | 161286 | 175759
9 | 39:03.35 | 4:03.61 | 175760 | 194045
10 | 43:07.21 | 3:41.62 | 194046 | 210682
11 | 46:49.08 | 3:17.19 | 210683 | 225476
12 | 50:06.27 | 2:36.16 | 225477 | 237192
13 | 52:42.43 | 2:44.31 | 237193 | 249523
14 | 55:26.74 | 2:20.18 | 249524 | 260041
15 | 57:47.17 | 3:59.71 | 260042 | 278037
16 | 61:47.13 | 3:29.43 | 278038 | 293755
17 | 65:16.56 | 3:31.45 | 293756 | 309625


Range status and errors

Selected range

Filename C:\Pepe Romero - Master of The Guitar (11CD, Decca, 2013)\CD01\Master Of The Guitar CD01.wav

Peak level 80.7 %
Extraction speed 7.4 X
Range quality 100.0 %
Copy CRC 174DDE12
Copy OK

No errors occurred


AccurateRip summary

Track 1 accurately ripped (confidence 7) [AA9EF87C] (AR v2)
Track 2 accurately ripped (confidence 7) [D0210E3E] (AR v2)
Track 3 accurately ripped (confidence 7) [B2308F09] (AR v2)
Track 4 accurately ripped (confidence 6) [E21C8D0A] (AR v2)
Track 5 accurately ripped (confidence 7) [09D6F029] (AR v2)
Track 6 accurately ripped (confidence 7) [07A7F2C5] (AR v2)
Track 7 accurately ripped (confidence 7) [2C60F3DA] (AR v2)
Track 8 accurately ripped (confidence 7) [0D40AE06] (AR v2)
Track 9 accurately ripped (confidence 7) [32DC7FEB] (AR v2)
Track 10 accurately ripped (confidence 7) [04E1DE6F] (AR v2)
Track 11 accurately ripped (confidence 7) [4C6078BD] (AR v2)
Track 12 accurately ripped (confidence 7) [3C539BF7] (AR v2)
Track 13 accurately ripped (confidence 7) [887FCDD6] (AR v2)
Track 14 accurately ripped (confidence 7) [57B91613] (AR v2)
Track 15 accurately ripped (confidence 7) [7FA2EB13] (AR v2)
Track 16 accurately ripped (confidence 7) [B4C561E6] (AR v2)
Track 17 accurately ripped (confidence 7) [777C37FC] (AR v2)

All tracks accurately ripped

End of status report

–– CUETools DB Plugin V2.1.6

[CTDB TOCID: tBxKN9kvxzsOeMdhPQ6asVCKd0I-] found
Submit result: tBxKN9kvxzsOeMdhPQ6asVCKd0I- has been confirmed
Track | CTDB Status
1 | (19/20) Accurately ripped
2 | (20/20) Accurately ripped
3 | (20/20) Accurately ripped
4 | (20/20) Accurately ripped
5 | (20/20) Accurately ripped
6 | (19/20) Accurately ripped
7 | (20/20) Accurately ripped
8 | (20/20) Accurately ripped
9 | (20/20) Accurately ripped
10 | (20/20) Accurately ripped
11 | (20/20) Accurately ripped
12 | (20/20) Accurately ripped
13 | (20/20) Accurately ripped
14 | (20/20) Accurately ripped
15 | (20/20) Accurately ripped
16 | (18/20) Accurately ripped
17 | (20/20) Accurately ripped



CD2
Exact Audio Copy V1.3 from 2. September 2016

EAC extraction logfile from 21. June 2018, 18:31

Pepe Romero / Master Of The Guitar CD02

Used drive : PIONEER BD-RW BDR-208D Adapter: 1 ID: 1

Read mode : Secure
Utilize accurate stream : Yes
Defeat audio cache : Yes
Make use of C2 pointers : No

Read offset correction : 667
Overread into Lead-In and Lead-Out : No
Fill up missing offset samples with silence : Yes
Delete leading and trailing silent blocks : No
Null samples used in CRC calculations : Yes
Used interface : Native Win32 interface for Win NT & 2000

Used output format : Internal WAV Routines
Sample format : 44.100 Hz; 16 Bit; Stereo


TOC of the extracted CD

Track | Start | Length | Start sector | End sector
––––––––––––––––––––––––––––-
1 | 0:00.33 | 5:25.00 | 33 | 24407
2 | 5:25.33 | 4:16.00 | 24408 | 43607
3 | 9:41.33 | 4:25.00 | 43608 | 63482
4 | 14:06.33 | 3:48.00 | 63483 | 80582
5 | 17:54.33 | 7:32.00 | 80583 | 114482
6 | 25:26.33 | 5:34.00 | 114483 | 139532
7 | 31:00.33 | 4:19.00 | 139533 | 158957
8 | 35:19.33 | 6:22.00 | 158958 | 187607
9 | 41:41.33 | 5:23.00 | 187608 | 211832
10 | 47:04.33 | 3:20.00 | 211833 | 226832
11 | 50:24.33 | 2:12.00 | 226833 | 236732
12 | 52:36.33 | 7:01.00 | 236733 | 268307
13 | 59:37.33 | 4:59.00 | 268308 | 290732
14 | 64:36.33 | 3:42.00 | 290733 | 307382
15 | 68:18.33 | 4:17.00 | 307383 | 326657
16 | 72:35.33 | 5:35.00 | 326658 | 351782


Range status and errors

Selected range

Filename C:\Pepe Romero - Master of The Guitar (11CD, Decca, 2013)\CD02\Master Of The Guitar CD02.wav

Peak level 99.8 %
Extraction speed 6.9 X
Range quality 99.9 %
Copy CRC 484B6DC9
Copy OK

No errors occurred


AccurateRip summary

Track 1 accurately ripped (confidence 7) [82826B61] (AR v2)
Track 2 accurately ripped (confidence 7) [6BFDE6E1] (AR v2)
Track 3 accurately ripped (confidence 7) [28EBD892] (AR v2)
Track 4 accurately ripped (confidence 7) [D10BD1DC] (AR v2)
Track 5 accurately ripped (confidence 7) [C2DA98E3] (AR v2)
Track 6 accurately ripped (confidence 7) [FC11B4F8] (AR v2)
Track 7 accurately ripped (confidence 7) [0150BE49] (AR v2)
Track 8 accurately ripped (confidence 7) [BF07E09E] (AR v2)
Track 9 accurately ripped (confidence 7) [21C3B567] (AR v2)
Track 10 accurately ripped (confidence 7) [4C3F2C98] (AR v2)
Track 11 accurately ripped (confidence 7) [6A26C695] (AR v2)
Track 12 accurately ripped (confidence 7) [67317952] (AR v2)
Track 13 accurately ripped (confidence 7) [F8D39201] (AR v2)
Track 14 accurately ripped (confidence 7) [708263B4] (AR v2)
Track 15 accurately ripped (confidence 7) [1FDED53D] (AR v2)
Track 16 accurately ripped (confidence 7) [041CAC6D] (AR v2)

All tracks accurately ripped

End of status report

–– CUETools DB Plugin V2.1.6

[CTDB TOCID: tn40T.FP6Ikzn6E06q6dk6d5dUo-] found
Submit result: tn40T.FP6Ikzn6E06q6dk6d5dUo- has been confirmed
Track | CTDB Status
1 | (64/73) Accurately ripped
2 | (64/73) Accurately ripped
3 | (64/73) Accurately ripped
4 | (64/73) Accurately ripped
5 | (64/73) Accurately ripped
6 | (64/73) Accurately ripped
7 | (64/73) Accurately ripped
8 | (63/73) Accurately ripped
9 | (63/73) Accurately ripped
10 | (63/73) Accurately ripped
11 | (63/73) Accurately ripped
12 | (63/73) Accurately ripped
13 | (63/73) Accurately ripped
14 | (63/73) Accurately ripped
15 | (62/73) Accurately ripped
16 | (60/73) Accurately ripped



CD3
Exact Audio Copy V1.3 from 2. September 2016

EAC extraction logfile from 21. June 2018, 19:01

Pepe Romero / Boccherini: The Guitar Quintets (Disc 2)

Used drive : PIONEER BD-RW BDR-208D Adapter: 1 ID: 1

Read mode : Secure
Utilize accurate stream : Yes
Defeat audio cache : Yes
Make use of C2 pointers : No

Read offset correction : 667
Overread into Lead-In and Lead-Out : No
Fill up missing offset samples with silence : Yes
Delete leading and trailing silent blocks : No
Null samples used in CRC calculations : Yes
Used interface : Native Win32 interface for Win NT & 2000

Used output format : Internal WAV Routines
Sample format : 44.100 Hz; 16 Bit; Stereo


TOC of the extracted CD

Track | Start | Length | Start sector | End sector
––––––––––––––––––––––––––––-
1 | 0:00.33 | 5:34.00 | 33 | 25082
2 | 5:34.33 | 4:02.00 | 25083 | 43232
3 | 9:36.33 | 5:48.00 | 43233 | 69332
4 | 15:24.33 | 4:35.00 | 69333 | 89957
5 | 19:59.33 | 5:07.00 | 89958 | 112982
6 | 25:06.33 | 7:32.00 | 112983 | 146882
7 | 32:38.33 | 6:07.00 | 146883 | 174407
8 | 38:45.33 | 3:07.00 | 174408 | 188432
9 | 41:52.33 | 4:35.00 | 188433 | 209057
10 | 46:27.33 | 3:48.00 | 209058 | 226157
11 | 50:15.33 | 11:03.00 | 226158 | 275882
12 | 61:18.33 | 4:08.00 | 275883 | 294482
13 | 65:26.33 | 5:25.00 | 294483 | 318857
14 | 70:51.33 | 6:59.00 | 318858 | 350282


Range status and errors

Selected range

Filename C:\Pepe Romero - Master of The Guitar (11CD, Decca, 2013)\CD03\Pepe Romero - Boccherini- The Guitar Quintets (Disc 2).wav

Peak level 100.0 %
Extraction speed 7.6 X
Range quality 100.0 %
Copy CRC D5C29FBE
Copy OK

No errors occurred


AccurateRip summary

Track 1 accurately ripped (confidence 13) [DD98856B] (AR v2)
Track 2 accurately ripped (confidence 13) [3644A7FF] (AR v2)
Track 3 accurately ripped (confidence 13) [C66AC67D] (AR v2)
Track 4 accurately ripped (confidence 13) [687C48A6] (AR v2)
Track 5 accurately ripped (confidence 13) [CF09D9E2] (AR v2)
Track 6 accurately ripped (confidence 13) [0351F571] (AR v2)
Track 7 accurately ripped (confidence 13) [6D953CED] (AR v2)
Track 8 accurately ripped (confidence 13) [AAAAA112] (AR v2)
Track 9 accurately ripped (confidence 13) [25080388] (AR v2)
Track 10 accurately ripped (confidence 13) [015375AE] (AR v2)
Track 11 accurately ripped (confidence 13) [6507D826] (AR v2)
Track 12 accurately ripped (confidence 13) [9E69F697] (AR v2)
Track 13 accurately ripped (confidence 13) [912D1783] (AR v2)
Track 14 accurately ripped (confidence 13) [846D8268] (AR v2)

All tracks accurately ripped

End of status report

–– CUETools DB Plugin V2.1.6

[CTDB TOCID: hMoqpuo1ce2kzPVplnUOmyOebA8-] found
Submit result: hMoqpuo1ce2kzPVplnUOmyOebA8- has been confirmed
Track | CTDB Status
1 | (87/96) Accurately ripped
2 | (87/96) Accurately ripped
3 | (87/96) Accurately ripped
4 | (87/96) Accurately ripped
5 | (86/96) Accurately ripped
6 | (86/96) Accurately ripped
7 | (87/96) Accurately ripped
8 | (87/96) Accurately ripped
9 | (87/96) Accurately ripped
10 | (87/96) Accurately ripped
11 | (84/96) Accurately ripped
12 | (86/96) Accurately ripped
13 | (85/96) Accurately ripped
14 | (84/96) Accurately ripped



CD4
Exact Audio Copy V1.3 from 2. September 2016

EAC extraction logfile from 21. June 2018, 19:31

Pepe Romero / Master Of The Guitar CD01

Used drive : PIONEER BD-RW BDR-208D Adapter: 1 ID: 1

Read mode : Secure
Utilize accurate stream : Yes
Defeat audio cache : Yes
Make use of C2 pointers : No

Read offset correction : 667
Overread into Lead-In and Lead-Out : No
Fill up missing offset samples with silence : Yes
Delete leading and trailing silent blocks : No
Null samples used in CRC calculations : Yes
Used interface : Native Win32 interface for Win NT & 2000

Used output format : Internal WAV Routines
Sample format : 44.100 Hz; 16 Bit; Stereo


TOC of the extracted CD

Track | Start | Length | Start sector | End sector
––––––––––––––––––––––––––––-
1 | 0:00.33 | 7:15.17 | 33 | 32674
2 | 7:15.50 | 3:02.38 | 32675 | 46362
3 | 10:18.13 | 5:17.20 | 46363 | 70157
4 | 15:35.33 | 7:11.00 | 70158 | 102482
5 | 22:46.33 | 12:13.00 | 102483 | 157457
6 | 34:59.33 | 5:13.00 | 157458 | 180932
7 | 40:12.33 | 6:51.00 | 180933 | 211757
8 | 47:03.33 | 6:54.00 | 211758 | 242807
9 | 53:57.33 | 10:46.00 | 242808 | 291257
10 | 64:43.33 | 5:34.00 | 291258 | 316307


Range status and errors

Selected range

Filename C:\Pepe Romero - Master of The Guitar (11CD, Decca, 2013)\CD04\Pepe Romero - Master Of The Guitar CD04.wav

Peak level 95.6 %
Extraction speed 7.4 X
Range quality 100.0 %
Copy CRC E4B5F7C9
Copy OK

No errors occurred


AccurateRip summary

Track 1 accurately ripped (confidence 6) [976DFC80] (AR v2)
Track 2 accurately ripped (confidence 6) [5707D005] (AR v2)
Track 3 accurately ripped (confidence 6) [81C296BE] (AR v2)
Track 4 accurately ripped (confidence 6) [42BD93ED] (AR v2)
Track 5 accurately ripped (confidence 6) [942A5B3D] (AR v2)
Track 6 accurately ripped (confidence 6) [4AA0E5EA] (AR v2)
Track 7 accurately ripped (confidence 6) [53978E6D] (AR v2)
Track 8 accurately ripped (confidence 6) [5D6C9DDE] (AR v2)
Track 9 accurately ripped (confidence 6) [650146F1] (AR v2)
Track 10 accurately ripped (confidence 6) [7A97930D] (AR v2)

All tracks accurately ripped

End of status report

–– CUETools DB Plugin V2.1.6

[CTDB TOCID: Sjk_t7EMlNwX6p_O2QmbwqPb9UA-] found
Submit result: Sjk_t7EMlNwX6p_O2QmbwqPb9UA- has been confirmed
Track | CTDB Status
1 | (40/40) Accurately ripped
2 | (40/40) Accurately ripped
3 | (40/40) Accurately ripped
4 | (40/40) Accurately ripped
5 | (38/40) Accurately ripped
6 | (40/40) Accurately ripped
7 | (40/40) Accurately ripped
8 | (40/40) Accurately ripped
9 | (39/40) Accurately ripped
10 | (40/40) Accurately ripped



CD5
Exact Audio Copy V1.3 from 2. September 2016

EAC extraction logfile from 21. June 2018, 19:54

Pepe Romero / Master Of The Guitar CD05

Used drive : PIONEER BD-RW BDR-208D Adapter: 1 ID: 1

Read mode : Secure
Utilize accurate stream : Yes
Defeat audio cache : Yes
Make use of C2 pointers : No

Read offset correction : 667
Overread into Lead-In and Lead-Out : No
Fill up missing offset samples with silence : Yes
Delete leading and trailing silent blocks : No
Null samples used in CRC calculations : Yes
Used interface : Native Win32 interface for Win NT & 2000

Used output format : Internal WAV Routines
Sample format : 44.100 Hz; 16 Bit; Stereo


TOC of the extracted CD

Track | Start | Length | Start sector | End sector
––––––––––––––––––––––––––––-
1 | 0:00.00 | 9:31.38 | 0 | 42862
2 | 9:31.38 | 6:12.68 | 42863 | 70830
3 | 15:44.31 | 6:57.07 | 70831 | 102112
4 | 22:41.38 | 15:25.45 | 102113 | 171532
5 | 38:07.08 | 6:59.61 | 171533 | 203018
6 | 45:06.69 | 9:59.21 | 203019 | 247964
7 | 55:06.15 | 13:18.64 | 247965 | 307878
8 | 68:25.04 | 6:35.21 | 307879 | 337524
9 | 75:00.25 | 7:57.26 | 337525 | 373325


Range status and errors

Selected range

Filename C:\Pepe Romero - Master of The Guitar (11CD, Decca, 2013)\CD05\Master Of The Guitar CD05.wav

Suspicious position 1:21:45

Peak level 90.2 %
Extraction speed 6.9 X
Range quality 99.9 %
Copy CRC A86F24B5
Copy finished

There were errors


AccurateRip summary

Track 1 accurately ripped (confidence 6) [78A2155F] (AR v2)
Track 2 accurately ripped (confidence 6) [2D109393] (AR v2)
Track 3 accurately ripped (confidence 6) [2F6AA28D] (AR v2)
Track 4 accurately ripped (confidence 6) [7293B6D8] (AR v2)
Track 5 accurately ripped (confidence 6) [15EA0B52] (AR v2)
Track 6 accurately ripped (confidence 6) [A07794E3] (AR v2)
Track 7 accurately ripped (confidence 6) [ACD49173] (AR v2)
Track 8 accurately ripped (confidence 6) [F08202EA] (AR v2)
Track 9 accurately ripped (confidence 6) [F8A23F04] (AR v2)

All tracks accurately ripped

End of status report

–– CUETools DB Plugin V2.1.6

[CTDB TOCID: ENXz7ltXUL6VZMp9HiPju78zyzg-] found
Submit result: ENXz7ltXUL6VZMp9HiPju78zyzg- has been confirmed
Track | CTDB Status
1 | (22/22) Accurately ripped
2 | (21/22) Accurately ripped
3 | (21/22) Accurately ripped
4 | (22/22) Accurately ripped
5 | (21/22) Accurately ripped
6 | (21/22) Accurately ripped
7 | (22/22) Accurately ripped
8 | (21/22) Accurately ripped
9 | (19/22) Accurately ripped



CD6
Exact Audio Copy V1.3 from 2. September 2016

EAC extraction logfile from 21. June 2018, 20:56

Pepe Romero / Master of the Guitar (Disc 6)

Used drive : PIONEER BD-RW BDR-208D Adapter: 1 ID: 1

Read mode : Secure
Utilize accurate stream : Yes
Defeat audio cache : Yes
Make use of C2 pointers : No

Read offset correction : 667
Overread into Lead-In and Lead-Out : No
Fill up missing offset samples with silence : Yes
Delete leading and trailing silent blocks : No
Null samples used in CRC calculations : Yes
Used interface : Native Win32 interface for Win NT & 2000

Used output format : Internal WAV Routines
Sample format : 44.100 Hz; 16 Bit; Stereo


TOC of the extracted CD

Track | Start | Length | Start sector | End sector
––––––––––––––––––––––––––––-
1 | 0:00.00 | 7:00.54 | 0 | 31553
2 | 7:00.54 | 5:55.69 | 31554 | 58247
3 | 12:56.48 | 8:14.20 | 58248 | 95317
4 | 21:10.68 | 7:31.66 | 95318 | 129208
5 | 28:42.59 | 5:15.50 | 129209 | 152883
6 | 33:58.34 | 4:50.63 | 152884 | 174696
7 | 38:49.22 | 8:20.14 | 174697 | 212210
8 | 47:09.36 | 1:42.00 | 212211 | 219860
9 | 48:51.36 | 3:40.01 | 219861 | 236361
10 | 52:31.37 | 2:34.44 | 236362 | 247955
11 | 55:06.06 | 8:27.41 | 247956 | 286021
12 | 63:33.47 | 7:19.11 | 286022 | 318957
13 | 70:52.58 | 6:34.00 | 318958 | 348507


Range status and errors

Selected range

Filename C:\Pepe Romero - Master of The Guitar (11CD, Decca, 2013)\CD06\Pepe Romero - Master of the Guitar (Disc 6).wav

Peak level 87.5 %
Extraction speed 7.5 X
Range quality 100.0 %
Copy CRC 1C656DEE
Copy OK

No errors occurred


AccurateRip summary

Track 1 accurately ripped (confidence 7) [65614774] (AR v2)
Track 2 accurately ripped (confidence 6) [032F065C] (AR v2)
Track 3 accurately ripped (confidence 7) [4583D887] (AR v2)
Track 4 accurately ripped (confidence 7) [592D6854] (AR v2)
Track 5 accurately ripped (confidence 7) [C6DE196F] (AR v2)
Track 6 accurately ripped (confidence 7) [E8AFD95E] (AR v2)
Track 7 accurately ripped (confidence 7) [7BBFA12F] (AR v2)
Track 8 accurately ripped (confidence 7) [DA4FF1FD] (AR v2)
Track 9 accurately ripped (confidence 7) [91AC42CA] (AR v2)
Track 10 accurately ripped (confidence 7) [1BCE9676] (AR v2)
Track 11 accurately ripped (confidence 7) [324B8C25] (AR v2)
Track 12 accurately ripped (confidence 7) [C1786D0E] (AR v2)
Track 13 accurately ripped (confidence 7) [91385C7C] (AR v2)

All tracks accurately ripped

End of status report

–– CUETools DB Plugin V2.1.6

[CTDB TOCID: mTgYXgiQa05764xAG8o0.hxot4Y-] found
Submit result: mTgYXgiQa05764xAG8o0.hxot4Y- has been confirmed
Track | CTDB Status
1 | (23/23) Accurately ripped
2 | (19/23) Accurately ripped, or (2/23) differs in 163 samples @00:19:32
3 | (22/23) Accurately ripped
4 | (23/23) Accurately ripped
5 | (22/23) Accurately ripped
6 | (22/23) Accurately ripped
7 | (22/23) Accurately ripped
8 | (23/23) Accurately ripped
9 | (22/23) Accurately ripped
10 | (22/23) Accurately ripped
11 | (23/23) Accurately ripped
12 | (22/23) Accurately ripped
13 | (23/23) Accurately ripped



CD7
Exact Audio Copy V1.3 from 2. September 2016

EAC extraction logfile from 22. June 2018, 7:40

Pepe Romero / Master Of The Guitar

Used drive : PIONEER BD-RW BDR-208D Adapter: 1 ID: 1

Read mode : Secure
Utilize accurate stream : Yes
Defeat audio cache : Yes
Make use of C2 pointers : No

Read offset correction : 667
Overread into Lead-In and Lead-Out : No
Fill up missing offset samples with silence : Yes
Delete leading and trailing silent blocks : No
Null samples used in CRC calculations : Yes
Used interface : Native Win32 interface for Win NT & 2000

Used output format : Internal WAV Routines
Sample format : 44.100 Hz; 16 Bit; Stereo


TOC of the extracted CD

Track | Start | Length | Start sector | End sector
––––––––––––––––––––––––––––-
1 | 0:00.00 | 5:15.11 | 0 | 23635
2 | 5:15.11 | 8:26.32 | 23636 | 61617
3 | 13:41.43 | 5:05.01 | 61618 | 84493
4 | 18:46.44 | 4:56.42 | 84494 | 106735
5 | 23:43.11 | 1:47.02 | 106736 | 114762
6 | 25:30.13 | 5:01.02 | 114763 | 137339
7 | 30:31.15 | 3:07.00 | 137340 | 151364
8 | 33:38.15 | 6:01.00 | 151365 | 178439
9 | 39:39.15 | 3:02.00 | 178440 | 192089
10 | 42:41.15 | 3:23.00 | 192090 | 207314
11 | 46:04.15 | 3:05.00 | 207315 | 221189
12 | 49:09.15 | 4:17.00 | 221190 | 240464
13 | 53:26.15 | 4:03.00 | 240465 | 258689
14 | 57:29.15 | 5:21.00 | 258690 | 282764
15 | 62:50.15 | 4:36.00 | 282765 | 303464
16 | 67:26.15 | 3:06.00 | 303465 | 317414
17 | 70:32.15 | 3:01.47 | 317415 | 331036
18 | 73:33.62 | 3:28.17 | 331037 | 346653
19 | 77:02.04 | 1:33.21 | 346654 | 353649
20 | 78:35.25 | 2:03.13 | 353650 | 362887


Range status and errors

Selected range

Filename C:\Pepe Romero - Master of The Guitar (11CD, Decca, 2013)\CD07\Pepe Romero - Master Of The Guitar.wav

Peak level 97.7 %
Extraction speed 7.6 X
Range quality 100.0 %
Copy CRC 680C9969
Copy OK

No errors occurred


AccurateRip summary

Track 1 accurately ripped (confidence 6) [8BE124EB] (AR v2)
Track 2 accurately ripped (confidence 6) [BEB8636F] (AR v2)
Track 3 accurately ripped (confidence 6) [D7D20A85] (AR v2)
Track 4 accurately ripped (confidence 6) [A6A370F5] (AR v2)
Track 5 accurately ripped (confidence 6) [F4B1D45E] (AR v2)
Track 6 accurately ripped (confidence 6) [37C13732] (AR v2)
Track 7 accurately ripped (confidence 6) [EBB0EFBA] (AR v2)
Track 8 accurately ripped (confidence 6) [EF85CC91] (AR v2)
Track 9 accurately ripped (confidence 6) [E1BBC11B] (AR v2)
Track 10 accurately ripped (confidence 6) [58190539] (AR v2)
Track 11 accurately ripped (confidence 6) [FF90ED24] (AR v2)
Track 12 accurately ripped (confidence 6) [0AF0EABA] (AR v2)
Track 13 accurately ripped (confidence 6) [E639355D] (AR v2)
Track 14 accurately ripped (confidence 6) [A1F48402] (AR v2)
Track 15 accurately ripped (confidence 6) [CE8A0D3E] (AR v2)
Track 16 accurately ripped (confidence 6) [2B1F1FEC] (AR v2)
Track 17 accurately ripped (confidence 6) [8323EDC7] (AR v2)
Track 18 accurately ripped (confidence 6) [28B4C7AC] (AR v2)
Track 19 accurately ripped (confidence 6) [E68F77A0] (AR v2)
Track 20 accurately ripped (confidence 6) [F882E6D1] (AR v2)

All tracks accurately ripped

End of status report

–– CUETools DB Plugin V2.1.6

[CTDB TOCID: _PbniJ31OvJ3ulRrERSdgR16_jg-] found
Submit result: _PbniJ31OvJ3ulRrERSdgR16_jg- has been confirmed
Track | CTDB Status
1 | (20/21) Accurately ripped
2 | (21/21) Accurately ripped
3 | (21/21) Accurately ripped
4 | (21/21) Accurately ripped
5 | (21/21) Accurately ripped
6 | (21/21) Accurately ripped
7 | (21/21) Accurately ripped
8 | (21/21) Accurately ripped
9 | (21/21) Accurately ripped
10 | (20/21) Accurately ripped
11 | (21/21) Accurately ripped
12 | (21/21) Accurately ripped
13 | (21/21) Accurately ripped
14 | (21/21) Accurately ripped
15 | (21/21) Accurately ripped
16 | (21/21) Accurately ripped
17 | (21/21) Accurately ripped
18 | (21/21) Accurately ripped
19 | (20/21) Accurately ripped
20 | (21/21) Accurately ripped



CD8
Exact Audio Copy V1.3 from 2. September 2016

EAC extraction logfile from 22. June 2018, 8:04

Pepe Romero / Master Of The Guitar (CD 8)

Used drive : PIONEER BD-RW BDR-208D Adapter: 1 ID: 1

Read mode : Secure
Utilize accurate stream : Yes
Defeat audio cache : Yes
Make use of C2 pointers : No

Read offset correction : 667
Overread into Lead-In and Lead-Out : No
Fill up missing offset samples with silence : Yes
Delete leading and trailing silent blocks : No
Null samples used in CRC calculations : Yes
Used interface : Native Win32 interface for Win NT & 2000

Used output format : Internal WAV Routines
Sample format : 44.100 Hz; 16 Bit; Stereo


TOC of the extracted CD

Track | Start | Length | Start sector | End sector
––––––––––––––––––––––––––––-
1 | 0:00.33 | 6:03.00 | 33 | 27257
2 | 6:03.33 | 11:30.00 | 27258 | 79007
3 | 17:33.33 | 5:14.00 | 79008 | 102557
4 | 22:47.33 | 4:48.37 | 102558 | 124194
5 | 27:35.70 | 9:02.38 | 124195 | 164882
6 | 36:38.33 | 2:01.20 | 164883 | 173977
7 | 38:39.53 | 4:50.55 | 173978 | 195782
8 | 43:30.33 | 2:54.00 | 195783 | 208832
9 | 46:24.33 | 4:17.15 | 208833 | 228122
10 | 50:41.48 | 4:29.60 | 228123 | 248357
11 | 55:11.33 | 2:03.00 | 248358 | 257582
12 | 57:14.33 | 2:50.00 | 257583 | 270332
13 | 60:04.33 | 3:38.00 | 270333 | 286682


Range status and errors

Selected range

Filename C:\Pepe Romero - Master of The Guitar (11CD, Decca, 2013)\CD08\Pepe Romero - Master Of The Guitar (CD 8).wav

Peak level 100.0 %
Extraction speed 7.0 X
Range quality 100.0 %
Copy CRC 2E0D6AB9
Copy OK

No errors occurred


AccurateRip summary

Track 1 accurately ripped (confidence 52) [312430BE] (AR v2)
Track 2 accurately ripped (confidence 53) [5D5C95A4] (AR v2)
Track 3 accurately ripped (confidence 53) [04B28793] (AR v2)
Track 4 accurately ripped (confidence 53) [9683AE07] (AR v2)
Track 5 accurately ripped (confidence 53) [9E804592] (AR v2)
Track 6 accurately ripped (confidence 53) [B07F0573] (AR v2)
Track 7 accurately ripped (confidence 53) [C066DB65] (AR v2)
Track 8 accurately ripped (confidence 52) [8279DB35] (AR v2)
Track 9 accurately ripped (confidence 53) [0F08E9A8] (AR v2)
Track 10 accurately ripped (confidence 53) [F9DDC42E] (AR v2)
Track 11 accurately ripped (confidence 53) [983CDF77] (AR v2)
Track 12 accurately ripped (confidence 53) [75B5D42E] (AR v2)
Track 13 accurately ripped (confidence 51) [7561E47E] (AR v2)

All tracks accurately ripped

End of status report

–– CUETools DB Plugin V2.1.6

[CTDB TOCID: f0vl5j1VYDTU7dGfXFXSLbCTVHU-] found
Submit result: f0vl5j1VYDTU7dGfXFXSLbCTVHU- has been confirmed
Track | CTDB Status
1 | (207/211) Accurately ripped
2 | (206/211) Accurately ripped
3 | (207/211) Accurately ripped
4 | (206/211) Accurately ripped
5 | (203/211) Accurately ripped
6 | (206/211) Accurately ripped
7 | (204/211) Accurately ripped
8 | (206/211) Accurately ripped
9 | (204/211) Accurately ripped
10 | (205/211) Accurately ripped
11 | (206/211) Accurately ripped
12 | (205/211) Accurately ripped
13 | (202/211) Accurately ripped, or (3/211) differs in 3 samples @03:05:08



CD9
Exact Audio Copy V1.3 from 2. September 2016

EAC extraction logfile from 22. June 2018, 8:30

Pepe Romero / Master Of The Guitar (CD 9)

Used drive : PIONEER BD-RW BDR-208D Adapter: 1 ID: 1

Read mode : Secure
Utilize accurate stream : Yes
Defeat audio cache : Yes
Make use of C2 pointers : No

Read offset correction : 667
Overread into Lead-In and Lead-Out : No
Fill up missing offset samples with silence : Yes
Delete leading and trailing silent blocks : No
Null samples used in CRC calculations : Yes
Used interface : Native Win32 interface for Win NT & 2000

Used output format : Internal WAV Routines
Sample format : 44.100 Hz; 16 Bit; Stereo


TOC of the extracted CD

Track | Start | Length | Start sector | End sector
––––––––––––––––––––––––––––-
1 | 0:00.33 | 10:19.00 | 33 | 46457
2 | 10:19.33 | 11:05.00 | 46458 | 96332
3 | 21:24.33 | 6:55.00 | 96333 | 127457
4 | 28:19.33 | 4:04.00 | 127458 | 145757
5 | 32:23.33 | 2:51.00 | 145758 | 158582
6 | 35:14.33 | 3:11.00 | 158583 | 172907
7 | 38:25.33 | 2:08.00 | 172908 | 182507
8 | 40:33.33 | 3:49.00 | 182508 | 199682
9 | 44:22.33 | 5:16.00 | 199683 | 223382
10 | 49:38.33 | 3:42.00 | 223383 | 240032
11 | 53:20.33 | 2:54.00 | 240033 | 253082
12 | 56:14.33 | 2:50.00 | 253083 | 265832
13 | 59:04.33 | 3:51.00 | 265833 | 283157
14 | 62:55.33 | 6:18.00 | 283158 | 311507
15 | 69:13.33 | 3:28.00 | 311508 | 327107


Range status and errors

Selected range

Filename C:\Pepe Romero - Master of The Guitar (11CD, Decca, 2013)\CD09\Pepe Romero - Master Of The Guitar (CD 9).wav

Peak level 99.5 %
Extraction speed 7.5 X
Range quality 100.0 %
Copy CRC 7E12DBE2
Copy OK

No errors occurred


AccurateRip summary

Track 1 accurately ripped (confidence 7) [72DF5EB2] (AR v2)
Track 2 accurately ripped (confidence 8) [D6C45D8B] (AR v2)
Track 3 accurately ripped (confidence 7) [D152406A] (AR v2)
Track 4 accurately ripped (confidence 7) [AD3C38EE] (AR v2)
Track 5 accurately ripped (confidence 7) [B1219CCF] (AR v2)
Track 6 accurately ripped (confidence 7) [39EA274A] (AR v2)
Track 7 accurately ripped (confidence 7) [87D2BD68] (AR v2)
Track 8 accurately ripped (confidence 7) [A6DE435C] (AR v2)
Track 9 accurately ripped (confidence 7) [93A358A8] (AR v2)
Track 10 accurately ripped (confidence 7) [C2BBDB26] (AR v2)
Track 11 accurately ripped (confidence 7) [1F7E5308] (AR v2)
Track 12 accurately ripped (confidence 7) [8EBCCA39] (AR v2)
Track 13 accurately ripped (confidence 7) [FB986FE2] (AR v2)
Track 14 accurately ripped (confidence 7) [B3907596] (AR v2)
Track 15 accurately ripped (confidence 8) [23DEE882] (AR v2)

All tracks accurately ripped

End of status report

–– CUETools DB Plugin V2.1.6

[CTDB TOCID: GY7_aUqz9_wyFbiNIyQ8851cK0U-] found
Submit result: GY7_aUqz9_wyFbiNIyQ8851cK0U- has been confirmed
Track | CTDB Status
1 | (43/45) Accurately ripped, or (1/45) differs in 24 samples @05:52:25,05:52:59
2 | (45/45) Accurately ripped
3 | (45/45) Accurately ripped
4 | (45/45) Accurately ripped
5 | (44/45) Accurately ripped, or (1/45) differs in 12 samples @02:44:48
6 | (44/45) Accurately ripped, or (1/45) differs in 24 samples @02:04:53,03:00:35
7 | (45/45) Accurately ripped
8 | (43/45) Accurately ripped, or (1/45) differs in 11 samples @02:28:22
9 | (43/45) Accurately ripped, or (1/45) differs in 12 samples @01:14:02
10 | (45/45) Accurately ripped
11 | (44/45) Accurately ripped, or (1/45) differs in 11 samples @02:35:16
12 | (45/45) Accurately ripped
13 | (44/45) Accurately ripped
14 | (43/45) Accurately ripped, or (1/45) differs in 12 samples @00:06:63
15 | (44/45) Accurately ripped



CD10
Exact Audio Copy V1.3 from 2. September 2016

EAC extraction logfile from 22. June 2018, 8:54

Pepe Romero / Rodrigo - Cpncertos

Used drive : PIONEER BD-RW BDR-208D Adapter: 1 ID: 1

Read mode : Secure
Utilize accurate stream : Yes
Defeat audio cache : Yes
Make use of C2 pointers : No

Read offset correction : 667
Overread into Lead-In and Lead-Out : No
Fill up missing offset samples with silence : Yes
Delete leading and trailing silent blocks : No
Null samples used in CRC calculations : Yes
Used interface : Native Win32 interface for Win NT & 2000

Used output format : Internal WAV Routines
Sample format : 44.100 Hz; 16 Bit; Stereo


TOC of the extracted CD

Track | Start | Length | Start sector | End sector
––––––––––––––––––––––––––––-
1 | 0:00.00 | 2:03.18 | 0 | 9242
2 | 2:03.18 | 2:52.03 | 9243 | 22145
3 | 4:55.21 | 1:39.50 | 22146 | 29620
4 | 6:34.71 | 1:40.37 | 29621 | 37157
5 | 8:15.33 | 1:25.59 | 37158 | 43591
6 | 9:41.17 | 1:58.74 | 43592 | 52515
7 | 11:40.16 | 2:00.15 | 52516 | 61530
8 | 13:40.31 | 6:10.62 | 61531 | 89342
9 | 19:51.18 | 4:45.20 | 89343 | 110737
10 | 24:36.38 | 4:55.58 | 110738 | 132920
11 | 29:32.21 | 7:48.62 | 132921 | 168082
12 | 37:21.08 | 9:57.00 | 168083 | 212857
13 | 47:18.08 | 6:13.54 | 212858 | 240886
14 | 53:31.62 | 4:11.46 | 240887 | 259757
15 | 57:43.33 | 4:56.13 | 259758 | 281970
16 | 62:39.46 | 6:24.57 | 281971 | 310827
17 | 69:04.28 | 7:10.00 | 310828 | 343077
18 | 76:14.28 | 6:22.22 | 343078 | 371749


Range status and errors

Selected range

Filename C:\Pepe Romero - Master of The Guitar (11CD, Decca, 2013)\CD10\Pepe Romero - Rodrigo - Cpncertos.wav

Peak level 87.5 %
Extraction speed 7.1 X
Range quality 99.9 %
Copy CRC 00F9E61C
Copy OK

No errors occurred


AccurateRip summary

Track 1 accurately ripped (confidence 7) [0310B0A3] (AR v2)
Track 2 accurately ripped (confidence 7) [7BEE8098] (AR v2)
Track 3 accurately ripped (confidence 7) [8773130E] (AR v2)
Track 4 accurately ripped (confidence 7) [97FF08DC] (AR v2)
Track 5 accurately ripped (confidence 7) [52F079C0] (AR v2)
Track 6 accurately ripped (confidence 7) [2B64CF44] (AR v2)
Track 7 accurately ripped (confidence 7) [BE3488F3] (AR v2)
Track 8 accurately ripped (confidence 7) [B64DC497] (AR v2)
Track 9 accurately ripped (confidence 7) [F0059EC0] (AR v2)
Track 10 accurately ripped (confidence 7) [0B404245] (AR v2)
Track 11 accurately ripped (confidence 7) [4DBEBFDE] (AR v2)
Track 12 accurately ripped (confidence 7) [D133E06F] (AR v2)
Track 13 accurately ripped (confidence 7) [AC07D0B4] (AR v2)
Track 14 accurately ripped (confidence 7) [8E61AE7F] (AR v2)
Track 15 accurately ripped (confidence 7) [C6AAC16A] (AR v2)
Track 16 accurately ripped (confidence 7) [8755B481] (AR v2)
Track 17 accurately ripped (confidence 7) [6EF7483E] (AR v2)
Track 18 accurately ripped (confidence 6) [FD49F059] (AR v2)

All tracks accurately ripped

End of status report

–– CUETools DB Plugin V2.1.6

[CTDB TOCID: vzoHfGoofdOi2z57n6zem.r25so-] found
Submit result: vzoHfGoofdOi2z57n6zem.r25so- has been confirmed
Track | CTDB Status
1 | (22/22) Accurately ripped
2 | (21/22) Accurately ripped
3 | (21/22) Accurately ripped
4 | (21/22) Accurately ripped
5 | (21/22) Accurately ripped
6 | (21/22) Accurately ripped
7 | (21/22) Accurately ripped
8 | (21/22) Accurately ripped
9 | (20/22) Accurately ripped
10 | (21/22) Accurately ripped
11 | (21/22) Accurately ripped
12 | (21/22) Accurately ripped
13 | (21/22) Accurately ripped
14 | (22/22) Accurately ripped
15 | (21/22) Accurately ripped
16 | (22/22) Accurately ripped
17 | (21/22) Accurately ripped
18 | (17/22) Accurately ripped



CD11
Exact Audio Copy V1.3 from 2. September 2016

EAC extraction logfile from 22. June 2018, 9:47

Pepe Romero / Master of the Guitar CD 11

Used drive : PIONEER BD-RW BDR-208D Adapter: 1 ID: 1

Read mode : Secure
Utilize accurate stream : Yes
Defeat audio cache : Yes
Make use of C2 pointers : No

Read offset correction : 667
Overread into Lead-In and Lead-Out : No
Fill up missing offset samples with silence : Yes
Delete leading and trailing silent blocks : No
Null samples used in CRC calculations : Yes
Used interface : Native Win32 interface for Win NT & 2000

Used output format : Internal WAV Routines
Sample format : 44.100 Hz; 16 Bit; Stereo


TOC of the extracted CD

Track | Start | Length | Start sector | End sector
––––––––––––––––––––––––––––-
1 | 0:00.00 | 1:49.36 | 0 | 8210
2 | 1:49.36 | 6:14.62 | 8211 | 36322
3 | 8:04.23 | 2:15.17 | 36323 | 46464
4 | 10:19.40 | 4:08.61 | 46465 | 65125
5 | 14:28.26 | 4:19.12 | 65126 | 84562
6 | 18:47.38 | 4:35.00 | 84563 | 105187
7 | 23:22.38 | 4:28.28 | 105188 | 125315
8 | 27:50.66 | 6:34.60 | 125316 | 154925
9 | 34:25.51 | 7:00.28 | 154926 | 186453
10 | 41:26.04 | 3:32.09 | 186454 | 202362
11 | 44:58.13 | 1:30.01 | 202363 | 209113
12 | 46:28.14 | 2:55.28 | 209114 | 222266
13 | 49:23.42 | 3:59.59 | 222267 | 240250
14 | 53:23.26 | 5:33.40 | 240251 | 265265
15 | 58:56.66 | 4:39.54 | 265266 | 286244
16 | 63:36.45 | 4:47.17 | 286245 | 307786
17 | 68:23.62 | 5:13.42 | 307787 | 331303
18 | 73:37.29 | 1:59.04 | 331304 | 340232
19 | 75:36.33 | 2:39.72 | 340233 | 352229
20 | 78:16.30 | 1:28.05 | 352230 | 358834


Range status and errors

Selected range

Filename C:\Pepe Romero - Master of The Guitar (11CD, Decca, 2013)\CD11\Pepe Romero - Master of the Guitar CD 11.wav

Peak level 100.0 %
Extraction speed 3.1 X
Range quality 99.9 %
Copy CRC A9991943
Copy OK

No errors occurred


AccurateRip summary

Track 1 accurately ripped (confidence 7) [57C6C333] (AR v2)
Track 2 accurately ripped (confidence 7) [411B0830] (AR v2)
Track 3 accurately ripped (confidence 7) [8C6CCD49] (AR v2)
Track 4 accurately ripped (confidence 7) [DD0163F6] (AR v2)
Track 5 accurately ripped (confidence 7) [F2CE6EA4] (AR v2)
Track 6 accurately ripped (confidence 7) [13CEC5CE] (AR v2)
Track 7 accurately ripped (confidence 7) [1097F483] (AR v2)
Track 8 accurately ripped (confidence 7) [865A5CEF] (AR v2)
Track 9 accurately ripped (confidence 7) [F60B9E47] (AR v2)
Track 10 accurately ripped (confidence 7) [8B50722B] (AR v2)
Track 11 accurately ripped (confidence 7) [4EBE9034] (AR v2)
Track 12 accurately ripped (confidence 7) [82795499] (AR v2)
Track 13 accurately ripped (confidence 7) [A0B24FCC] (AR v2)
Track 14 accurately ripped (confidence 7) [05F319D2] (AR v2)
Track 15 accurately ripped (confidence 7) [4488BAC1] (AR v2)
Track 16 accurately ripped (confidence 7) [7451B7D2] (AR v2)
Track 17 accurately ripped (confidence 7) [AA79F823] (AR v2)
Track 18 accurately ripped (confidence 7) [977A9B44] (AR v2)
Track 19 accurately ripped (confidence 7) [C09C171C] (AR v2)
Track 20 accurately ripped (confidence 7) [31567A7B] (AR v2)

All tracks accurately ripped

End of status report

–– CUETools DB Plugin V2.1.6

[CTDB TOCID: iIvd6lQA2Kbnp7SYIpyK1kTJI5A-] found
Submit result: iIvd6lQA2Kbnp7SYIpyK1kTJI5A- has been confirmed
Track | CTDB Status
1 | (20/20) Accurately ripped
2 | (20/20) Accurately ripped
3 | (20/20) Accurately ripped
4 | (20/20) Accurately ripped
5 | (20/20) Accurately ripped
6 | (20/20) Accurately ripped
7 | (20/20) Accurately ripped
8 | (20/20) Accurately ripped
9 | (20/20) Accurately ripped
10 | (20/20) Accurately ripped
11 | (20/20) Accurately ripped
12 | (20/20) Accurately ripped
13 | (20/20) Accurately ripped
14 | (20/20) Accurately ripped
15 | (20/20) Accurately ripped
16 | (19/20) Accurately ripped
17 | (20/20) Accurately ripped
18 | (20/20) Accurately ripped
19 | (20/20) Accurately ripped
20 | (20/20) Accurately ripped



Thanks to the original ripper.