Subcategories

Per Gessle - Party Crasher (2008)

Posted By: v3122
Per Gessle - Party Crasher (2008)

Per Gessle - Party Crasher (2008)
EAC | Flac(Image) + Cue + Log & MP3 CBR 320Kbps
EMI Music Sweden AB, 265 632 2 | ~ 303 or 103 Mb | Scans(png) -> 461 Mb
Pop / Pop Rock / Synth-pop

The English-speaking world has more or less forgotten about Per Gessle since Roxette's dissolution in the mid-'90s. But the Swedish songsmith – a major star in his native country – never stopped churning out hummable, hooky pop, both solo and with the eventually re-formed Roxette. Party Crasher is his third English-language solo album and seventh overall, and it's about as solid as they come. The sheeny, synth-kissed production feels dated (circa the original Roxette era) in a way that could almost be hip…well, almost. (If the title's supposed to suggest that Gessle's crashing the late '00s' perpetual retro-'80s borrowed-nostalgia party, it's mostly a failure on that count.) But well-crafted melodies never go out of style, or at least they always come back around, and there is certainly no shortage here. The fizzy electro-pop single "Silly Really" sets the tone, musically and conceptually (it's a perfect frivolous Gessle song title, blithely devoid of any discernible meaning) and it's a blast. The supremely Cars-esque "Gut Feeling" and the goofy, surf-tinged "Thai with a Twist" (complete with sax solo, crowd noise, and vocoder breakdown, and no, the title doesn't make any more sense in context) may be even better. But the best stuff on here is the actually the mellower material: lush slow jams like "Hey, I Died and Went to Heaven" and "Perfect Excuse" (two of several tracks that benefit greatly from the vocal contributions of Helena Josefsson) and especially the breezy, buoyant, Caribbean-flavored "Breathe Life into Me" and "I Didn't Mean to Turn You On." All told, an impressive showing and a splendidly enjoyable album.

by K. Ross Hoffman, allmusic
Per Gessle - Party Crasher (2008)


Per Gessle - Party Crasher (2008):

Per Gessle - Party Crasher (2008)

Tracklist:

01. Silly Really [0:03:42.68]
02. The Party Pleaser [0:03:40.70]
03. Stuck Here With Me [0:03:23.20]
04. Sing Along [0:04:02.21]
05. Gut Feeling [0:03:35.66]
06. Perfect Excuse [0:03:13.62]
07. Breathe Life Into Me [0:03:44.14]
08. Hey, I Died And Went To Heaven [0:04:03.57]
09. Kissing Is The Key [0:03:11.54]
10. Thai With A Twist [0:02:42.70]
11. I Didn`t Mean To Turn You On [0:03:33.68]
12. Doesn`t Make Sense [0:03:50.63]

Exact Audio Copy V1.0 beta 3 from 29. August 2011

EAC extraction logfile from 7. April 2013, 20:37

Per Gessle / Party Crasher

Used drive : Optiarc BD RW BD-5300S Adapter: 3 ID: 0

Read mode : Secure
Utilize accurate stream : Yes
Defeat audio cache : Yes
Make use of C2 pointers : No

Read offset correction : 6
Overread into Lead-In and Lead-Out : No
Fill up missing offset samples with silence : Yes
Delete leading and trailing silent blocks : No
Null samples used in CRC calculations : Yes
Used interface : Installed external ASPI interface

Used output format : User Defined Encoder
Selected bitrate : 1024 kBit/s
Quality : High
Add ID3 tag : No
Command line compressor : C:\Program Files (x86)\Exact Audio Copy\Flac\flac.exe
Additional command line options : -8 -V -T "Date=%year%" -T "Genre=%genre%" -T "COMMENT=ripped by bvstudio®" %source%


TOC of the extracted CD

Track | Start | Length | Start sector | End sector
––––––––––––––––––––––––––––-
1 | 0:00.00 | 3:42.68 | 0 | 16717
2 | 3:42.68 | 3:40.70 | 16718 | 33287
3 | 7:23.63 | 3:23.20 | 33288 | 48532
4 | 10:47.08 | 4:02.21 | 48533 | 66703
5 | 14:49.29 | 3:35.66 | 66704 | 82894
6 | 18:25.20 | 3:13.62 | 82895 | 97431
7 | 21:39.07 | 3:44.14 | 97432 | 114245
8 | 25:23.21 | 4:03.57 | 114246 | 132527
9 | 29:27.03 | 3:11.54 | 132528 | 146906
10 | 32:38.57 | 2:42.70 | 146907 | 159126
11 | 35:21.52 | 3:33.68 | 159127 | 175169
12 | 38:55.45 | 3:50.63 | 175170 | 192482


Range status and errors

Selected range

Filename F:\Roxette, Per, Marie\Per Gessle\2008 - Party Crasher\Per Gessle - Party Crasher.wav

Peak level 98.8 %
Extraction speed 6.5 X
Range quality 100.0 %
Test CRC D9A17F0B
Copy CRC D9A17F0B
Copy OK

No errors occurred


AccurateRip summary

Track 1 accurately ripped (confidence 3) [1C5450C4] (AR v2)
Track 2 accurately ripped (confidence 3) [0E360D70] (AR v2)
Track 3 accurately ripped (confidence 3) [E1F8E118] (AR v2)
Track 4 accurately ripped (confidence 3) [ECD01DBA] (AR v2)
Track 5 accurately ripped (confidence 3) [1BBBC2E8] (AR v2)
Track 6 accurately ripped (confidence 3) [85DEA584] (AR v2)
Track 7 accurately ripped (confidence 3) [ED0106D2] (AR v2)
Track 8 accurately ripped (confidence 3) [05EF126A] (AR v2)
Track 9 accurately ripped (confidence 3) [765E00B8] (AR v2)
Track 10 accurately ripped (confidence 3) [142AC38D] (AR v2)
Track 11 accurately ripped (confidence 3) [B8D2B85E] (AR v2)
Track 12 accurately ripped (confidence 3) [DEF53346] (AR v2)

All tracks accurately ripped

End of status report

–– CUETools DB Plugin V2.1.4

[CTDB TOCID: RrB.S_9YM64CxgJcmqRR.qa6owQ-] found
Submit result: RrB.S_9YM64CxgJcmqRR.qa6owQ- has been confirmed
Track | CTDB Status
1 | (2/2) Accurately ripped
2 | (2/2) Accurately ripped
3 | (2/2) Accurately ripped
4 | (2/2) Accurately ripped
5 | (2/2) Accurately ripped
6 | (2/2) Accurately ripped
7 | (2/2) Accurately ripped
8 | (2/2) Accurately ripped
9 | (2/2) Accurately ripped
10 | (2/2) Accurately ripped
11 | (2/2) Accurately ripped
12 | (2/2) Accurately ripped


==== Log checksum 372705BEDD2FD3F183936BFDA1D675906BA64ABCE97123864F92168E18238B59 ====

[CUETools log; Date: 13.01.2018 11:35:03; Version: 2.1.5]
[AccurateRip ID: 0013516f-00b39be5-950a060c] found.
Track [ CRC | V2 ] Status
01 [5823bfe8|1c5450c4] (24+15/39) Accurately ripped
02 [dddef67b|0e360d70] (24+15/39) Accurately ripped
03 [c859fc1d|e1f8e118] (24+15/39) Accurately ripped
04 [49888374|ecd01dba] (24+15/39) Accurately ripped
05 [3996ae2a|1bbbc2e8] (24+15/39) Accurately ripped
06 [7678979b|85dea584] (24+14/38) Accurately ripped
07 [2de1f418|ed0106d2] (24+15/39) Accurately ripped
08 [f6b0256c|05ef126a] (24+15/39) Accurately ripped
09 [1e9e423d|765e00b8] (24+15/39) Accurately ripped
10 [ff8e3a02|142ac38d] (24+15/39) Accurately ripped
11 [055178e1|b8d2b85e] (24+14/38) Accurately ripped
12 [46557972|def53346] (23+15/38) Accurately ripped

Track Peak [ CRC32 ] [W/O NULL] [ LOG ]
– 98,8 [D9A17F0B] [B908DC70] CRC32
01 98,6 [ABA6F31E] [2947BA32]
02 98,6 [217E8BEF] [AA6259C6]
03 98,6 [CE2B56DD] [0DC84F59]
04 98,6 [8F3403CD] [2B4082C9]
05 98,6 [AB4FC601] [9B38E45C]
06 98,6 [46CE4443] [84FEAA12]
07 98,6 [94AAD1ED] [CA64B15D]
08 98,8 [DA6184FE] [F6EE7055]
09 98,6 [1AD8A5EB] [36C74E0A]
10 98,6 [F64A04EC] [9B074CB3]
11 98,6 [3FB1DE71] [EADCD027]
12 98,4 [8E09FE8A] [CBCBAAB6]


Per Gessle - Party Crasher (2008)

All thanks go to bvstudio

Roxette or Roxette in my Blog

Download Per Gessle - Party Crasher (2008):